osu file format v12

[General]
AudioFilename: 04 EGOiSTiC SHOOTER.mp3
AudioLeadIn: 0
PreviewTime: 144529
Countdown: 0
SampleSet: None
StackLeniency: 0.7
Mode: 0
LetterboxInBreaks: 1
WidescreenStoryboard: 1

[Editor]
DistanceSpacing: 1
BeatDivisor: 4
GridSize: 4

[Metadata]
Title:EGOiSTiC SHOOTER
TitleUnicode:EGOiSTiC SHOOTER
Artist:LiSA
ArtistUnicode:LiSA
Creator:eLy
Version:vs 0108
Source:
Tags:lisa shoot egoistic ely delis caren val0108 0108
BeatmapID:296384
BeatmapSetID:102293

[Difficulty]
HPDrainRate:4
CircleSize:4
OverallDifficulty:7
ApproachRate:9
SliderMultiplier:3
SliderTickRate:2

[Events]
//Background and Video events
0,0,"BG.jpg",0,0
//Break Periods
2,38467,42123
//Storyboard Layer 0 (Background)
//Storyboard Layer 1 (Fail)
//Storyboard Layer 2 (Pass)
//Storyboard Layer 3 (Foreground)
//Storyboard Sound Samples
//Background Colour Transformations
3,100,163,162,255

[TimingPoints]
248,297.029702970297,4,2,1,50,1,0
248,-200,4,2,1,50,0,0
4925,-133.333333333333,4,2,1,60,0,0
9678,-100,4,2,1,60,0,0
31064,-133.333333333333,4,2,1,60,0,0
31955,-100,4,2,1,60,0,0
32401,-83.3333333333333,4,2,1,60,0,0
32920,-83.3333333333333,4,2,1,60,0,1
32995,-100,4,2,1,60,0,0
34406,-83.3333333333333,4,2,1,60,0,1
34480,-83.3333333333333,4,2,1,60,0,0
35297,-83.3333333333333,4,2,1,60,0,1
35371,-83.3333333333333,4,2,1,60,0,0
36336,-83.3333333333333,4,2,1,60,0,1
36410,-83.3333333333333,4,2,1,60,0,0
36782,-83.3333333333333,4,2,1,60,0,1
36856,-83.3333333333333,4,2,1,60,0,0
37079,-83.3333333333333,4,2,1,60,0,1
37153,-83.3333333333333,4,2,1,60,0,0
37524,-83.3333333333333,4,2,1,50,0,0
37821,-83.3333333333333,4,2,1,40,0,0
38267,-100,4,2,1,60,0,0
42945,-100,4,2,1,60,0,0
52525,-200,4,2,1,60,0,0
61361,-200,4,2,1,60,0,0
61955,-100,4,2,1,5,0,0
62029,-66.6666666666667,4,2,1,100,0,1
65891,-50,4,2,1,100,0,1
66782,-66.6666666666667,4,2,1,100,0,1
78069,-200,4,2,1,100,0,1
79554,-100,4,2,1,5,0,0
79628,-100,4,2,1,60,0,0
104727,-133.333333333333,4,2,1,60,0,0
107104,-83.3333333333333,4,2,1,60,0,0
123737,-133.333333333333,4,2,1,60,0,0
124628,-100,4,2,1,60,0,0
125074,-83.3333333333333,4,2,1,60,0,0
143861,-133.333333333333,4,2,1,60,0,0
144455,-133.333333333333,4,2,1,5,0,0
144529,-200,4,2,1,5,0,0
145123,-200,4,2,1,100,0,0
145198,-66.6666666666667,4,2,1,100,0,1
163016,285.714285714286,4,2,1,60,1,1
164158,297.029702970297,4,2,1,100,1,1
164158,-66.6666666666667,4,2,1,100,0,1
165372,297.029702970297,4,2,1,100,1,1
165372,-66.6666666666667,4,2,1,100,0,1
166581,297.029702970297,4,2,1,100,1,1
166581,-66.6666666666667,4,2,1,100,0,1
170161,297.029702970297,4,2,1,100,1,1
170235,-100,4,2,1,60,0,0
170680,-200,4,2,1,60,0,0
171349,-66.6666666666667,4,2,1,60,0,0
178403,-66.6666666666667,4,2,1,30,0,0
179443,-133.333333333333,4,2,1,30,0,0

[Colours]
Combo1 : 150,186,254
Combo2 : 245,245,245
Combo3 : 0,198,225

[HitObjects]
176,40,248,6,0,L|200:72,4,37.5
334,42,693,2,0,L|312:72,4,37.5,0|0|0|0|0,0:0|0:0|0:0|0:0|0:0,0:0:0:0:
256,112,1139,1,0,0:0:0:0:
256,112,1213,1,0,0:0:0:0:
120,152,1436,6,0,L|184:144,4,37.5
354,147,1881,2,0,L|392:152,4,37.5
256,176,2327,1,0,0:0:0:0:
256,176,2401,1,0,0:0:0:0:
156,224,2624,6,0,L|164:284,4,37.5
356,224,3069,2,0,L|348:284,4,37.5
256,232,3515,1,0,0:0:0:0:
256,232,3589,1,0,0:0:0:0:
192,364,3812,2,0,L|216:312,4,37.5
320,364,4257,2,0,L|296:312,4,37.5
256,288,4703,1,0,0:0:0:0:
256,288,4777,1,0,0:0:0:0:
92,272,5000,6,0,P|76:204|88:152,1,112.500004291535
144,68,5297,1,0,0:0:0:0:
256,96,5446,1,0,0:0:0:0:
368,316,5742,1,0,0:0:0:0:
256,288,5891,1,0,0:0:0:0:
256,192,6040,5,0,0:0:0:0:
408,28,6337,1,0,0:0:0:0:
392,116,6485,1,0,0:0:0:0:
444,40,6634,1,0,0:0:0:0:
68,40,6931,1,0,0:0:0:0:
120,116,7080,1,0,0:0:0:0:
104,28,7228,1,0,0:0:0:0:
256,120,7525,5,0,0:0:0:0:
256,136,7599,1,0,0:0:0:0:
256,152,7673,2,0,L|256:280,1,112.500004291535
168,172,7970,1,0,0:0:0:0:
344,172,8119,1,0,0:0:0:0:
360,184,8416,5,0,0:0:0:0:
152,184,8713,1,0,0:0:0:0:
256,224,8861,1,0,0:0:0:0:
124,200,9010,2,0,P|112:248|124:320,1,112.500004291535
256,364,9307,1,0,0:0:0:0:
391,309,9455,1,0,0:0:0:0:
400,284,9530,1,0,0:0:0:0:
400,256,9604,1,0,0:0:0:0:
392,220,9678,1,0,0:0:0:0:
376,188,9752,6,0,P|352:116|380:28,1,150
508,104,10049,1,0,0:0:0:0:
376,188,10198,2,0,L|224:128,1,150
156,4,10495,1,0,0:0:0:0:
152,240,10644,1,0,0:0:0:0:
64,120,10792,2,0,L|168:-12,1,150
448,264,11089,2,0,L|344:396,1,150
92,208,11386,2,0,L|196:76,1,150
420,208,11683,1,0,0:0:0:0:
256,296,11832,1,0,0:0:0:0:
92,208,11980,1,0,0:0:0:0:
440,180,12277,5,0,0:0:0:0:
256,264,12426,1,0,0:0:0:0:
72,180,12574,1,0,0:0:0:0:
156,304,12723,1,0,0:0:0:0:
12,268,12871,2,0,P|68:272|148:208,1,150
29,37,13168,2,0,L|77:197,1,150
156,304,13465,1,0,0:0:0:0:
356,304,13614,1,0,0:0:0:0:
439,180,13762,2,0,L|483:37,1,150
192,32,14059,5,0,0:0:0:0:
168,72,14134,1,0,0:0:0:0:
160,116,14208,1,0,0:0:0:0:
176,156,14282,1,0,0:0:0:0:
212,184,14356,1,0,0:0:0:0:
256,196,14431,1,0,0:0:0:0:
300,184,14505,2,0,P|392:144|516:304,1,300
356,304,14950,5,0,0:0:0:0:
300,184,15099,2,0,P|284:100|304:32,2,150
73,291,15545,2,0,P|165:259|361:307,1,300
424,172,15990,2,0,P|406:99|430:29,1,150
424,172,16287,1,0,0:0:0:0:
88,172,16584,1,0,0:0:0:0:
188,60,16733,1,0,0:0:0:0:
324,324,16881,5,0,0:0:0:0:
256,192,17030,1,0,0:0:0:0:
188,324,17178,5,0,0:0:0:0:
324,60,17327,1,0,0:0:0:0:
188,60,17475,5,0,0:0:0:0:
88,172,17624,1,0,0:0:0:0:
424,172,17772,1,0,0:0:0:0:
256,192,17921,2,0,P|140:212|112:384,1,300
236,300,18366,1,0,0:0:0:0:
116,88,18515,2,0,L|152:16,2,75
324,260,18812,1,0,0:0:0:0:
348,204,18886,1,0,0:0:0:0:
340,144,18960,1,0,0:0:0:0:
300,100,19035,1,0,0:0:0:0:
240,92,19109,1,0,0:0:0:0:
184,112,19183,1,0,0:0:0:0:
156,164,19257,6,0,P|176:256|376:344,1,300
256,192,19703,1,0,0:0:0:0:
256,72,19851,1,0,0:0:0:0:
136,192,20000,1,0,0:0:0:0:
376,192,20148,1,0,0:0:0:0:
108,84,20297,6,0,P|48:152|40:224,1,150
256,312,20594,1,0,0:0:0:0:
473,208,20743,2,0,P|456:136|404:84,1,150
136,192,21040,1,0,0:0:0:0:
376,192,21188,1,0,0:0:0:0:
256,312,21337,1,0,0:0:0:0:
256,72,21485,1,0,0:0:0:0:
256,192,21634,5,0,0:0:0:0:
128,304,21782,1,0,0:0:0:0:
384,80,21931,1,0,0:0:0:0:
384,304,22079,1,0,0:0:0:0:
128,80,22228,1,0,0:0:0:0:
384,80,22376,1,0,0:0:0:0:
384,304,22524,1,0,0:0:0:0:
128,304,22673,6,0,P|160:216|52:12,1,300
36,68,23045,1,0,0:0:0:0:
12,124,23119,1,0,0:0:0:0:
224,52,23267,1,0,0:0:0:0:
284,36,23342,1,0,0:0:0:0:
344,48,23416,1,0,0:0:0:0:
440,120,23564,1,0,0:0:0:0:
396,160,23639,1,0,0:0:0:0:
376,216,23713,1,0,0:0:0:0:
388,276,23787,1,0,0:0:0:0:
372,332,23861,1,0,0:0:0:0:
320,360,23936,1,0,0:0:0:0:
264,376,24010,6,0,P|272:300|484:220,1,300
256,192,24455,1,0,0:0:0:0:
248,8,24604,2,0,P|199:143|59:176,1,300
112,48,25049,2,0,P|233:124|364:64,1,300
324,208,25495,1,0,0:0:0:0:
472,192,25644,1,0,0:0:0:0:
124,248,25792,2,0,P|184:292|296:300,1,150
388,136,26089,2,0,P|328:92|216:84,1,150
104,92,26386,5,0,0:0:0:0:
36,228,26535,1,0,0:0:0:0:
104,360,26683,1,0,0:0:0:0:
256,380,26832,1,0,0:0:0:0:
408,360,26980,1,0,0:0:0:0:
476,228,27128,1,0,0:0:0:0:
408,92,27277,1,0,0:0:0:0:
256,28,27426,1,0,0:0:0:0:
104,92,27574,5,0,0:0:0:0:
408,92,27723,1,0,0:0:0:0:
104,292,27871,1,0,0:0:0:0:
408,292,28020,2,0,L|92:152,1,300
80,140,28391,1,0,0:0:0:0:
20,148,28465,1,0,0:0:0:0:
16,208,28540,1,0,0:0:0:0:
64,244,28614,1,0,0:0:0:0:
120,224,28688,1,0,0:0:0:0:
133,169,28762,6,0,P|192:122|264:107,1,150
233,314,29059,2,0,P|186:255|171:183,1,150
320,192,29356,1,0,0:0:0:0:
116,76,29505,1,0,0:0:0:0:
104,304,29653,1,0,0:0:0:0:
320,192,29802,2,0,B|212:148|160:264|12:152,1,300
378,214,30248,2,0,P|319:261|247:276,1,150
278,69,30545,2,0,P|325:128|340:200,1,150,0|0,0:0|0:0,0:0:0:0:
408,304,30842,1,0,0:0:0:0:
396,76,30990,1,0,0:0:0:0:
468,160,31139,6,0,L|488:40,2,112.500004291535
25,49,31584,6,0,L|44:160,2,112.500004291535
328,240,32030,6,0,L|356:88,2,150
145,64,32475,6,0,L|184:240,2,179.999994506836
256,348,32921,5,0,0:0:0:0:
256,294,32995,1,0,0:0:0:0:
256,240,33069,1,0,0:0:0:0:
256,185,33144,1,0,0:0:0:0:
256,131,33218,2,0,L|164:100,1,75
328,108,33366,2,0,L|256:131,1,75
256,24,33515,5,0,0:0:0:0:
148,168,33663,1,0,0:0:0:0:
364,168,33812,1,0,0:0:0:0:
144,64,33960,1,0,0:0:0:0:
0,112,34109,1,0,0:0:0:0:
104,260,34257,1,0,0:0:0:0:
256,348,34406,5,0,0:0:0:0:
256,294,34480,1,0,0:0:0:0:
256,240,34554,1,0,0:0:0:0:
256,185,34629,1,0,0:0:0:0:
256,131,34703,2,0,L|164:100,1,75
328,108,34851,2,0,L|256:131,1,75
256,68,35000,1,0,0:0:0:0:
392,268,35148,2,0,L|504:256,1,89.9999972534181
494,169,35297,2,0,L|478:277,1,89.9999972534181
424,336,35446,2,0,L|316:356,1,89.9999972534181
176,352,35594,2,0,L|88:336,1,89.9999972534181
18,215,35743,2,0,L|34:107,1,89.9999972534181
68,8,35891,6,0,L|148:80,3,89.9999972534181
216,20,36188,2,0,L|296:92,3,89.9999972534181
380,120,36485,2,0,L|300:192,3,89.9999972534181
232,132,36782,2,0,L|152:204,3,89.9999972534181
203,328,37079,6,0,L|256:256,1,89.9999972534181
308,55,37228,2,0,L|256:128,1,89.9999972534181
203,328,37376,6,0,L|256:256,1,89.9999972534181
308,55,37525,2,0,L|256:128,1,89.9999972534181
203,328,37673,6,0,L|256:256,1,89.9999972534181
308,55,37822,2,0,L|256:128,1,89.9999972534181
203,328,37970,6,0,L|256:256,1,89.9999972534181
308,55,38119,2,0,L|256:128,1,89.9999972534181
256,192,38267,1,0,0:0:0:0:
256,32,42723,5,0,0:0:0:0:
452,100,43020,6,0,P|408:180|424:396,1,300
256,256,43465,1,0,0:0:0:0:
94,383,43614,2,0,P|117:236|60:100,1,300
208,112,44059,1,0,0:0:0:0:
304,272,44208,2,0,P|328:192|312:124,1,150
192,288,44505,1,0,0:0:0:0:
256,40,44653,1,0,0:0:0:0:
260,352,44802,2,0,P|312:364|400:312,1,150
480,196,45099,1,0,0:0:0:0:
32,340,45248,1,0,0:0:0:0:
32,44,45396,5,0,0:0:0:0:
336,92,45545,1,0,0:0:0:0:
176,92,45693,1,0,0:0:0:0:
480,44,45842,1,0,0:0:0:0:
256,192,45990,1,0,0:0:0:0:
176,292,46139,1,0,0:0:0:0:
325,292,46287,1,0,0:0:0:0:
108,156,46436,6,0,P|56:232|180:384,1,300
404,156,46881,2,0,P|456:232|332:384,1,300
176,292,47327,1,0,0:0:0:0:
176,92,47475,1,0,0:0:0:0:
325,292,47624,1,0,0:0:0:0:
339,92,47772,6,0,P|467:156|443:320,1,300
260,148,48218,1,0,0:0:0:0:
176,92,48366,2,0,P|48:156|72:320,1,300
372,192,48812,2,0,P|272:272|135:172,1,300
24,40,49257,1,0,0:0:0:0:
488,40,49406,1,0,0:0:0:0:
140,192,49554,2,0,P|256:273|372:192,2,300
256,44,50297,1,0,0:0:0:0:
284,64,50594,5,0,0:0:0:0:
52,324,50743,1,0,0:0:0:0:
76,356,51040,5,0,0:0:0:0:
44,16,51188,1,0,0:0:0:0:
64,40,51485,5,0,0:0:0:0:
92,68,51782,5,0,0:0:0:0:
404,196,51931,1,0,0:0:0:0:
88,312,52079,1,0,0:0:0:0:
256,192,52228,1,0,0:0:0:0:
272,136,52302,1,0,0:0:0:0:
320,100,52376,1,0,0:0:0:0:
380,96,52450,1,0,0:0:0:0:
440,108,52525,5,0,0:0:0:0:
72,108,52822,1,0,0:0:0:0:
440,108,53119,1,0,0:0:0:0:
72,108,53416,1,0,0:0:0:0:
440,108,53713,1,0,0:0:0:0:
72,108,54010,5,0,0:0:0:0:
440,108,54158,1,0,0:0:0:0:
72,108,54455,5,0,0:0:0:0:
440,108,54604,1,0,0:0:0:0:
72,108,54752,1,0,0:0:0:0:
440,108,54901,1,0,0:0:0:0:
72,108,55198,5,0,0:0:0:0:
440,108,55495,1,0,0:0:0:0:
72,108,55792,1,0,0:0:0:0:
440,108,56089,1,0,0:0:0:0:
72,108,56386,5,0,0:0:0:0:
440,108,56535,1,0,0:0:0:0:
72,108,56832,5,0,0:0:0:0:
440,108,56980,1,0,0:0:0:0:
72,108,57129,1,0,0:0:0:0:
440,108,57277,1,0,0:0:0:0:
72,108,57574,5,0,0:0:0:0:
440,108,57723,1,0,0:0:0:0:
72,108,58020,5,0,0:0:0:0:
440,108,58168,1,0,0:0:0:0:
72,108,58317,1,0,0:0:0:0:
440,108,58614,5,0,0:0:0:0:
72,108,58762,1,0,0:0:0:0:
440,108,58911,1,0,0:0:0:0:
72,108,59208,5,0,0:0:0:0:
440,108,59356,1,0,0:0:0:0:
72,108,59505,1,0,0:0:0:0:
440,108,59653,1,0,0:0:0:0:
72,108,59950,5,0,0:0:0:0:
440,108,60099,1,0,0:0:0:0:
72,108,60247,1,0,0:0:0:0:
440,108,60396,1,0,0:0:0:0:
72,108,60545,1,0,0:0:0:0:
440,108,60694,1,0,0:0:0:0:
256,360,61436,6,0,B|256:280|256:280|256:300|256:300|256:208|256:208|256:228|256:228|256:152,1,262.5
256,88,62030,5,0,0:0:0:0:
80,224,62178,1,0,0:0:0:0:
432,224,62327,1,0,0:0:0:0:
144,352,62475,2,0,P|204:244|20:16,1,450.000017166138
80,224,62921,1,0,0:0:0:0:
432,224,63069,1,0,0:0:0:0:
248,324,63218,1,0,0:0:0:0:
256,88,63366,1,0,0:0:0:0:
368,352,63515,2,0,P|308:244|492:16,1,450.000017166138
417,249,63960,2,0,L|357:377,1,112.500004291535
142,350,64109,2,0,L|95:249,1,112.500004291535
256,160,64257,2,0,L|256:300,1,112.500004291535
140,96,64406,6,0,P|280:16|392:24,1,225.000008583069
452,4,64629,2,0,P|468:44|468:120,1,112.500004291535
372,288,64851,2,0,P|232:368|120:360,1,225.000008583069
60,380,65074,2,0,P|44:340|44:264,1,112.500004291535
16,32,65297,5,0,0:0:0:0:
16,32,65446,2,0,B|200:128|212:-20|492:36,1,450.000017166138
484,348,65891,6,0,B|336:264|332:364|184:308,1,300
144,260,66114,1,0,0:0:0:0:
122,176,66188,2,0,L|256:108,1,150
389,207,66337,2,0,L|256:276,1,150
122,176,66485,2,0,L|256:108,1,150
389,207,66634,2,0,L|256:276,1,150
144,260,66782,5,0,0:0:0:0:
52,60,66931,1,0,0:0:0:0:
40,344,67079,1,0,0:0:0:0:
256,188,67228,2,0,L|508:188,1,225.000008583069
336,16,67525,1,0,0:0:0:0:
136,120,67673,1,0,0:0:0:0:
272,300,67822,1,0,0:0:0:0:
480,188,67970,2,0,P|372:92|184:84,1,337.500012874604
185,83,68267,2,0,P|208:204|52:376,1,337.500012874604
84,365,68564,2,0,P|206:258|520:192,1,450.000017166138
288,144,69010,1,0,0:0:0:0:
60,56,69158,5,0,0:0:0:0:
452,328,69307,2,0,L|416:64,1,225.000008583069
100,336,69604,2,0,P|328:384|520:268,1,450.000017166138
512,72,70049,1,0,0:0:0:0:
303,14,70198,2,0,P|114:118|101:334,1,450.000017166138
408,236,70644,2,0,P|516:148|500:56,1,225.000008583069
220,72,70941,6,0,P|272:104|296:152,1,112.500004291535
140,228,71089,2,0,P|172:176|220:152,1,112.500004291535
292,312,71238,2,0,P|240:280|216:232,1,112.500004291535
372,156,71386,2,0,P|340:208|292:232,1,112.500004291535
220,72,71535,5,0,0:0:0:0:
372,156,71683,1,0,0:0:0:0:
292,308,71832,1,0,0:0:0:0:
140,228,71980,2,0,P|64:128|264:40,1,337.500012874604
220,72,72277,2,0,P|344:88|476:28,1,225.000008583069
496,276,72574,1,0,0:0:0:0:
256,356,72723,1,0,0:0:0:0:
16,276,72871,1,0,0:0:0:0:
150,75,73020,6,0,B|256:48|256:48|372:82,1,225.000008583069
384,192,73243,1,0,0:0:0:0:
366,303,73317,2,0,B|256:336|256:336|150:309,1,225.000008583069
128,192,73540,1,0,0:0:0:0:
256,192,73614,1,0,0:0:0:0:
0,192,73762,5,0,0:0:0:0:
512,192,73911,1,0,0:0:0:0:
0,344,74208,1,0,0:0:0:0:
512,40,74356,1,0,0:0:0:0:
0,48,74653,5,0,0:0:0:0:
512,336,74802,1,0,0:0:0:0:
128,24,74950,2,0,P|180:188|84:364,1,337.500012874604
72,244,75248,2,0,P|152:216|288:248,1,225.000008583069
0,108,75545,1,0,0:0:0:0:
260,60,75693,2,0,P|324:48|396:52,1,112.500004291535
372,140,75842,2,0,P|423:179|468:235,1,112.500004291535,0|0,0:0|0:0,2:0:0:0:
352,264,75990,2,0,P|332:326|295:387,1,112.500004291535
228,325,76139,2,0,P|168:352|97:365,1,112.500004291535,0|0,0:0|0:0,2:0:0:0:
88,256,76287,5,0,0:0:0:0:
68,144,76361,1,0,0:0:0:0:
152,68,76436,1,0,0:0:0:0:
256,24,76510,1,0,0:0:0:0:
360,68,76584,1,0,0:0:0:0:
444,144,76659,1,0,0:0:0:0:
444,256,76733,1,0,0:0:0:0:
364,336,76807,1,0,0:0:0:0:
260,376,76881,1,0,0:0:0:0:
148,336,76955,1,0,0:0:0:0:
88,256,77030,1,0,0:0:0:0:
68,144,77104,1,0,0:0:0:0:
152,68,77179,1,0,0:0:0:0:
256,24,77253,1,0,0:0:0:0:
360,68,77327,1,0,0:0:0:0:
444,144,77402,1,0,0:0:0:0:
444,256,77476,1,0,0:0:0:0:
80,0,78069,6,0,L|400:-144,1,300
