osu file format v14

[General]
AudioFilename: crossing field.mp3
AudioLeadIn: 0
PreviewTime: -1
Countdown: 0
SampleSet: Soft
StackLeniency: 0.7
Mode: 3
LetterboxInBreaks: 0
SpecialStyle: 0
WidescreenStoryboard: 1

[Editor]
DistanceSpacing: 1
BeatDivisor: 4
GridSize: 4
TimelineZoom: 1

[Metadata]
Title:Crossing Field
TitleUnicode:Crossing Field
Artist:LiSA
ArtistUnicode:LiSA
Creator:kucin
Version:Lv. 21 Powerful
Source:Sword Art Online
Tags:kucin95
BeatmapID:655841
BeatmapSetID:267809

[Difficulty]
HPDrainRate:8.4
CircleSize:4
OverallDifficulty:8
ApproachRate:5
SliderMultiplier:1.4
SliderTickRate:1

[Events]
//Background and Video events
Video,0,"video.avi"
0,0,"BG Collab.jpg",0,0
//Break Periods
//Storyboard Layer 0 (Background)
//Storyboard Layer 1 (Fail)
//Storyboard Layer 2 (Pass)
//Storyboard Layer 3 (Foreground)
//Storyboard Sound Samples

[TimingPoints]
-468,335.195530726257,4,2,0,40,1,0
872,-133.333333333333,4,2,0,40,0,0
5565,-128.205128205128,4,2,0,40,0,0
5649,-123.456790123457,4,2,0,40,0,0
5733,-119.047619047619,4,2,0,40,0,0
5816,-114.942528735632,4,2,0,40,0,0
5900,-111.111111111111,4,2,0,40,0,0
5984,-107.52688172043,4,2,0,40,0,0
6068,-104.166666666667,4,2,0,40,0,0
6152,-101.010101010101,4,2,0,40,0,0
6235,-100,4,2,0,40,0,0
10719,-133.333333333333,4,2,0,40,0,0
11599,-100,4,2,0,40,0,0
16291,-250,4,2,0,40,0,0
16543,-142.857142857143,4,2,0,40,0,0
16585,-100,4,2,0,40,0,0
16626,-250,4,2,0,40,0,0
16878,-142.857142857143,4,2,0,40,0,0
16920,-100,4,2,0,40,0,0
33051,-117.647058823529,4,2,0,40,0,0
38079,-100,4,2,0,40,0,0
43777,-133.333333333333,4,2,0,40,0,0
44950,-125,4,2,0,40,0,0
44992,-117.647058823529,4,2,0,40,0,0
45034,-111.111111111111,4,2,0,40,0,0
45076,-105.263157894737,4,2,0,40,0,0
45118,-100,4,2,0,40,0,0
45160,-95.2380952380952,4,2,0,40,0,0
45202,-90.9090909090909,4,2,0,40,0,0
45621,-33.3333333333333,4,2,0,40,0,0
46207,-66.6666666666667,4,2,0,40,0,0
46249,-100,4,2,0,40,0,0
46291,-200,4,2,0,40,0,0
46459,-100,4,2,0,40,0,1
77297,-100,4,2,0,40,0,0
78638,-100,4,2,0,40,0,0
83833,-20,4,2,0,40,0,0
89364,-33.3333333333333,4,2,0,40,0,0
90705,-50,4,2,0,40,0,0
92045,-200,4,2,0,40,0,0

[HitObjects]
64,192,202,5,0,0:0:0:0:
192,192,202,1,0,0:0:0:0:
64,192,369,1,0,0:0:0:0:
320,192,369,1,0,0:0:0:0:
320,192,537,1,0,0:0:0:0:
192,192,537,1,0,0:0:0:0:
448,192,872,1,0,0:0:0:0:
192,192,872,1,0,0:0:0:0:
64,192,872,128,0,1459:0:0:0:0:
320,192,1040,1,0,0:0:0:0:
320,192,1207,1,0,0:0:0:0:
448,192,1375,1,0,0:0:0:0:
320,192,1543,1,0,0:0:0:0:
448,192,1543,1,0,0:0:0:0:
64,192,1543,128,0,2213:0:0:0:0:
192,192,1878,1,0,0:0:0:0:
448,192,1878,128,0,2213:0:0:0:0:
320,192,2213,128,0,2464:0:0:0:0:
448,192,2381,1,0,0:0:0:0:
64,192,2548,1,0,0:0:0:0:
320,192,2548,128,0,2883:0:0:0:0:
64,192,2716,1,0,0:0:0:0:
64,192,2883,1,0,0:0:0:0:
448,192,2883,1,0,0:0:0:0:
192,192,2883,128,0,3386:0:0:0:0:
448,192,3051,1,0,0:0:0:0:
320,192,3219,1,0,0:0:0:0:
64,192,3386,1,0,0:0:0:0:
320,192,3470,1,0,0:0:0:0:
64,192,3554,128,0,4140:0:0:0:0:
320,192,3721,1,0,0:0:0:0:
320,192,3889,1,0,0:0:0:0:
192,192,4057,1,0,0:0:0:0:
448,192,4224,1,0,0:0:0:0:
64,192,4224,128,0,4811:0:0:0:0:
320,192,4392,1,0,0:0:0:0:
192,192,4559,1,0,0:0:0:0:
448,192,4559,1,0,0:0:0:0:
320,192,4727,1,0,0:0:0:0:
448,192,4727,1,0,0:0:0:0:
64,192,4895,128,0,5481:0:0:0:0:
320,192,4895,1,0,0:0:0:0:
448,192,4895,1,0,0:0:0:0:
320,192,5062,1,0,0:0:0:0:
448,192,5062,1,0,0:0:0:0:
320,192,5230,1,0,0:0:0:0:
448,192,5230,1,0,0:0:0:0:
192,192,5397,1,0,0:0:0:0:
320,192,5397,1,0,0:0:0:0:
64,192,5565,128,0,5649:0:0:0:0:
192,192,5565,128,0,5900:0:0:0:0:
64,192,5733,128,0,5816:0:0:0:0:
320,192,5733,128,0,6068:0:0:0:0:
64,192,5900,1,0,0:0:0:0:
448,192,5900,128,0,6235:0:0:0:0:
64,192,5984,1,0,0:0:0:0:
192,192,6068,1,0,0:0:0:0:
64,192,6235,1,0,0:0:0:0:
320,192,6235,128,0,6319:0:0:0:0:
320,192,6403,128,0,6654:0:0:0:0:
64,192,6571,1,0,0:0:0:0:
320,192,6738,128,0,6990:0:0:0:0:
64,192,6906,1,0,0:0:0:0:
320,192,7073,128,0,7325:0:0:0:0:
64,192,7241,1,0,0:0:0:0:
448,192,7241,128,0,7492:0:0:0:0:
320,192,7409,128,0,7576:0:0:0:0:
448,192,7576,128,0,7744:0:0:0:0:
64,192,7576,1,0,0:0:0:0:
320,192,7744,128,0,7911:0:0:0:0:
192,192,7744,1,0,0:0:0:0:
448,192,7911,1,0,0:0:0:0:
64,192,7911,128,0,8247:0:0:0:0:
448,192,8079,128,0,8247:0:0:0:0:
320,192,8079,1,0,0:0:0:0:
320,192,8247,1,0,0:0:0:0:
192,192,8247,128,0,8917:0:0:0:0:
448,192,8414,1,0,0:0:0:0:
320,192,8582,1,0,0:0:0:0:
64,192,8582,1,0,0:0:0:0:
448,192,8749,1,0,0:0:0:0:
320,192,8917,1,0,0:0:0:0:
448,192,8917,128,0,9923:0:0:0:0:
64,192,8917,128,0,9923:0:0:0:0:
192,192,9085,1,0,0:0:0:0:
192,192,9252,1,0,0:0:0:0:
320,192,9252,1,0,0:0:0:0:
320,192,9420,1,0,0:0:0:0:
192,192,9587,1,0,0:0:0:0:
320,192,9587,1,0,0:0:0:0:
320,192,9923,1,0,0:0:0:0:
192,192,9923,1,0,0:0:0:0:
448,192,10090,128,0,10383:0:0:0:0:
192,192,10090,128,0,10383:0:0:0:0:
64,192,10090,128,0,10383:0:0:0:0:
320,192,10090,128,0,10383:0:0:0:0:
320,192,10425,128,0,10593:0:0:0:0:
448,192,10425,128,0,10593:0:0:0:0:
192,192,10425,128,0,10593:0:0:0:0:
64,192,10425,128,0,10593:0:0:0:0:
448,192,10677,1,0,0:0:0:0:
64,192,10677,1,0,0:0:0:0:
320,192,10677,1,0,0:0:0:0:
192,192,10677,1,0,0:0:0:0:
448,192,10761,1,0,0:0:0:0:
64,192,10761,128,0,10928:0:0:0:0:
320,192,10928,128,0,11096:0:0:0:0:
448,192,11096,128,0,11263:0:0:0:0:
320,192,11263,128,0,11431:0:0:0:0:
192,192,11431,128,0,11599:0:0:0:0:
320,192,11599,1,0,0:0:0:0:
64,192,11599,1,0,0:0:0:0:
448,192,11766,1,0,0:0:0:0:
320,192,11934,1,0,0:0:0:0:
64,192,11934,1,0,0:0:0:0:
448,192,12101,1,0,0:0:0:0:
320,192,12269,1,0,0:0:0:0:
64,192,12269,1,0,0:0:0:0:
448,192,12437,1,0,0:0:0:0:
320,192,12604,1,0,0:0:0:0:
64,192,12604,1,0,0:0:0:0:
448,192,12772,1,0,0:0:0:0:
192,192,12939,1,0,0:0:0:0:
64,192,12939,1,0,0:0:0:0:
448,192,13107,1,0,0:0:0:0:
192,192,13275,1,0,0:0:0:0:
64,192,13275,1,0,0:0:0:0:
448,192,13442,1,0,0:0:0:0:
320,192,13610,1,0,0:0:0:0:
64,192,13610,128,0,13945:0:0:0:0:
448,192,13777,1,0,0:0:0:0:
448,192,13945,1,0,0:0:0:0:
320,192,13945,128,0,14029:0:0:0:0:
320,192,14113,128,0,14280:0:0:0:0:
448,192,14280,1,0,0:0:0:0:
192,192,14280,1,0,0:0:0:0:
64,192,14280,1,0,0:0:0:0:
64,192,14448,1,0,0:0:0:0:
192,192,14615,1,0,0:0:0:0:
320,192,14615,1,0,0:0:0:0:
320,192,14783,1,0,0:0:0:0:
448,192,14783,1,0,0:0:0:0:
64,192,14783,1,0,0:0:0:0:
192,192,14950,1,0,0:0:0:0:
320,192,15118,1,0,0:0:0:0:
448,192,15118,1,0,0:0:0:0:
64,192,15118,1,0,0:0:0:0:
192,192,15286,1,0,0:0:0:0:
320,192,15453,1,0,0:0:0:0:
448,192,15453,1,0,0:0:0:0:
64,192,15453,1,0,0:0:0:0:
64,192,15621,1,0,0:0:0:0:
448,192,15621,1,0,0:0:0:0:
64,192,15788,1,0,0:0:0:0:
192,192,15788,1,0,0:0:0:0:
448,192,15788,1,0,0:0:0:0:
64,192,15956,1,0,0:0:0:0:
448,192,15956,1,0,0:0:0:0:
320,192,16124,1,0,0:0:0:0:
448,192,16124,1,0,0:0:0:0:
64,192,16124,1,0,0:0:0:0:
64,192,16291,1,0,0:0:0:0:
192,192,16291,1,0,0:0:0:0:
320,192,16291,1,0,0:0:0:0:
448,192,16291,1,0,0:0:0:0:
192,192,16626,1,0,0:0:0:0:
64,192,16626,1,0,0:0:0:0:
320,192,16626,1,0,0:0:0:0:
448,192,16626,128,0,16710:0:0:0:0:
448,192,16962,1,0,0:0:0:0:
320,192,16962,1,0,0:0:0:0:
192,192,16962,1,0,0:0:0:0:
64,192,16962,1,0,0:0:0:0:
320,192,17045,128,0,17129:0:0:0:0:
320,192,17213,128,0,17297:0:0:0:0:
448,192,17297,1,0,0:0:0:0:
64,192,17297,1,0,0:0:0:0:
448,192,17464,1,0,0:0:0:0:
192,192,17464,128,0,19643:0:0:0:0:
320,192,17632,1,0,0:0:0:0:
64,192,17632,1,0,0:0:0:0:
448,192,17800,128,0,18638:0:0:0:0:
320,192,17967,1,0,0:0:0:0:
64,192,17967,1,0,0:0:0:0:
64,192,18135,1,0,0:0:0:0:
64,192,18302,1,0,0:0:0:0:
320,192,18302,1,0,0:0:0:0:
320,192,18470,1,0,0:0:0:0:
320,192,18638,1,0,0:0:0:0:
320,192,18805,1,0,0:0:0:0:
64,192,18805,128,0,19140:0:0:0:0:
320,192,18973,1,0,0:0:0:0:
448,192,18973,1,0,0:0:0:0:
320,192,19140,1,0,0:0:0:0:
448,192,19140,1,0,0:0:0:0:
320,192,19308,1,0,0:0:0:0:
64,192,19308,1,0,0:0:0:0:
448,192,19308,128,0,19643:0:0:0:0:
320,192,19476,1,0,0:0:0:0:
320,192,19643,1,0,0:0:0:0:
64,192,19643,128,0,19811:0:0:0:0:
192,192,19811,128,0,19978:0:0:0:0:
448,192,19811,1,0,0:0:0:0:
64,192,19978,1,0,0:0:0:0:
320,192,19978,128,0,20146:0:0:0:0:
448,192,19978,1,0,0:0:0:0:
192,192,20146,128,0,20314:0:0:0:0:
64,192,20314,1,0,0:0:0:0:
320,192,20314,1,0,0:0:0:0:
448,192,20314,128,0,20481:0:0:0:0:
320,192,20481,128,0,20649:0:0:0:0:
64,192,20481,1,0,0:0:0:0:
448,192,20649,128,0,20816:0:0:0:0:
64,192,20649,1,0,0:0:0:0:
320,192,20816,128,0,20984:0:0:0:0:
64,192,20816,1,0,0:0:0:0:
448,192,20984,1,0,0:0:0:0:
192,192,20984,1,0,0:0:0:0:
64,192,20984,1,0,0:0:0:0:
64,192,21152,1,0,0:0:0:0:
448,192,21152,1,0,0:0:0:0:
320,192,21319,1,0,0:0:0:0:
448,192,21319,1,0,0:0:0:0:
64,192,21319,1,0,0:0:0:0:
192,192,21487,1,0,0:0:0:0:
448,192,21487,1,0,0:0:0:0:
320,192,21654,1,0,0:0:0:0:
64,192,21654,1,0,0:0:0:0:
320,192,21738,1,0,0:0:0:0:
64,192,21738,1,0,0:0:0:0:
192,192,21822,1,0,0:0:0:0:
448,192,21822,1,0,0:0:0:0:
320,192,21906,1,0,0:0:0:0:
448,192,21906,1,0,0:0:0:0:
64,192,21990,1,0,0:0:0:0:
320,192,21990,1,0,0:0:0:0:
448,192,22073,1,0,0:0:0:0:
64,192,22073,1,0,0:0:0:0:
192,192,22157,1,0,0:0:0:0:
448,192,22157,1,0,0:0:0:0:
64,192,22241,1,0,0:0:0:0:
320,192,22241,1,0,0:0:0:0:
64,192,22325,1,0,0:0:0:0:
448,192,22325,1,0,0:0:0:0:
320,192,22325,128,0,22660:0:0:0:0:
448,192,22492,1,0,0:0:0:0:
192,192,22492,1,0,0:0:0:0:
448,192,22660,1,0,0:0:0:0:
192,192,22660,1,0,0:0:0:0:
64,192,22660,1,0,0:0:0:0:
64,192,22828,1,0,0:0:0:0:
320,192,22828,128,0,22995:0:0:0:0:
64,192,22995,1,0,0:0:0:0:
192,192,22995,1,0,0:0:0:0:
448,192,22995,1,0,0:0:0:0:
64,192,23163,1,0,0:0:0:0:
320,192,23163,128,0,23330:0:0:0:0:
64,192,23330,1,0,0:0:0:0:
448,192,23330,1,0,0:0:0:0:
192,192,23498,1,0,0:0:0:0:
320,192,23498,128,0,24001:0:0:0:0:
192,192,23666,1,0,0:0:0:0:
64,192,23666,1,0,0:0:0:0:
448,192,23666,1,0,0:0:0:0:
64,192,23833,1,0,0:0:0:0:
64,192,24001,1,0,0:0:0:0:
192,192,24001,1,0,0:0:0:0:
448,192,24001,1,0,0:0:0:0:
448,192,24168,1,0,0:0:0:0:
320,192,24336,1,0,0:0:0:0:
64,192,24336,128,0,24671:0:0:0:0:
192,192,24504,1,0,0:0:0:0:
448,192,24671,1,0,0:0:0:0:
320,192,24671,128,0,25006:0:0:0:0:
192,192,24839,1,0,0:0:0:0:
64,192,25006,1,0,0:0:0:0:
448,192,25006,1,0,0:0:0:0:
192,192,25006,128,0,25342:0:0:0:0:
64,192,25174,1,0,0:0:0:0:
448,192,25174,1,0,0:0:0:0:
448,192,25342,1,0,0:0:0:0:
320,192,25342,1,0,0:0:0:0:
64,192,25342,1,0,0:0:0:0:
448,192,25509,1,0,0:0:0:0:
192,192,25509,128,0,25677:0:0:0:0:
448,192,25677,1,0,0:0:0:0:
320,192,25677,1,0,0:0:0:0:
64,192,25677,1,0,0:0:0:0:
320,192,25844,1,0,0:0:0:0:
192,192,25844,128,0,26012:0:0:0:0:
320,192,26012,1,0,0:0:0:0:
64,192,26012,1,0,0:0:0:0:
448,192,26012,1,0,0:0:0:0:
192,192,26180,1,0,0:0:0:0:
448,192,26180,128,0,26682:0:0:0:0:
192,192,26347,1,0,0:0:0:0:
320,192,26347,1,0,0:0:0:0:
64,192,26347,1,0,0:0:0:0:
192,192,26515,1,0,0:0:0:0:
64,192,26515,1,0,0:0:0:0:
64,192,26682,1,0,0:0:0:0:
320,192,26682,1,0,0:0:0:0:
64,192,26850,1,0,0:0:0:0:
64,192,27018,1,0,0:0:0:0:
192,192,27018,1,0,0:0:0:0:
320,192,27018,1,0,0:0:0:0:
448,192,27018,1,0,0:0:0:0:
192,192,27353,128,0,27604:0:0:0:0:
320,192,27353,128,0,27604:0:0:0:0:
64,192,27353,128,0,27604:0:0:0:0:
448,192,27353,128,0,27604:0:0:0:0:
320,192,27688,1,0,0:0:0:0:
192,192,27688,1,0,0:0:0:0:
448,192,27688,1,0,0:0:0:0:
64,192,27688,128,0,27772:0:0:0:0:
64,192,27856,128,0,28023:0:0:0:0:
448,192,27856,1,0,0:0:0:0:
320,192,28023,1,0,0:0:0:0:
448,192,28023,1,0,0:0:0:0:
192,192,28023,128,0,28191:0:0:0:0:
320,192,28191,128,0,28358:0:0:0:0:
448,192,28191,1,0,0:0:0:0:
448,192,28358,128,0,28442:0:0:0:0:
64,192,28358,1,0,0:0:0:0:
448,192,28526,128,0,28694:0:0:0:0:
320,192,28526,1,0,0:0:0:0:
64,192,28694,1,0,0:0:0:0:
320,192,28694,128,0,28777:0:0:0:0:
192,192,28694,1,0,0:0:0:0:
320,192,28861,128,0,29029:0:0:0:0:
64,192,28861,1,0,0:0:0:0:
448,192,28861,1,0,0:0:0:0:
64,192,29029,1,0,0:0:0:0:
448,192,29029,128,0,29196:0:0:0:0:
192,192,29196,1,0,0:0:0:0:
64,192,29196,128,0,29364:0:0:0:0:
320,192,29196,1,0,0:0:0:0:
448,192,29364,128,0,29532:0:0:0:0:
320,192,29532,1,0,0:0:0:0:
192,192,29532,128,0,29699:0:0:0:0:
320,192,29699,128,0,29867:0:0:0:0:
64,192,29699,1,0,0:0:0:0:
64,192,29867,128,0,30034:0:0:0:0:
448,192,29867,1,0,0:0:0:0:
192,192,29867,1,0,0:0:0:0:
320,192,30034,128,0,30369:0:0:0:0:
448,192,30034,128,0,30369:0:0:0:0:
192,192,30202,1,0,0:0:0:0:
64,192,30369,128,0,30453:0:0:0:0:
320,192,30537,1,0,0:0:0:0:
64,192,30537,128,0,31459:0:0:0:0:
320,192,30705,1,0,0:0:0:0:
192,192,30705,1,0,0:0:0:0:
448,192,30705,1,0,0:0:0:0:
448,192,31040,1,0,0:0:0:0:
320,192,31040,128,0,31626:0:0:0:0:
448,192,31207,1,0,0:0:0:0:
192,192,31543,1,0,0:0:0:0:
64,192,31543,128,0,32381:0:0:0:0:
320,192,31710,128,0,31962:0:0:0:0:
192,192,31878,1,0,0:0:0:0:
320,192,32045,128,0,32381:0:0:0:0:
192,192,32213,1,0,0:0:0:0:
448,192,32381,128,0,33051:0:0:0:0:
192,192,32716,128,0,33051:0:0:0:0:
320,192,32716,1,0,0:0:0:0:
320,192,33051,1,0,0:0:0:0:
64,192,33051,128,0,34057:0:0:0:0:
192,192,33386,128,0,34057:0:0:0:0:
448,192,33386,128,0,34057:0:0:0:0:
320,192,33554,128,0,34057:0:0:0:0:
64,192,34392,128,0,35397:0:0:0:0:
192,192,34392,1,0,0:0:0:0:
320,192,34559,128,0,35397:0:0:0:0:
448,192,34727,128,0,35397:0:0:0:0:
192,192,34895,128,0,35397:0:0:0:0:
320,192,35733,128,0,35900:0:0:0:0:
192,192,35733,1,0,0:0:0:0:
448,192,35900,128,0,36738:0:0:0:0:
320,192,36068,128,0,36738:0:0:0:0:
192,192,36152,128,0,36738:0:0:0:0:
64,192,36235,128,0,36738:0:0:0:0:
448,192,37073,128,0,37157:0:0:0:0:
64,192,37073,128,0,37241:0:0:0:0:
448,192,37241,128,0,37492:0:0:0:0:
320,192,37409,128,0,37492:0:0:0:0:
192,192,37409,1,0,0:0:0:0:
320,192,37576,128,0,37911:0:0:0:0:
448,192,37576,128,0,37744:0:0:0:0:
64,192,37576,128,0,37911:0:0:0:0:
192,192,37744,1,0,0:0:0:0:
448,192,37911,1,0,0:0:0:0:
64,192,38079,1,0,0:0:0:0:
192,192,38079,1,0,0:0:0:0:
448,192,38079,1,0,0:0:0:0:
320,192,38414,5,0,0:0:0:0:
64,192,38414,1,0,0:0:0:0:
64,192,38582,128,0,39001:0:0:0:0:
320,192,38582,1,0,0:0:0:0:
448,192,38749,1,0,0:0:0:0:
320,192,38917,128,0,39085:0:0:0:0:
192,192,38917,1,0,0:0:0:0:
448,192,38917,1,0,0:0:0:0:
64,192,39085,128,0,39504:0:0:0:0:
320,192,39252,128,0,39420:0:0:0:0:
448,192,39252,1,0,0:0:0:0:
192,192,39420,1,0,0:0:0:0:
448,192,39587,128,0,39923:0:0:0:0:
64,192,39587,128,0,39923:0:0:0:0:
320,192,39587,1,0,0:0:0:0:
192,192,39587,128,0,39923:0:0:0:0:
320,192,39755,1,0,0:0:0:0:
64,192,40090,1,0,0:0:0:0:
192,192,40090,1,0,0:0:0:0:
320,192,40090,1,0,0:0:0:0:
448,192,40090,1,0,0:0:0:0:
64,192,40425,128,0,40677:0:0:0:0:
448,192,40425,1,0,0:0:0:0:
320,192,40425,1,0,0:0:0:0:
448,192,40509,1,0,0:0:0:0:
320,192,40593,1,0,0:0:0:0:
320,192,40677,5,0,0:0:0:0:
448,192,40761,128,0,41012:0:0:0:0:
192,192,40761,1,0,0:0:0:0:
64,192,40761,1,0,0:0:0:0:
64,192,40844,1,0,0:0:0:0:
192,192,40928,1,0,0:0:0:0:
320,192,41012,5,0,0:0:0:0:
64,192,41096,128,0,41263:0:0:0:0:
320,192,41096,1,0,0:0:0:0:
448,192,41180,1,0,0:0:0:0:
192,192,41180,1,0,0:0:0:0:
320,192,41263,1,0,0:0:0:0:
448,192,41263,1,0,0:0:0:0:
320,192,41347,1,0,0:0:0:0:
64,192,41347,128,0,41431:0:0:0:0:
320,192,41515,1,0,0:0:0:0:
64,192,41515,1,0,0:0:0:0:
192,192,41599,1,0,0:0:0:0:
448,192,41599,1,0,0:0:0:0:
64,192,41599,128,0,41682:0:0:0:0:
320,192,41682,1,0,0:0:0:0:
448,192,41766,1,0,0:0:0:0:
320,192,41850,1,0,0:0:0:0:
192,192,41850,1,0,0:0:0:0:
64,192,41934,128,0,42018:0:0:0:0:
448,192,41934,1,0,0:0:0:0:
320,192,41934,1,0,0:0:0:0:
320,192,42018,1,0,0:0:0:0:
448,192,42101,1,0,0:0:0:0:
192,192,42185,1,0,0:0:0:0:
320,192,42185,1,0,0:0:0:0:
448,192,42269,1,0,0:0:0:0:
64,192,42269,128,0,42353:0:0:0:0:
320,192,42269,1,0,0:0:0:0:
320,192,42353,1,0,0:0:0:0:
64,192,42437,1,0,0:0:0:0:
192,192,42437,1,0,0:0:0:0:
64,192,42520,1,0,0:0:0:0:
320,192,42520,1,0,0:0:0:0:
64,192,42604,1,0,0:0:0:0:
320,192,42604,1,0,0:0:0:0:
192,192,42604,1,0,0:0:0:0:
320,192,42688,1,0,0:0:0:0:
448,192,42688,1,0,0:0:0:0:
192,192,42772,1,0,0:0:0:0:
320,192,42772,1,0,0:0:0:0:
448,192,42772,1,0,0:0:0:0:
64,192,42772,1,0,0:0:0:0:
64,192,43107,1,0,0:0:0:0:
192,192,43107,1,0,0:0:0:0:
320,192,43107,1,0,0:0:0:0:
448,192,43107,1,0,0:0:0:0:
448,192,43358,5,0,0:0:0:0:
320,192,43358,1,0,0:0:0:0:
192,192,43358,1,0,0:0:0:0:
64,192,43358,1,0,0:0:0:0:
64,192,43610,1,0,0:0:0:0:
320,192,43610,1,0,0:0:0:0:
192,192,43610,1,0,0:0:0:0:
448,192,43610,1,0,0:0:0:0:
64,192,43777,128,0,43945:0:0:0:0:
192,192,43777,128,0,43945:0:0:0:0:
320,192,43945,128,0,44113:0:0:0:0:
64,192,44113,128,0,44280:0:0:0:0:
448,192,44113,128,0,44280:0:0:0:0:
192,192,44280,128,0,44448:0:0:0:0:
320,192,44280,128,0,44364:0:0:0:0:
448,192,44448,128,0,44615:0:0:0:0:
320,192,44448,128,0,44532:0:0:0:0:
64,192,44615,128,0,44783:0:0:0:0:
320,192,44615,128,0,44699:0:0:0:0:
320,192,44783,128,0,44950:0:0:0:0:
192,192,44783,128,0,45118:0:0:0:0:
448,192,44783,128,0,45453:0:0:0:0:
192,192,45286,1,0,0:0:0:0:
64,192,45286,1,0,0:0:0:0:
320,192,45453,1,0,0:0:0:0:
64,192,45453,1,0,0:0:0:0:
64,192,45621,1,0,0:0:0:0:
192,192,45621,1,0,0:0:0:0:
320,192,46124,1,0,0:0:0:0:
192,192,46459,1,0,0:0:0:0:
448,192,46459,1,0,0:0:0:0:
64,192,46459,128,0,46710:0:0:0:0:
448,192,46626,1,0,0:0:0:0:
64,192,46794,128,0,47381:0:0:0:0:
320,192,46794,128,0,47129:0:0:0:0:
448,192,46962,1,0,0:0:0:0:
192,192,47129,1,0,0:0:0:0:
448,192,47129,1,0,0:0:0:0:
320,192,47297,1,0,0:0:0:0:
448,192,47464,1,0,0:0:0:0:
64,192,47464,128,0,47800:0:0:0:0:
192,192,47464,128,0,47800:0:0:0:0:
320,192,47632,1,0,0:0:0:0:
320,192,47800,1,0,0:0:0:0:
448,192,47800,128,0,48386:0:0:0:0:
320,192,47967,1,0,0:0:0:0:
320,192,48135,1,0,0:0:0:0:
64,192,48135,128,0,48470:0:0:0:0:
192,192,48302,1,0,0:0:0:0:
320,192,48470,1,0,0:0:0:0:
448,192,48470,128,0,48721:0:0:0:0:
192,192,48638,1,0,0:0:0:0:
448,192,48805,128,0,49140:0:0:0:0:
64,192,48805,1,0,0:0:0:0:
320,192,48973,128,0,49057:0:0:0:0:
192,192,48973,1,0,0:0:0:0:
64,192,49140,1,0,0:0:0:0:
320,192,49140,128,0,49476:0:0:0:0:
192,192,49308,1,0,0:0:0:0:
64,192,49476,1,0,0:0:0:0:
448,192,49476,128,0,49811:0:0:0:0:
192,192,49643,1,0,0:0:0:0:
320,192,49811,1,0,0:0:0:0:
64,192,49811,128,0,50062:0:0:0:0:
192,192,49978,1,0,0:0:0:0:
320,192,50146,5,0,0:0:0:0:
64,192,50146,128,0,50481:0:0:0:0:
448,192,50146,128,0,50314:0:0:0:0:
320,192,50397,128,0,50733:0:0:0:0:
448,192,50481,128,0,50816:0:0:0:0:
192,192,50649,128,0,50900:0:0:0:0:
64,192,50816,1,0,0:0:0:0:
320,192,50816,128,0,51068:0:0:0:0:
448,192,50900,128,0,51152:0:0:0:0:
64,192,50984,128,0,51235:0:0:0:0:
192,192,51068,128,0,51319:0:0:0:0:
320,192,51152,128,0,51403:0:0:0:0:
448,192,51235,128,0,51487:0:0:0:0:
64,192,51487,128,0,51822:0:0:0:0:
192,192,51487,1,0,0:0:0:0:
320,192,51487,1,0,0:0:0:0:
448,192,51571,128,0,51654:0:0:0:0:
192,192,51571,1,0,0:0:0:0:
192,192,51654,1,0,0:0:0:0:
320,192,51654,128,0,51822:0:0:0:0:
448,192,51822,128,0,52073:0:0:0:0:
192,192,51822,128,0,52157:0:0:0:0:
320,192,52157,1,0,0:0:0:0:
64,192,52157,1,0,0:0:0:0:
448,192,52157,128,0,52492:0:0:0:0:
320,192,52325,128,0,52828:0:0:0:0:
192,192,52492,1,0,0:0:0:0:
64,192,52492,128,0,53163:0:0:0:0:
448,192,52828,1,0,0:0:0:0:
192,192,52828,1,0,0:0:0:0:
320,192,52995,128,0,53163:0:0:0:0:
192,192,53163,128,0,53498:0:0:0:0:
448,192,53163,128,0,53833:0:0:0:0:
64,192,53498,1,0,0:0:0:0:
320,192,53498,1,0,0:0:0:0:
320,192,53666,128,0,54168:0:0:0:0:
192,192,53833,1,0,0:0:0:0:
64,192,53833,128,0,54504:0:0:0:0:
192,192,54168,1,0,0:0:0:0:
448,192,54168,1,0,0:0:0:0:
320,192,54336,128,0,54755:0:0:0:0:
192,192,54504,1,0,0:0:0:0:
448,192,54504,1,0,0:0:0:0:
448,192,54587,128,0,54923:0:0:0:0:
64,192,54671,1,0,0:0:0:0:
192,192,54755,128,0,55006:0:0:0:0:
64,192,54839,1,0,0:0:0:0:
320,192,54839,128,0,55174:0:0:0:0:
64,192,55006,128,0,55174:0:0:0:0:
448,192,55006,128,0,55174:0:0:0:0:
64,192,55342,1,0,0:0:0:0:
192,192,55342,128,0,55677:0:0:0:0:
320,192,55342,1,0,0:0:0:0:
448,192,55342,128,0,55844:0:0:0:0:
320,192,55509,1,0,0:0:0:0:
320,192,55677,1,0,0:0:0:0:
64,192,55677,128,0,56515:0:0:0:0:
192,192,56012,128,0,56347:0:0:0:0:
320,192,56012,1,0,0:0:0:0:
448,192,56012,1,0,0:0:0:0:
448,192,56180,128,0,56515:0:0:0:0:
320,192,56515,1,0,0:0:0:0:
448,192,56599,1,0,0:0:0:0:
192,192,56599,1,0,0:0:0:0:
320,192,56682,1,0,0:0:0:0:
64,192,56682,1,0,0:0:0:0:
320,192,56766,1,0,0:0:0:0:
64,192,56766,1,0,0:0:0:0:
192,192,56850,1,0,0:0:0:0:
448,192,56850,1,0,0:0:0:0:
448,192,56934,1,0,0:0:0:0:
64,192,56934,1,0,0:0:0:0:
64,192,57018,1,0,0:0:0:0:
320,192,57018,1,0,0:0:0:0:
320,192,57101,1,0,0:0:0:0:
448,192,57101,1,0,0:0:0:0:
448,192,57185,1,0,0:0:0:0:
64,192,57185,1,0,0:0:0:0:
192,192,57185,128,0,58191:0:0:0:0:
64,192,57353,1,0,0:0:0:0:
320,192,57353,1,0,0:0:0:0:
64,192,57520,1,0,0:0:0:0:
320,192,57520,1,0,0:0:0:0:
448,192,57520,128,0,57856:0:0:0:0:
64,192,57688,1,0,0:0:0:0:
64,192,57856,1,0,0:0:0:0:
320,192,57856,1,0,0:0:0:0:
448,192,58023,1,0,0:0:0:0:
320,192,58023,1,0,0:0:0:0:
64,192,58191,128,0,58442:0:0:0:0:
448,192,58191,1,0,0:0:0:0:
320,192,58191,128,0,58526:0:0:0:0:
192,192,58358,1,0,0:0:0:0:
448,192,58526,1,0,0:0:0:0:
192,192,58526,128,0,58694:0:0:0:0:
64,192,58526,128,0,58777:0:0:0:0:
320,192,58694,128,0,58861:0:0:0:0:
192,192,58861,1,0,0:0:0:0:
64,192,58861,128,0,59196:0:0:0:0:
448,192,58861,128,0,59113:0:0:0:0:
320,192,59029,128,0,59196:0:0:0:0:
192,192,59196,1,0,0:0:0:0:
448,192,59196,128,0,59448:0:0:0:0:
320,192,59364,1,0,0:0:0:0:
64,192,59364,128,0,59532:0:0:0:0:
192,192,59532,1,0,0:0:0:0:
448,192,59532,128,0,59867:0:0:0:0:
320,192,59699,128,0,59950:0:0:0:0:
192,192,59867,1,0,0:0:0:0:
64,192,59867,128,0,60118:0:0:0:0:
320,192,60034,128,0,60202:0:0:0:0:
64,192,60202,128,0,60453:0:0:0:0:
448,192,60202,128,0,60537:0:0:0:0:
192,192,60202,1,0,0:0:0:0:
320,192,60369,1,0,0:0:0:0:
192,192,60537,1,0,0:0:0:0:
320,192,60537,1,0,0:0:0:0:
64,192,60537,128,0,60788:0:0:0:0:
320,192,60705,1,0,0:0:0:0:
64,192,60872,128,0,61207:0:0:0:0:
192,192,60872,128,0,61040:0:0:0:0:
320,192,60872,1,0,0:0:0:0:
448,192,60872,1,0,0:0:0:0:
448,192,61040,128,0,61291:0:0:0:0:
320,192,61124,128,0,61459:0:0:0:0:
192,192,61291,128,0,61543:0:0:0:0:
448,192,61459,1,0,0:0:0:0:
64,192,61543,1,0,0:0:0:0:
448,192,61543,128,0,61710:0:0:0:0:
320,192,61543,128,0,61794:0:0:0:0:
64,192,61710,128,0,62045:0:0:0:0:
192,192,61794,1,0,0:0:0:0:
320,192,61878,1,0,0:0:0:0:
448,192,61878,128,0,62129:0:0:0:0:
192,192,61962,1,0,0:0:0:0:
320,192,61962,128,0,62213:0:0:0:0:
192,192,62045,128,0,62297:0:0:0:0:
64,192,62213,128,0,62381:0:0:0:0:
448,192,62297,128,0,62548:0:0:0:0:
320,192,62381,128,0,62464:0:0:0:0:
64,192,62464,128,0,62548:0:0:0:0:
192,192,62548,128,0,62883:0:0:0:0:
320,192,62548,128,0,62800:0:0:0:0:
448,192,62716,1,0,0:0:0:0:
64,192,62883,1,0,0:0:0:0:
448,192,62883,1,0,0:0:0:0:
320,192,62883,128,0,63219:0:0:0:0:
448,192,63051,1,0,0:0:0:0:
64,192,63051,128,0,63219:0:0:0:0:
192,192,63219,128,0,63554:0:0:0:0:
448,192,63219,128,0,63470:0:0:0:0:
320,192,63386,1,0,0:0:0:0:
64,192,63554,1,0,0:0:0:0:
448,192,63554,128,0,63889:0:0:0:0:
320,192,63554,1,0,0:0:0:0:
320,192,63721,128,0,63805:0:0:0:0:
64,192,63721,1,0,0:0:0:0:
192,192,63889,1,0,0:0:0:0:
64,192,63889,128,0,64140:0:0:0:0:
320,192,63889,128,0,64224:0:0:0:0:
448,192,64057,1,0,0:0:0:0:
192,192,64224,1,0,0:0:0:0:
448,192,64224,1,0,0:0:0:0:
64,192,64224,128,0,64559:0:0:0:0:
320,192,64392,128,0,64476:0:0:0:0:
448,192,64392,1,0,0:0:0:0:
192,192,64392,1,0,0:0:0:0:
192,192,64559,1,0,0:0:0:0:
320,192,64559,128,0,64895:0:0:0:0:
448,192,64559,128,0,64811:0:0:0:0:
64,192,64727,1,0,0:0:0:0:
192,192,64727,1,0,0:0:0:0:
64,192,64895,1,0,0:0:0:0:
448,192,64895,128,0,65230:0:0:0:0:
192,192,64895,1,0,0:0:0:0:
320,192,65062,1,0,0:0:0:0:
192,192,65062,128,0,65230:0:0:0:0:
320,192,65230,128,0,65397:0:0:0:0:
64,192,65230,128,0,66235:0:0:0:0:
448,192,65397,128,0,65565:0:0:0:0:
320,192,65565,1,0,0:0:0:0:
192,192,65565,128,0,65733:0:0:0:0:
320,192,65733,128,0,65984:0:0:0:0:
448,192,65733,1,0,0:0:0:0:
448,192,65816,128,0,65984:0:0:0:0:
192,192,65900,1,0,0:0:0:0:
320,192,66068,128,0,66403:0:0:0:0:
448,192,66068,128,0,66403:0:0:0:0:
192,192,66403,128,0,66738:0:0:0:0:
64,192,66403,128,0,66822:0:0:0:0:
320,192,66738,128,0,66822:0:0:0:0:
448,192,66738,128,0,66822:0:0:0:0:
192,192,66906,1,0,0:0:0:0:
64,192,66906,128,0,67157:0:0:0:0:
320,192,66906,128,0,67325:0:0:0:0:
448,192,66906,128,0,67157:0:0:0:0:
192,192,67241,1,0,0:0:0:0:
64,192,67241,128,0,67576:0:0:0:0:
448,192,67241,128,0,67409:0:0:0:0:
320,192,67409,128,0,67576:0:0:0:0:
448,192,67576,1,0,0:0:0:0:
448,192,67660,1,0,0:0:0:0:
192,192,67660,1,0,0:0:0:0:
320,192,67744,1,0,0:0:0:0:
64,192,67744,1,0,0:0:0:0:
320,192,67828,1,0,0:0:0:0:
64,192,67828,1,0,0:0:0:0:
320,192,67911,1,0,0:0:0:0:
448,192,67911,128,0,68079:0:0:0:0:
192,192,67911,128,0,68917:0:0:0:0:
64,192,68079,1,0,0:0:0:0:
320,192,68247,1,0,0:0:0:0:
448,192,68247,128,0,68414:0:0:0:0:
64,192,68414,128,0,68666:0:0:0:0:
320,192,68414,1,0,0:0:0:0:
320,192,68582,1,0,0:0:0:0:
448,192,68582,1,0,0:0:0:0:
64,192,68749,128,0,68917:0:0:0:0:
448,192,68749,1,0,0:0:0:0:
320,192,68917,1,0,0:0:0:0:
448,192,68917,128,0,69001:0:0:0:0:
448,192,69085,128,0,69252:0:0:0:0:
64,192,69085,1,0,0:0:0:0:
192,192,69085,128,0,69252:0:0:0:0:
64,192,69252,128,0,69839:0:0:0:0:
320,192,69252,128,0,69504:0:0:0:0:
448,192,69336,128,0,69587:0:0:0:0:
192,192,69336,1,0,0:0:0:0:
192,192,69587,128,0,69839:0:0:0:0:
320,192,69587,1,0,0:0:0:0:
320,192,69671,128,0,69923:0:0:0:0:
448,192,69671,128,0,69755:0:0:0:0:
448,192,69839,128,0,70006:0:0:0:0:
64,192,69923,128,0,70006:0:0:0:0:
192,192,69923,1,0,0:0:0:0:
320,192,70006,1,0,0:0:0:0:
448,192,70090,128,0,70258:0:0:0:0:
64,192,70090,128,0,70258:0:0:0:0:
320,192,70258,1,0,0:0:0:0:
192,192,70425,128,0,70677:0:0:0:0:
320,192,70425,128,0,70677:0:0:0:0:
64,192,70425,128,0,70677:0:0:0:0:
448,192,70425,128,0,70677:0:0:0:0:
320,192,70761,128,0,70844:0:0:0:0:
64,192,70761,128,0,70844:0:0:0:0:
448,192,70761,128,0,70844:0:0:0:0:
192,192,70761,128,0,70844:0:0:0:0:
192,192,70928,1,0,0:0:0:0:
64,192,70928,1,0,0:0:0:0:
320,192,70928,1,0,0:0:0:0:
448,192,70928,1,0,0:0:0:0:
64,192,71096,128,0,71263:0:0:0:0:
448,192,71096,128,0,71263:0:0:0:0:
192,192,71096,128,0,71263:0:0:0:0:
320,192,71096,128,0,71263:0:0:0:0:
448,192,71347,1,0,0:0:0:0:
192,192,71347,1,0,0:0:0:0:
64,192,71347,1,0,0:0:0:0:
320,192,71347,1,0,0:0:0:0:
320,192,71431,128,0,71515:0:0:0:0:
192,192,71431,128,0,71515:0:0:0:0:
448,192,71431,128,0,71515:0:0:0:0:
64,192,71431,128,0,71515:0:0:0:0:
448,192,71599,1,0,0:0:0:0:
64,192,71599,1,0,0:0:0:0:
320,192,71599,1,0,0:0:0:0:
192,192,71599,1,0,0:0:0:0:
320,192,71766,128,0,71934:0:0:0:0:
64,192,71766,128,0,71934:0:0:0:0:
448,192,71766,128,0,71934:0:0:0:0:
320,192,72018,1,0,0:0:0:0:
448,192,72018,1,0,0:0:0:0:
64,192,72018,1,0,0:0:0:0:
448,192,72101,128,0,72185:0:0:0:0:
320,192,72101,128,0,72185:0:0:0:0:
64,192,72101,128,0,72185:0:0:0:0:
320,192,72269,1,0,0:0:0:0:
448,192,72269,1,0,0:0:0:0:
64,192,72269,1,0,0:0:0:0:
192,192,72437,128,0,72688:0:0:0:0:
320,192,72520,128,0,73275:0:0:0:0:
64,192,72604,128,0,73023:0:0:0:0:
448,192,72604,128,0,73023:0:0:0:0:
192,192,72772,1,0,0:0:0:0:
192,192,72856,128,0,73107:0:0:0:0:
448,192,73107,128,0,73275:0:0:0:0:
192,192,73275,128,0,74615:0:0:0:0:
64,192,73275,1,0,0:0:0:0:
320,192,73442,1,0,0:0:0:0:
448,192,73442,1,0,0:0:0:0:
64,192,73610,1,0,0:0:0:0:
448,192,73610,128,0,73694:0:0:0:0:
320,192,73777,1,0,0:0:0:0:
448,192,73777,128,0,73861:0:0:0:0:
64,192,73945,1,0,0:0:0:0:
320,192,74113,1,0,0:0:0:0:
448,192,74113,1,0,0:0:0:0:
64,192,74280,1,0,0:0:0:0:
448,192,74280,128,0,74364:0:0:0:0:
320,192,74448,1,0,0:0:0:0:
448,192,74448,128,0,74615:0:0:0:0:
320,192,74615,1,0,0:0:0:0:
64,192,74615,128,0,75621:0:0:0:0:
320,192,74783,1,0,0:0:0:0:
320,192,74950,128,0,75034:0:0:0:0:
448,192,74950,1,0,0:0:0:0:
320,192,75118,128,0,75286:0:0:0:0:
448,192,75286,1,0,0:0:0:0:
192,192,75453,1,0,0:0:0:0:
320,192,75453,1,0,0:0:0:0:
320,192,75537,1,0,0:0:0:0:
448,192,75537,1,0,0:0:0:0:
320,192,75621,128,0,75788:0:0:0:0:
64,192,75705,128,0,75872:0:0:0:0:
448,192,75705,128,0,75872:0:0:0:0:
64,192,75956,128,0,76040:0:0:0:0:
320,192,75956,128,0,76040:0:0:0:0:
192,192,75956,128,0,76040:0:0:0:0:
448,192,75956,128,0,76040:0:0:0:0:
448,192,76124,1,0,0:0:0:0:
320,192,76124,1,0,0:0:0:0:
192,192,76124,1,0,0:0:0:0:
64,192,76124,1,0,0:0:0:0:
320,192,76459,128,0,76564:0:0:0:0:
64,192,76459,128,0,76564:0:0:0:0:
448,192,76459,128,0,76564:0:0:0:0:
192,192,76459,128,0,76564:0:0:0:0:
320,192,76626,1,0,0:0:0:0:
192,192,76626,1,0,0:0:0:0:
448,192,76626,1,0,0:0:0:0:
64,192,76626,1,0,0:0:0:0:
320,192,76962,128,0,77073:0:0:0:0:
192,192,76962,128,0,77073:0:0:0:0:
448,192,76962,128,0,77073:0:0:0:0:
64,192,76962,128,0,77073:0:0:0:0:
192,192,77129,1,0,0:0:0:0:
64,192,77129,1,0,0:0:0:0:
448,192,77129,1,0,0:0:0:0:
320,192,77129,1,0,0:0:0:0:
64,192,77297,128,0,77464:0:0:0:0:
448,192,77464,128,0,77632:0:0:0:0:
64,192,77632,1,0,0:0:0:0:
320,192,77632,128,0,77800:0:0:0:0:
192,192,77800,128,0,77967:0:0:0:0:
448,192,78051,1,0,0:0:0:0:
320,192,78093,1,0,0:0:0:0:
192,192,78135,1,0,0:0:0:0:
64,192,78177,1,0,0:0:0:0:
448,192,78219,1,0,0:0:0:0:
320,192,78261,1,0,0:0:0:0:
192,192,78302,1,0,0:0:0:0:
64,192,78344,1,0,0:0:0:0:
448,192,78386,1,0,0:0:0:0:
320,192,78428,1,0,0:0:0:0:
192,192,78470,1,0,0:0:0:0:
64,192,78512,1,0,0:0:0:0:
448,192,78554,1,0,0:0:0:0:
320,192,78596,1,0,0:0:0:0:
64,192,78638,128,0,78805:0:0:0:0:
192,192,78638,128,0,78889:0:0:0:0:
320,192,78805,128,0,79140:0:0:0:0:
192,192,78973,128,0,79057:0:0:0:0:
64,192,78973,128,0,79057:0:0:0:0:
448,192,78973,128,0,79224:0:0:0:0:
64,192,79140,128,0,79559:0:0:0:0:
192,192,79140,128,0,79308:0:0:0:0:
448,192,79308,128,0,79559:0:0:0:0:
320,192,79308,128,0,79476:0:0:0:0:
192,192,79476,128,0,79559:0:0:0:0:
448,192,79643,128,0,79727:0:0:0:0:
320,192,79643,128,0,79978:0:0:0:0:
64,192,79643,128,0,79895:0:0:0:0:
192,192,79643,1,0,0:0:0:0:
448,192,79811,128,0,79895:0:0:0:0:
192,192,79978,128,0,80314:0:0:0:0:
64,192,79978,128,0,80397:0:0:0:0:
448,192,79978,128,0,80146:0:0:0:0:
320,192,80146,128,0,80230:0:0:0:0:
448,192,80314,128,0,80397:0:0:0:0:
320,192,80314,128,0,80565:0:0:0:0:
64,192,80481,128,0,80649:0:0:0:0:
448,192,80481,128,0,80733:0:0:0:0:
320,192,80649,128,0,80816:0:0:0:0:
448,192,80816,128,0,80900:0:0:0:0:
192,192,80816,128,0,81152:0:0:0:0:
64,192,80984,128,0,81235:0:0:0:0:
320,192,80984,128,0,81068:0:0:0:0:
448,192,80984,128,0,81152:0:0:0:0:
320,192,81152,128,0,81319:0:0:0:0:
448,192,81319,128,0,81571:0:0:0:0:
64,192,81319,128,0,81654:0:0:0:0:
192,192,81319,1,0,0:0:0:0:
320,192,81571,1,0,0:0:0:0:
448,192,81654,128,0,81990:0:0:0:0:
320,192,81654,128,0,81906:0:0:0:0:
192,192,81654,1,0,0:0:0:0:
192,192,81738,128,0,81990:0:0:0:0:
64,192,81822,128,0,82157:0:0:0:0:
320,192,81990,128,0,82325:0:0:0:0:
192,192,82073,1,0,0:0:0:0:
448,192,82073,1,0,0:0:0:0:
192,192,82157,128,0,82409:0:0:0:0:
64,192,82241,128,0,82492:0:0:0:0:
448,192,82241,1,0,0:0:0:0:
448,192,82325,1,0,0:0:0:0:
320,192,82409,1,0,0:0:0:0:
192,192,82492,1,0,0:0:0:0:
320,192,82492,1,0,0:0:0:0:
448,192,82492,1,0,0:0:0:0:
192,192,82576,1,0,0:0:0:0:
320,192,82660,1,0,0:0:0:0:
64,192,82660,128,0,82911:0:0:0:0:
448,192,82744,1,0,0:0:0:0:
448,192,82828,1,0,0:0:0:0:
320,192,82828,1,0,0:0:0:0:
192,192,82828,1,0,0:0:0:0:
64,192,82995,128,0,83330:0:0:0:0:
320,192,82995,1,0,0:0:0:0:
448,192,82995,1,0,0:0:0:0:
192,192,83079,1,0,0:0:0:0:
320,192,83163,1,0,0:0:0:0:
448,192,83163,1,0,0:0:0:0:
448,192,83330,128,0,83498:0:0:0:0:
320,192,83330,1,0,0:0:0:0:
320,192,83414,1,0,0:0:0:0:
192,192,83498,1,0,0:0:0:0:
64,192,83498,1,0,0:0:0:0:
320,192,83498,1,0,0:0:0:0:
64,192,83582,1,0,0:0:0:0:
320,192,83582,1,0,0:0:0:0:
192,192,83666,1,0,0:0:0:0:
320,192,83666,1,0,0:0:0:0:
320,192,83749,1,0,0:0:0:0:
448,192,83749,1,0,0:0:0:0:
448,192,83833,128,0,92381:0:0:0:0:
320,192,83833,128,0,92716:0:0:0:0:
