osu file format v14

[General]
AudioFilename: crossing field.mp3
AudioLeadIn: 0
PreviewTime: -1
Countdown: 0
SampleSet: Soft
StackLeniency: 0.7
Mode: 3
LetterboxInBreaks: 0
SpecialStyle: 0
WidescreenStoryboard: 1

[Editor]
DistanceSpacing: 1
BeatDivisor: 4
GridSize: 4
TimelineZoom: 1

[Metadata]
Title:Crossing Field
TitleUnicode:Crossing Field
Artist:LiSA
ArtistUnicode:LiSA
Creator:kucin
Version:Lv. 12
Source:Sword Art Online
Tags:kucin95
BeatmapID:609929
BeatmapSetID:267809

[Difficulty]
HPDrainRate:7
CircleSize:4
OverallDifficulty:7.5
ApproachRate:5
SliderMultiplier:1.4
SliderTickRate:1

[Events]
//Background and Video events
Video,0,"video.avi"
0,0,"BG Collab.jpg",0,0
//Break Periods
//Storyboard Layer 0 (Background)
//Storyboard Layer 1 (Fail)
//Storyboard Layer 2 (Pass)
//Storyboard Layer 3 (Foreground)
//Storyboard Sound Samples

[TimingPoints]
-468,335.195530726257,4,2,0,40,1,0
872,-133.333333333333,4,2,0,40,0,0
5565,-128.205128205128,4,2,0,40,0,0
5649,-123.456790123457,4,2,0,40,0,0
5733,-119.047619047619,4,2,0,40,0,0
5816,-114.942528735632,4,2,0,40,0,0
5900,-111.111111111111,4,2,0,40,0,0
5984,-107.52688172043,4,2,0,40,0,0
6068,-104.166666666667,4,2,0,40,0,0
6152,-101.010101010101,4,2,0,40,0,0
6235,-100,4,2,0,40,0,0
10719,-133.333333333333,4,2,0,40,0,0
11599,-100,4,2,0,40,0,0
16291,-250,4,2,0,40,0,0
16543,-142.857142857143,4,2,0,40,0,0
16585,-100,4,2,0,40,0,0
16626,-250,4,2,0,40,0,0
16878,-142.857142857143,4,2,0,40,0,0
16920,-100,4,2,0,40,0,0
33051,-117.647058823529,4,2,0,40,0,0
38079,-100,4,2,0,40,0,0
43777,-133.333333333333,4,2,0,40,0,0
44950,-125,4,2,0,40,0,0
44992,-117.647058823529,4,2,0,40,0,0
45034,-111.111111111111,4,2,0,40,0,0
45076,-105.263157894737,4,2,0,40,0,0
45118,-100,4,2,0,40,0,0
45160,-95.2380952380952,4,2,0,40,0,0
45202,-90.9090909090909,4,2,0,40,0,0
45621,-33.3333333333333,4,2,0,40,0,0
46207,-66.6666666666667,4,2,0,40,0,0
46249,-100,4,2,0,40,0,0
46291,-200,4,2,0,40,0,0
46459,-100,4,2,0,40,0,1
77297,-100,4,2,0,40,0,0
78638,-100,4,2,0,40,0,0
83833,-20,4,2,0,40,0,0
89364,-33.3333333333333,4,2,0,40,0,0
90705,-50,4,2,0,40,0,0
92045,-200,4,2,0,40,0,0

[HitObjects]
64,192,872,128,0,1878:0:0:0:0:
448,192,1878,128,0,2213:0:0:0:0:
64,192,2213,128,0,3219:0:0:0:0:
320,192,2883,128,0,3554:0:0:0:0:
192,192,3386,1,0,0:0:0:0:
64,192,3554,128,0,4559:0:0:0:0:
320,192,4559,1,0,0:0:0:0:
448,192,4727,1,0,0:0:0:0:
448,192,4895,1,0,0:0:0:0:
320,192,5062,1,0,0:0:0:0:
320,192,5230,1,0,0:0:0:0:
320,192,5397,1,0,0:0:0:0:
64,192,5565,128,0,6235:0:0:0:0:
448,192,5900,128,0,6235:0:0:0:0:
320,192,6235,1,0,0:0:0:0:
64,192,6571,1,0,0:0:0:0:
64,192,6906,1,0,0:0:0:0:
64,192,7241,1,0,0:0:0:0:
448,192,7241,128,0,7576:0:0:0:0:
64,192,7576,1,0,0:0:0:0:
320,192,7576,1,0,0:0:0:0:
448,192,7744,1,0,0:0:0:0:
320,192,7911,1,0,0:0:0:0:
64,192,7911,1,0,0:0:0:0:
320,192,8247,1,0,0:0:0:0:
448,192,8247,1,0,0:0:0:0:
192,192,8414,1,0,0:0:0:0:
320,192,8582,1,0,0:0:0:0:
448,192,8582,1,0,0:0:0:0:
64,192,8917,1,0,0:0:0:0:
192,192,9085,1,0,0:0:0:0:
448,192,9252,1,0,0:0:0:0:
320,192,9420,1,0,0:0:0:0:
64,192,9587,1,0,0:0:0:0:
320,192,9755,1,0,0:0:0:0:
448,192,9923,1,0,0:0:0:0:
320,192,10090,1,0,0:0:0:0:
192,192,10090,1,0,0:0:0:0:
64,192,10090,1,0,0:0:0:0:
64,192,10425,1,0,0:0:0:0:
192,192,10425,1,0,0:0:0:0:
320,192,10425,1,0,0:0:0:0:
448,192,10425,1,0,0:0:0:0:
192,192,10593,1,0,0:0:0:0:
64,192,10593,1,0,0:0:0:0:
320,192,10593,1,0,0:0:0:0:
448,192,10593,1,0,0:0:0:0:
64,192,11599,1,0,0:0:0:0:
448,192,11934,1,0,0:0:0:0:
192,192,12269,1,0,0:0:0:0:
320,192,12604,1,0,0:0:0:0:
64,192,12939,1,0,0:0:0:0:
448,192,13275,1,0,0:0:0:0:
192,192,13610,1,0,0:0:0:0:
448,192,13945,1,0,0:0:0:0:
320,192,14280,1,0,0:0:0:0:
64,192,14615,1,0,0:0:0:0:
192,192,14950,1,0,0:0:0:0:
320,192,15286,1,0,0:0:0:0:
448,192,15621,1,0,0:0:0:0:
192,192,15956,1,0,0:0:0:0:
64,192,16291,1,0,0:0:0:0:
192,192,16291,1,0,0:0:0:0:
320,192,16626,1,0,0:0:0:0:
448,192,16626,1,0,0:0:0:0:
192,192,16962,1,0,0:0:0:0:
64,192,17297,1,0,0:0:0:0:
192,192,17297,1,0,0:0:0:0:
64,192,17632,1,0,0:0:0:0:
64,192,17800,1,0,0:0:0:0:
320,192,17967,1,0,0:0:0:0:
448,192,17967,1,0,0:0:0:0:
320,192,18302,1,0,0:0:0:0:
192,192,18470,1,0,0:0:0:0:
64,192,18638,1,0,0:0:0:0:
448,192,18973,1,0,0:0:0:0:
448,192,19140,1,0,0:0:0:0:
320,192,19308,1,0,0:0:0:0:
64,192,19392,1,0,0:0:0:0:
64,192,19643,1,0,0:0:0:0:
192,192,19811,1,0,0:0:0:0:
320,192,19978,1,0,0:0:0:0:
448,192,19978,1,0,0:0:0:0:
64,192,20314,1,0,0:0:0:0:
320,192,20481,1,0,0:0:0:0:
448,192,20649,1,0,0:0:0:0:
448,192,20984,1,0,0:0:0:0:
320,192,21152,1,0,0:0:0:0:
192,192,21319,1,0,0:0:0:0:
64,192,21319,1,0,0:0:0:0:
448,192,21654,1,0,0:0:0:0:
320,192,21822,1,0,0:0:0:0:
64,192,21990,1,0,0:0:0:0:
320,192,22157,1,0,0:0:0:0:
448,192,22325,128,0,22660:0:0:0:0:
64,192,22660,1,0,0:0:0:0:
448,192,22995,128,0,23163:0:0:0:0:
192,192,22995,128,0,23163:0:0:0:0:
64,192,23163,1,0,0:0:0:0:
320,192,23163,1,0,0:0:0:0:
448,192,23330,128,0,23498:0:0:0:0:
320,192,23330,128,0,23498:0:0:0:0:
192,192,23498,1,0,0:0:0:0:
64,192,23498,1,0,0:0:0:0:
320,192,23666,1,0,0:0:0:0:
192,192,23833,1,0,0:0:0:0:
320,192,24001,1,0,0:0:0:0:
448,192,24001,1,0,0:0:0:0:
64,192,24336,1,0,0:0:0:0:
320,192,24336,128,0,25006:0:0:0:0:
448,192,24671,1,0,0:0:0:0:
64,192,25006,128,0,25342:0:0:0:0:
448,192,25342,1,0,0:0:0:0:
448,192,25677,128,0,25844:0:0:0:0:
64,192,25844,1,0,0:0:0:0:
64,192,26012,128,0,26180:0:0:0:0:
448,192,26180,1,0,0:0:0:0:
192,192,26347,1,0,0:0:0:0:
320,192,26515,1,0,0:0:0:0:
192,192,26682,1,0,0:0:0:0:
64,192,26682,1,0,0:0:0:0:
448,192,27018,1,0,0:0:0:0:
320,192,27018,128,0,27688:0:0:0:0:
64,192,27353,1,0,0:0:0:0:
448,192,27688,1,0,0:0:0:0:
64,192,28023,1,0,0:0:0:0:
192,192,28023,1,0,0:0:0:0:
448,192,28358,1,0,0:0:0:0:
320,192,28526,1,0,0:0:0:0:
64,192,28694,1,0,0:0:0:0:
64,192,29029,128,0,29699:0:0:0:0:
192,192,29196,128,0,29699:0:0:0:0:
320,192,29364,128,0,29699:0:0:0:0:
448,192,29532,128,0,29699:0:0:0:0:
448,192,29783,128,0,30202:0:0:0:0:
320,192,29867,128,0,30202:0:0:0:0:
192,192,30034,128,0,30202:0:0:0:0:
64,192,30202,1,0,0:0:0:0:
64,192,30369,128,0,30705:0:0:0:0:
192,192,30537,128,0,30705:0:0:0:0:
320,192,30705,1,0,0:0:0:0:
448,192,30705,1,0,0:0:0:0:
64,192,31040,128,0,31207:0:0:0:0:
320,192,31207,128,0,31710:0:0:0:0:
192,192,31543,1,0,0:0:0:0:
64,192,31543,1,0,0:0:0:0:
448,192,31710,128,0,33051:0:0:0:0:
320,192,32045,1,0,0:0:0:0:
64,192,32045,1,0,0:0:0:0:
320,192,32381,1,0,0:0:0:0:
64,192,32381,1,0,0:0:0:0:
192,192,32548,1,0,0:0:0:0:
320,192,32716,1,0,0:0:0:0:
192,192,32883,1,0,0:0:0:0:
64,192,33051,128,0,34057:0:0:0:0:
192,192,34057,1,0,0:0:0:0:
320,192,34057,1,0,0:0:0:0:
448,192,34392,128,0,35397:0:0:0:0:
64,192,35397,1,0,0:0:0:0:
192,192,35733,128,0,36738:0:0:0:0:
448,192,36235,128,0,36738:0:0:0:0:
320,192,36738,1,0,0:0:0:0:
64,192,36738,1,0,0:0:0:0:
448,192,37073,128,0,37409:0:0:0:0:
320,192,37241,128,0,37576:0:0:0:0:
64,192,37409,128,0,37744:0:0:0:0:
448,192,37576,1,0,0:0:0:0:
320,192,37744,1,0,0:0:0:0:
64,192,37911,1,0,0:0:0:0:
320,192,38079,1,0,0:0:0:0:
448,192,38079,1,0,0:0:0:0:
64,192,38414,1,0,0:0:0:0:
448,192,38414,1,0,0:0:0:0:
64,192,38582,1,0,0:0:0:0:
448,192,38582,1,0,0:0:0:0:
320,192,38917,1,0,0:0:0:0:
64,192,38917,1,0,0:0:0:0:
320,192,39252,1,0,0:0:0:0:
64,192,39252,1,0,0:0:0:0:
192,192,39587,1,0,0:0:0:0:
448,192,39587,1,0,0:0:0:0:
64,192,39923,1,0,0:0:0:0:
64,192,40090,1,0,0:0:0:0:
320,192,40090,1,0,0:0:0:0:
448,192,40425,128,0,40761:0:0:0:0:
64,192,40761,128,0,41096:0:0:0:0:
448,192,41096,1,0,0:0:0:0:
192,192,41263,1,0,0:0:0:0:
320,192,41263,1,0,0:0:0:0:
320,192,41599,1,0,0:0:0:0:
64,192,41599,1,0,0:0:0:0:
320,192,41934,1,0,0:0:0:0:
448,192,41934,1,0,0:0:0:0:
64,192,42269,128,0,42772:0:0:0:0:
192,192,42269,128,0,42772:0:0:0:0:
320,192,42772,1,0,0:0:0:0:
448,192,42772,1,0,0:0:0:0:
448,192,43107,1,0,0:0:0:0:
64,192,43107,1,0,0:0:0:0:
320,192,43107,1,0,0:0:0:0:
192,192,43107,1,0,0:0:0:0:
64,192,43358,1,0,0:0:0:0:
448,192,43358,1,0,0:0:0:0:
192,192,43358,1,0,0:0:0:0:
320,192,43358,1,0,0:0:0:0:
448,192,43610,1,0,0:0:0:0:
64,192,43610,1,0,0:0:0:0:
192,192,43610,1,0,0:0:0:0:
320,192,43610,1,0,0:0:0:0:
320,192,43777,128,0,45453:0:0:0:0:
448,192,44783,128,0,45453:0:0:0:0:
192,192,45453,1,0,0:0:0:0:
64,192,45453,1,0,0:0:0:0:
64,192,46459,1,0,0:0:0:0:
320,192,46626,1,0,0:0:0:0:
448,192,46794,1,0,0:0:0:0:
320,192,46962,1,0,0:0:0:0:
64,192,47129,1,0,0:0:0:0:
192,192,47297,1,0,0:0:0:0:
448,192,47464,1,0,0:0:0:0:
320,192,47632,1,0,0:0:0:0:
64,192,47800,1,0,0:0:0:0:
320,192,47967,1,0,0:0:0:0:
448,192,48135,1,0,0:0:0:0:
320,192,48302,1,0,0:0:0:0:
64,192,48470,1,0,0:0:0:0:
192,192,48638,1,0,0:0:0:0:
448,192,48805,1,0,0:0:0:0:
320,192,48973,1,0,0:0:0:0:
64,192,49140,1,0,0:0:0:0:
320,192,49308,1,0,0:0:0:0:
448,192,49476,1,0,0:0:0:0:
320,192,49643,1,0,0:0:0:0:
64,192,49811,1,0,0:0:0:0:
192,192,49978,1,0,0:0:0:0:
320,192,50146,1,0,0:0:0:0:
192,192,50314,1,0,0:0:0:0:
320,192,50481,128,0,50816:0:0:0:0:
448,192,50481,128,0,50816:0:0:0:0:
192,192,50816,128,0,51152:0:0:0:0:
64,192,50816,128,0,51152:0:0:0:0:
320,192,51152,128,0,51487:0:0:0:0:
448,192,51152,128,0,51487:0:0:0:0:
192,192,51487,128,0,51822:0:0:0:0:
64,192,51487,128,0,51822:0:0:0:0:
448,192,51822,1,0,0:0:0:0:
448,192,51990,1,0,0:0:0:0:
320,192,52157,1,0,0:0:0:0:
192,192,52157,1,0,0:0:0:0:
64,192,52492,1,0,0:0:0:0:
64,192,52660,1,0,0:0:0:0:
192,192,52828,1,0,0:0:0:0:
320,192,52828,1,0,0:0:0:0:
448,192,53079,1,0,0:0:0:0:
448,192,53247,1,0,0:0:0:0:
320,192,53498,1,0,0:0:0:0:
192,192,53498,1,0,0:0:0:0:
64,192,53833,1,0,0:0:0:0:
192,192,54001,1,0,0:0:0:0:
320,192,54168,1,0,0:0:0:0:
448,192,54168,1,0,0:0:0:0:
192,192,54504,128,0,54671:0:0:0:0:
64,192,54671,128,0,54839:0:0:0:0:
320,192,54839,128,0,55006:0:0:0:0:
448,192,55006,1,0,0:0:0:0:
64,192,55006,128,0,55174:0:0:0:0:
320,192,55258,1,0,0:0:0:0:
448,192,55258,128,0,55425:0:0:0:0:
192,192,55509,128,0,55844:0:0:0:0:
64,192,55509,128,0,55844:0:0:0:0:
320,192,55844,128,0,56515:0:0:0:0:
448,192,56180,128,0,56515:0:0:0:0:
192,192,56180,1,0,0:0:0:0:
64,192,56515,1,0,0:0:0:0:
448,192,56682,1,0,0:0:0:0:
192,192,56850,1,0,0:0:0:0:
320,192,57018,1,0,0:0:0:0:
320,192,57185,1,0,0:0:0:0:
64,192,57185,1,0,0:0:0:0:
192,192,57353,1,0,0:0:0:0:
320,192,57520,1,0,0:0:0:0:
448,192,57520,1,0,0:0:0:0:
192,192,57688,1,0,0:0:0:0:
448,192,57856,1,0,0:0:0:0:
64,192,58023,1,0,0:0:0:0:
320,192,58191,1,0,0:0:0:0:
192,192,58358,1,0,0:0:0:0:
320,192,58526,1,0,0:0:0:0:
448,192,58526,1,0,0:0:0:0:
320,192,58694,1,0,0:0:0:0:
192,192,58861,1,0,0:0:0:0:
64,192,58861,1,0,0:0:0:0:
320,192,59029,1,0,0:0:0:0:
64,192,59196,1,0,0:0:0:0:
448,192,59364,1,0,0:0:0:0:
192,192,59532,1,0,0:0:0:0:
320,192,59699,1,0,0:0:0:0:
320,192,59867,1,0,0:0:0:0:
64,192,59867,1,0,0:0:0:0:
64,192,60034,1,0,0:0:0:0:
320,192,60202,1,0,0:0:0:0:
448,192,60202,1,0,0:0:0:0:
192,192,60369,1,0,0:0:0:0:
448,192,60537,1,0,0:0:0:0:
320,192,60705,1,0,0:0:0:0:
64,192,60872,1,0,0:0:0:0:
320,192,61040,1,0,0:0:0:0:
64,192,61207,1,0,0:0:0:0:
448,192,61207,128,0,61878:0:0:0:0:
192,192,61375,1,0,0:0:0:0:
320,192,61543,1,0,0:0:0:0:
192,192,61543,1,0,0:0:0:0:
320,192,61878,128,0,62213:0:0:0:0:
64,192,61878,1,0,0:0:0:0:
192,192,62045,1,0,0:0:0:0:
448,192,62213,128,0,62548:0:0:0:0:
64,192,62548,1,0,0:0:0:0:
448,192,62716,1,0,0:0:0:0:
64,192,62883,1,0,0:0:0:0:
192,192,62883,1,0,0:0:0:0:
448,192,63219,1,0,0:0:0:0:
64,192,63386,1,0,0:0:0:0:
320,192,63554,1,0,0:0:0:0:
448,192,63554,1,0,0:0:0:0:
320,192,63889,1,0,0:0:0:0:
448,192,64057,1,0,0:0:0:0:
192,192,64224,1,0,0:0:0:0:
64,192,64224,1,0,0:0:0:0:
320,192,64559,1,0,0:0:0:0:
64,192,64727,1,0,0:0:0:0:
320,192,64895,1,0,0:0:0:0:
448,192,64895,1,0,0:0:0:0:
192,192,65230,1,0,0:0:0:0:
64,192,65230,1,0,0:0:0:0:
448,192,65397,1,0,0:0:0:0:
320,192,65565,1,0,0:0:0:0:
64,192,65565,1,0,0:0:0:0:
448,192,65733,1,0,0:0:0:0:
64,192,65900,128,0,66068:0:0:0:0:
192,192,66068,128,0,66235:0:0:0:0:
320,192,66235,128,0,66403:0:0:0:0:
448,192,66403,128,0,66906:0:0:0:0:
64,192,66403,128,0,66906:0:0:0:0:
192,192,66738,128,0,66906:0:0:0:0:
320,192,66906,1,0,0:0:0:0:
192,192,67241,1,0,0:0:0:0:
320,192,67241,1,0,0:0:0:0:
192,192,67576,128,0,67911:0:0:0:0:
320,192,67576,128,0,67911:0:0:0:0:
64,192,67911,1,0,0:0:0:0:
320,192,68079,1,0,0:0:0:0:
448,192,68247,1,0,0:0:0:0:
320,192,68414,1,0,0:0:0:0:
64,192,68582,1,0,0:0:0:0:
320,192,68749,1,0,0:0:0:0:
448,192,68917,1,0,0:0:0:0:
320,192,69085,1,0,0:0:0:0:
64,192,69252,1,0,0:0:0:0:
192,192,69420,1,0,0:0:0:0:
448,192,69587,1,0,0:0:0:0:
320,192,69755,1,0,0:0:0:0:
64,192,69923,1,0,0:0:0:0:
320,192,70090,1,0,0:0:0:0:
448,192,70258,1,0,0:0:0:0:
320,192,70425,1,0,0:0:0:0:
64,192,70425,1,0,0:0:0:0:
64,192,70761,1,0,0:0:0:0:
320,192,70761,1,0,0:0:0:0:
320,192,70928,1,0,0:0:0:0:
64,192,70928,1,0,0:0:0:0:
320,192,71096,1,0,0:0:0:0:
64,192,71096,1,0,0:0:0:0:
64,192,71431,1,0,0:0:0:0:
320,192,71431,1,0,0:0:0:0:
64,192,71599,1,0,0:0:0:0:
320,192,71599,1,0,0:0:0:0:
192,192,71766,1,0,0:0:0:0:
448,192,71766,1,0,0:0:0:0:
192,192,72101,1,0,0:0:0:0:
448,192,72101,1,0,0:0:0:0:
192,192,72269,1,0,0:0:0:0:
448,192,72269,1,0,0:0:0:0:
64,192,72437,128,0,72604:0:0:0:0:
192,192,72604,128,0,72772:0:0:0:0:
448,192,72772,128,0,72939:0:0:0:0:
320,192,72939,128,0,73275:0:0:0:0:
192,192,73275,1,0,0:0:0:0:
64,192,73275,1,0,0:0:0:0:
320,192,73610,1,0,0:0:0:0:
448,192,73610,1,0,0:0:0:0:
192,192,73945,1,0,0:0:0:0:
64,192,73945,1,0,0:0:0:0:
64,192,74113,1,0,0:0:0:0:
320,192,74280,1,0,0:0:0:0:
448,192,74280,1,0,0:0:0:0:
320,192,74615,1,0,0:0:0:0:
448,192,74615,1,0,0:0:0:0:
320,192,74950,1,0,0:0:0:0:
64,192,74950,1,0,0:0:0:0:
320,192,75286,1,0,0:0:0:0:
448,192,75286,1,0,0:0:0:0:
448,192,75453,1,0,0:0:0:0:
320,192,75621,1,0,0:0:0:0:
64,192,75621,1,0,0:0:0:0:
64,192,75956,1,0,0:0:0:0:
192,192,75956,1,0,0:0:0:0:
448,192,75956,1,0,0:0:0:0:
320,192,75956,1,0,0:0:0:0:
64,192,76124,1,0,0:0:0:0:
192,192,76124,1,0,0:0:0:0:
448,192,76124,1,0,0:0:0:0:
320,192,76124,1,0,0:0:0:0:
448,192,76459,1,0,0:0:0:0:
192,192,76459,1,0,0:0:0:0:
64,192,76459,1,0,0:0:0:0:
320,192,76459,1,0,0:0:0:0:
448,192,76626,1,0,0:0:0:0:
192,192,76626,1,0,0:0:0:0:
64,192,76626,1,0,0:0:0:0:
320,192,76626,1,0,0:0:0:0:
320,192,76962,1,0,0:0:0:0:
448,192,76962,1,0,0:0:0:0:
192,192,76962,1,0,0:0:0:0:
64,192,76962,1,0,0:0:0:0:
320,192,77129,1,0,0:0:0:0:
448,192,77129,1,0,0:0:0:0:
192,192,77129,1,0,0:0:0:0:
64,192,77129,1,0,0:0:0:0:
64,192,77297,128,0,77464:0:0:0:0:
448,192,77464,128,0,77632:0:0:0:0:
320,192,77632,128,0,77800:0:0:0:0:
64,192,77632,1,0,0:0:0:0:
192,192,77800,128,0,77967:0:0:0:0:
448,192,77967,1,0,0:0:0:0:
448,192,78051,1,0,0:0:0:0:
320,192,78079,1,0,0:0:0:0:
192,192,78135,1,0,0:0:0:0:
64,192,78191,1,0,0:0:0:0:
192,192,78247,1,0,0:0:0:0:
320,192,78302,1,0,0:0:0:0:
448,192,78358,1,0,0:0:0:0:
320,192,78414,1,0,0:0:0:0:
192,192,78470,1,0,0:0:0:0:
64,192,78526,1,0,0:0:0:0:
64,192,78638,128,0,78805:0:0:0:0:
448,192,78805,128,0,78973:0:0:0:0:
192,192,78973,128,0,79140:0:0:0:0:
320,192,79140,128,0,79308:0:0:0:0:
64,192,79308,128,0,79476:0:0:0:0:
448,192,79476,128,0,79643:0:0:0:0:
64,192,79643,128,0,79811:0:0:0:0:
448,192,79811,128,0,79978:0:0:0:0:
64,192,79978,128,0,80649:0:0:0:0:
192,192,80146,1,0,0:0:0:0:
192,192,80314,128,0,80649:0:0:0:0:
320,192,80481,128,0,80649:0:0:0:0:
448,192,80649,128,0,81319:0:0:0:0:
320,192,80816,1,0,0:0:0:0:
320,192,80984,128,0,81319:0:0:0:0:
192,192,81152,1,0,0:0:0:0:
64,192,81319,128,0,81487:0:0:0:0:
192,192,81487,128,0,81654:0:0:0:0:
320,192,81654,128,0,81822:0:0:0:0:
64,192,81822,128,0,81990:0:0:0:0:
320,192,81990,128,0,82157:0:0:0:0:
448,192,82157,128,0,82325:0:0:0:0:
192,192,82325,128,0,82492:0:0:0:0:
320,192,82492,128,0,82660:0:0:0:0:
448,192,82492,128,0,82660:0:0:0:0:
64,192,82660,128,0,82995:0:0:0:0:
192,192,82828,1,0,0:0:0:0:
320,192,82995,1,0,0:0:0:0:
448,192,82995,1,0,0:0:0:0:
64,192,83163,1,0,0:0:0:0:
320,192,83330,1,0,0:0:0:0:
448,192,83330,1,0,0:0:0:0:
64,192,83498,1,0,0:0:0:0:
64,192,83582,1,0,0:0:0:0:
192,192,83666,1,0,0:0:0:0:
320,192,83749,1,0,0:0:0:0:
320,192,83833,128,0,92716:0:0:0:0:
448,192,83833,128,0,92381:0:0:0:0:
