osu file format v13

[General]
AudioFilename: crossing field.mp3
AudioLeadIn: 0
PreviewTime: 45586
Countdown: 1
SampleSet: Normal
StackLeniency: 0.7
Mode: 2
LetterboxInBreaks: 1
WidescreenStoryboard: 0

[Editor]
DistanceSpacing: 1.5
BeatDivisor: 4
GridSize: 4
TimelineZoom: 1.5

[Metadata]
Title:Crossing Field
TitleUnicode:Crossing Field
Artist:LiSA
ArtistUnicode:LiSA
Creator:TheMahiSik
Version:Mahi~
Source:
Tags:Sword Art Online Kirito Asuna Anime Opening
BeatmapID:541569
BeatmapSetID:233319

[Difficulty]
HPDrainRate:7
CircleSize:4
OverallDifficulty:9
ApproachRate:9
SliderMultiplier:2.2
SliderTickRate:1

[Events]
//Background and Video events
0,0,"bg.jpg",0,0
//Break Periods
2,11596,15154
2,78551,83198
//Storyboard Layer 0 (Background)
//Storyboard Layer 1 (Fail)
//Storyboard Layer 2 (Pass)
//Storyboard Layer 3 (Foreground)
//Storyboard Sound Samples
//Background Colour Transformations
3,100,163,162,255

[TimingPoints]
0,335.195530726257,4,1,0,100,1,0
0,-133.333333333333,4,1,0,100,0,0
6201,-100,4,1,0,100,0,0
15754,-133.333333333333,4,1,0,5,0,0
16089,-133.333333333333,4,1,0,25,0,0
16424,-133.333333333333,4,1,0,50,0,0
16759,-100,4,1,0,100,0,0
32932,-133.333333333333,4,1,0,100,0,0
46256,-100,4,1,0,100,0,1
57067,-100,4,1,0,100,0,0
57150,-100,4,1,0,100,0,1
76089,-83.3333333333333,4,1,0,100,0,0
76675,-71.4285714285714,4,1,0,100,0,0
77178,-125,4,1,0,100,0,0

[HitObjects]
216,180,0,6,0,L|312:180,2,82.5000031471254,0|0|0,0:0|0:0|0:0,0:0:0:0:
4,308,670,2,0,P|72:308|72:96,1,330.000012588501,0|0,0:0|0:0,0:0:0:0:
252,308,1675,2,0,L|400:224,1,165.000006294251
272,228,2178,1,0,0:0:0:0:
148,228,2681,2,0,P|184:188|92:140,1,165.000006294251,0|0,0:0|0:0,0:0:0:0:
388,172,3184,2,0,L|448:172,2,41.2500015735627,0|0|0,0:0|0:0|0:0,0:0:0:0:
264,172,3519,2,0,L|160:128,1,82.5000031471254,0|0,0:0|0:0,0:0:0:0:
388,120,3854,2,0,L|284:76,1,82.5000031471254,0|0,0:0|0:0,0:0:0:0:
216,136,4189,2,0,L|320:180,1,82.5000031471254,0|0,0:0|0:0,0:0:0:0:
92,188,4524,2,0,L|196:232,1,82.5000031471254,0|0,0:0|0:0,0:0:0:0:
420,188,4860,6,0,L|316:232,1,82.5000031471254,0|0,0:0|0:0,0:0:0:0:
256,308,5195,2,0,L|256:208,1,82.5000031471254
372,192,5530,2,0,L|272:192,1,82.5000031471254
164,192,5865,2,0,L|104:192,2,41.2500015735627,0|4|0,0:0|0:0|0:0,0:0:0:0:
248,208,6201,1,0,0:0:0:0:
412,208,6368,1,0,0:0:0:0:
320,152,6536,1,0,0:0:0:0:
156,152,6703,1,0,0:0:0:0:
248,208,6871,1,0,0:0:0:0:
84,208,7038,1,0,0:0:0:0:
336,264,7206,5,0,0:0:0:0:
172,264,7373,1,0,0:0:0:0:
320,188,7541,2,0,L|392:80,1,110
192,188,7877,2,0,L|120:80,1,110
392,192,8212,2,0,L|464:84,2,110,0|0|0,0:0|0:0|0:0,0:0:0:0:
44,192,8715,2,0,L|135:130,1,110
300,132,9050,1,0,0:0:0:0:
136,136,9217,1,0,0:0:0:0:
244,260,9385,2,0,L|372:260,1,110
504,192,9720,1,0,0:0:0:0:
164,192,9888,6,0,L|296:192|176:192,1,220
56,192,10391,1,0,0:0:0:0:
220,192,10558,1,0,0:0:0:0:
364,272,10726,2,0,L|276:200,1,110
140,112,11061,2,0,L|256:112,1,110
460,108,11396,5,4,0:0:0:0:
256,192,15754,12,4,16759,0:0:0:0:
256,192,16927,5,0,0:0:0:0:
256,192,17094,2,0,L|144:120,1,110,0|0,0:0|0:0,0:0:0:0:
360,72,17429,2,0,L|488:72,1,110,0|0,0:0|0:0,0:0:0:0:
160,132,17765,2,4,L|182:258,1,110,0|0,0:0|0:0,0:0:0:0:
344,244,18100,2,0,L|456:244,1,110
288,244,18435,2,0,L|172:244,1,110
52,140,18770,2,0,L|128:220,2,110,0|0|0,0:0|0:0|0:0,0:0:0:0:
200,156,19273,1,0,0:0:0:0:
312,160,19441,1,0,0:0:0:0:
200,224,19608,2,0,L|316:224,1,110
476,224,19944,5,0,0:0:0:0:
440,320,20111,2,0,L|328:320,2,110,0|0|0,0:0|0:0|0:0,0:0:0:0:
132,320,20614,1,0,0:0:0:0:
244,244,20782,2,0,L|356:244,2,110,0|0|0,0:0|0:0|0:0,0:0:0:0:
80,240,21284,1,0,0:0:0:0:
300,332,21452,5,0,0:0:0:0:
352,314,21535,1,0,0:0:0:0:
404,297,21619,1,0,0:0:0:0:
398,259,21703,1,0,0:0:0:0:
368,213,21787,1,0,0:0:0:0:
212,332,21871,5,0,0:0:0:0:
159,314,21954,1,0,0:0:0:0:
107,297,22038,1,0,0:0:0:0:
113,259,22122,1,0,0:0:0:0:
144,213,22206,1,0,0:0:0:0:
220,176,22290,2,0,L|160:176,1,55
64,68,22458,2,0,L|192:68,1,110
252,216,22793,2,0,L|252:336,1,110
448,68,23128,2,0,L|320:68,1,110
188,136,23463,2,0,L|96:208,2,110,0|0|0,0:0|0:0|0:0,0:0:0:0:
132,292,23966,6,0,L|80:192,1,110
284,168,24301,2,0,L|232:68,1,110,0|0,0:0|0:0,0:0:0:0:
400,76,24636,2,0,L|400:200,2,110,0|0|0,0:0|0:0|0:0,0:0:0:0:
348,232,25139,2,0,L|264:324,1,110
164,232,25474,2,0,L|248:324,1,110
16,164,25810,2,0,L|128:164,1,110
496,164,26145,2,0,L|496:52,1,110
300,52,26480,2,0,L|372:136,1,110
140,136,26815,2,0,L|212:52,1,110
16,54,27150,2,0,L|16:164,1,110
296,240,27486,6,0,L|436:216,1,110
216,240,27821,2,0,L|76:216,1,110
320,148,28156,2,0,L|428:239,1,110
192,148,28491,2,0,L|83:239,1,110
404,164,28826,2,0,L|487:93,1,110
108,164,29162,2,0,L|24:93,1,110
200,300,29497,2,0,L|324:300,2,110,0|0|0,0:0|0:0|0:0,0:0:0:0:
404,160,30167,1,0,0:0:0:0:
108,160,30502,1,0,0:0:0:0:
404,160,30837,5,0,0:0:0:0:
108,160,31172,1,0,0:0:0:0:
108,160,31508,1,0,0:0:0:0:
404,160,31843,1,0,0:0:0:0:
336,248,32178,5,0,0:0:0:0:
382,273,32261,1,0,0:0:0:0:
430,250,32345,1,0,0:0:0:0:
440,198,32429,1,0,0:0:0:0:
405,159,32513,1,0,0:0:0:0:
176,248,32598,5,0,0:0:0:0:
129,273,32681,1,0,0:0:0:0:
81,250,32765,1,0,0:0:0:0:
71,198,32849,1,0,0:0:0:0:
108,160,32932,6,0,B|-36:108|-36:108|48:-20|48:-20|116:8,1,371.250014162064
264,36,33854,1,0,0:0:0:0:
404,160,34189,2,0,B|196:160|196:160|420:160,1,412.500015735627,0|0,0:0|0:0,0:0:0:0:
456,56,35195,1,0,0:0:0:0:
332,56,35363,1,0,0:0:0:0:
208,56,35530,6,0,B|64:108|64:108|148:236|148:236|268:160,1,412.500015735627
364,180,36536,1,0,0:0:0:0:
404,160,36871,2,0,B|196:160|196:160|420:160,1,412.500015735627,0|0,0:0|0:0,0:0:0:0:
456,56,37877,1,0,0:0:0:0:
332,56,38045,1,0,0:0:0:0:
144,56,38212,2,0,L|256:56,2,82.5000031471254,0|0|0,0:0|0:0|0:0,0:0:0:0:
332,56,38715,1,0,0:0:0:0:
180,56,39050,1,0,0:0:0:0:
408,56,39385,1,0,0:0:0:0:
256,160,39720,1,0,0:0:0:0:
256,284,39888,5,0,0:0:0:0:
428,216,40223,2,0,L|244:216,1,165.000006294251,0|0,0:0|0:0,0:0:0:0:
16,184,40893,2,0,L|132:184,2,82.5000031471254,0|0|0,0:0|0:0|0:0,0:0:0:0:
144,120,41396,2,0,L|28:120,2,82.5000031471254,0|0|0,0:0|0:0|0:0,0:0:0:0:
268,120,41899,2,0,L|360:120,1,82.5000031471254
144,120,42234,2,0,L|52:120,1,82.5000031471254
268,120,42569,1,0,0:0:0:0:
440,296,42905,5,0,0:0:0:0:
324,344,43156,5,0,0:0:0:0:
72,296,43407,5,0,0:0:0:0:
188,344,43575,5,0,0:0:0:0:
256,192,43743,12,0,45083,0:0:0:0:
256,192,45251,5,0,0:0:0:0:
324,256,46256,6,0,L|324:108,1,110
104,152,46592,2,0,L|220:152,1,110
256,36,46927,2,0,L|256:160,1,110,0|0,0:0|0:0,0:0:0:0:
384,112,47262,2,0,L|301:194,1,110
128,112,47597,2,0,L|224:208,1,110,0|0,0:0|0:0,0:0:0:0:
56,260,47932,2,0,L|176:260,1,110
456,260,48268,2,0,L|336:260,1,110
256,348,48603,2,0,L|256:224,1,110,0|0,0:0|0:0,0:0:0:0:
166,260,48938,6,0,L|56:260,1,110
346,260,49273,2,0,L|456:260,1,110
216,196,49608,2,0,L|106:196,1,110,0|0,0:0|0:0,0:0:0:0:
296,196,49944,2,0,L|406:196,1,110,0|0,0:0|0:0,0:0:0:0:
420,40,50279,1,0,0:0:0:0:
256,40,50446,1,0,0:0:0:0:
92,40,50614,1,0,0:0:0:0:
336,100,50782,1,0,0:0:0:0:
256,104,50949,1,0,0:0:0:0:
176,100,51117,1,0,0:0:0:0:
420,344,51284,5,0,0:0:0:0:
92,344,51452,1,4,0:0:0:0:
256,336,51620,1,0,0:0:0:0:
256,172,51787,1,0,0:0:0:0:
416,132,51955,2,0,L|304:132,1,110
256,288,52290,1,0,0:0:0:0:
96,132,52458,2,0,L|208:132,1,110
256,240,52793,1,0,0:0:0:0:
480,132,52960,2,0,L|368:132,1,110
256,188,53295,1,0,0:0:0:0:
32,132,53463,6,0,L|144:132,1,110
256,144,53798,1,0,0:0:0:0:
92,136,53966,2,0,L|208:136,2,110,0|0|0,0:0|0:0|0:0,0:0:0:0:
176,280,54469,1,0,0:0:0:0:
320,204,54636,2,0,L|320:228|180:228,1,110,0|0,0:0|0:0,0:0:0:0:
4,208,54972,2,0,L|4:232|144:232,1,110,0|0,0:0|0:0,0:0:0:0:
60,228,55307,2,0,L|176:228,1,110
336,228,55642,1,0,0:0:0:0:
496,192,55810,1,0,0:0:0:0:
336,156,55977,1,0,0:0:0:0:
388,312,56145,1,0,0:0:0:0:
228,276,56312,5,0,0:0:0:0:
176,291,56395,1,0,0:0:0:0:
128,268,56479,1,0,0:0:0:0:
108,218,56563,1,0,0:0:0:0:
127,168,56647,1,0,0:0:0:0:
284,276,56731,5,0,0:0:0:0:
335,291,56814,1,0,0:0:0:0:
383,268,56898,1,0,0:0:0:0:
403,218,56982,1,0,0:0:0:0:
384,168,57066,1,0,0:0:0:0:
324,112,57150,1,0,0:0:0:0:
256,64,57318,1,0,0:0:0:0:
144,64,57486,1,0,0:0:0:0:
312,124,57653,2,0,L|200:124,1,110
56,200,57988,2,0,L|140:288,1,110
200,124,58324,6,0,L|312:124,1,110
456,200,58659,2,0,L|372:288,1,110
220,244,58994,2,0,L|180:136,1,110
84,144,59329,2,0,L|127:264,1,110
292,244,59664,2,0,L|332:136,1,110
428,144,59999,2,0,L|385:264,1,110
236,312,60335,1,0,0:0:0:0:
124,192,60502,2,0,L|-12:192,1,110
172,140,60837,2,0,L|288:140,1,110
484,104,61173,2,0,L|484:224,1,110
320,236,61508,6,0,L|200:236,1,110
76,140,61843,2,0,L|152:220,1,110
412,172,62178,2,0,L|300:172,1,110
136,180,62513,1,0,0:0:0:0:
272,84,62681,2,0,L|396:84,1,110
228,180,63016,1,0,0:0:0:0:
364,84,63184,2,0,L|488:84,1,110
136,180,63519,1,0,0:0:0:0:
272,84,63687,2,0,L|396:84,1,110
284,180,64022,5,0,0:0:0:0:
148,84,64190,2,0,L|24:84,1,110
392,180,64525,1,0,0:0:0:0:
256,84,64693,2,0,L|132:84,1,110
312,84,65027,2,0,L|436:84,1,110
496,232,65363,1,0,0:0:0:0:
422,300,65530,2,0,L|312:300,1,110
90,300,65865,2,0,L|200:300,1,110
16,232,66201,1,0,0:0:0:0:
368,140,66536,6,0,L|236:140,1,110
176,104,66871,1,0,0:0:0:0:
136,132,66954,1,0,0:0:0:0:
116,180,67039,1,0,0:0:0:0:
128,233,67122,1,0,0:0:0:0:
158,279,67206,1,0,0:0:0:0:
202,312,67290,1,0,0:0:0:0:
254,328,67374,1,0,0:0:0:0:
308,327,67457,1,0,0:0:0:0:
359,307,67541,1,0,0:0:0:0:
154,180,67709,6,0,L|44:180,1,110
208,180,68044,2,0,L|98:180,1,110
264,180,68380,2,0,L|154:180,1,110
318,180,68715,2,0,L|208:180,1,110
358,180,69050,2,0,L|468:180,1,110
304,180,69385,2,0,L|414:180,1,110
248,180,69721,2,0,L|358:180,1,110
424,132,70056,1,0,0:0:0:0:
256,128,70223,1,4,0:0:0:0:
424,132,70726,5,0,0:0:0:0:
184,128,70893,1,4,0:0:0:0:
424,132,71396,5,0,0:0:0:0:
116,128,71564,1,4,0:0:0:0:
424,132,72067,5,0,0:0:0:0:
256,132,72234,1,0,0:0:0:0:
88,132,72402,1,0,0:0:0:0:
256,132,72569,1,0,0:0:0:0:
424,132,72737,1,0,0:0:0:0:
256,132,72905,1,0,0:0:0:0:
108,208,73072,2,0,L|192:296,1,110
332,212,73407,2,0,L|412:124,1,110
176,64,73743,2,0,L|256:160,1,110
120,228,74078,1,0,0:0:0:0:
120,228,74246,5,0,0:0:0:0:
284,240,74413,2,0,L|388:168,1,110
128,112,74748,2,0,L|52:204,1,110
368,120,75083,2,0,L|416:224,1,110
268,300,75418,1,0,0:0:0:0:
268,300,75586,5,0,0:0:0:0:
80,236,75754,2,0,L|220:236,1,110
80,236,76256,2,0,L|240:236,1,131.99999597168
80,236,76759,2,0,L|308:236,1,153.999995300293
328,168,77262,2,0,L|236:168,1,88,0|0,0:0|0:0,0:0:0:0:
108,152,77597,5,0,0:0:0:0:
91,203,77680,1,0,0:0:0:0:
99,257,77764,1,0,0:0:0:0:
131,301,77848,1,0,0:0:0:0:
180,327,77932,1,0,0:0:0:0:
404,152,78016,5,0,0:0:0:0:
420,203,78099,1,0,0:0:0:0:
412,257,78183,1,0,0:0:0:0:
380,301,78267,1,0,0:0:0:0:
331,327,78351,1,0,0:0:0:0:
256,192,83798,12,0,88400,0:0:0:0:
