osu file format v13

[General]
AudioFilename: Sword Art Online (Crossing Field) Meets Metal.mp3
AudioLeadIn: 0
PreviewTime: 70049
Countdown: 0
SampleSet: None
StackLeniency: 0.7
Mode: 0
LetterboxInBreaks: 1
WidescreenStoryboard: 1

[Editor]
Bookmarks: 227268,238659
DistanceSpacing: 1
BeatDivisor: 4
GridSize: 8
TimelineZoom: 1.4

[Metadata]
Title:Crossing Field (Metal Cover)
TitleUnicode:Crossing Field (Metal Cover)
Artist:LiSA
ArtistUnicode:LiSA
Creator:LukerMaster
Version:Normal
Source:Sword Art Online
Tags:Rav Luker rock 331erock Erock 331
BeatmapID:505107
BeatmapSetID:185123

[Difficulty]
HPDrainRate:3
CircleSize:3
OverallDifficulty:3
ApproachRate:5
SliderMultiplier:0.9
SliderTickRate:2

[Events]
//Background and Video events
0,0,"bgsao.jpg",0,0
//Break Periods
//Storyboard Layer 0 (Background)
//Storyboard Layer 1 (Fail)
//Storyboard Layer 2 (Pass)
//Storyboard Layer 3 (Foreground)
//Storyboard Sound Samples
//Background Colour Transformations
3,100,0,0,0

[TimingPoints]
13579,320.855614973262,4,1,0,100,1,0
13579,-100,4,2,0,100,0,0
19354,-100,4,1,0,70,0,0
57215,-100,4,1,0,70,0,0
59782,-100,4,1,0,70,0,0
70691,-100,4,1,0,70,0,1
70771,-100,4,1,0,70,0,0
79514,-100,4,1,0,70,0,0
80156,-100,4,1,0,70,0,0
90263,-100,4,2,0,25,0,0
90905,-100,4,1,0,70,0,0
109013,-83.3333333333333,4,1,0,5,0,0
109193,-83.3333333333333,4,1,0,70,0,0
111099,-83.3333333333333,4,1,0,5,0,0
111279,-83.3333333333333,4,1,0,55,0,0
122349,-100,4,1,0,55,0,0
124595,-76.9230769230769,4,1,0,55,0,0
133418,-111.111111111111,4,1,0,55,0,0
134381,-73.5294117647059,4,1,0,55,0,0
145129,-166.666666666667,4,1,0,55,0,0
147375,-100,4,1,0,55,0,0
151386,-100,4,1,0,5,0,0
151546,-100,4,1,0,55,0,0
163097,-133.333333333333,4,1,0,55,0,0
165343,-83.3333333333333,4,1,0,55,0,0
173846,-66.6666666666667,4,1,0,55,0,0
175931,-76.9230769230769,4,1,0,55,0,0
180263,-133.333333333333,4,1,0,55,0,0
181065,-74.0740740740741,4,1,0,55,0,0
209300,-57.1428571428571,4,1,0,55,0,0
217001,-50,4,1,0,66,0,1
225343,-50,4,2,0,66,0,1
226627,-200,4,2,0,66,0,1
227349,-66.6666666666667,4,1,0,66,0,1
232402,-50,4,1,0,66,0,1
237456,-50,4,1,0,66,0,0
237536,-50,4,1,0,100,0,1
237937,-50,4,1,0,100,0,0
238017,-50,4,1,0,100,0,1
238418,-50,4,1,0,100,0,0
238498,-50,4,1,0,100,0,1
239461,-100,4,1,0,55,0,0

[Colours]
Combo1 : 179,225,234
Combo2 : 53,255,255
Combo3 : 201,0,230
Combo4 : 0,32,255

[HitObjects]
120,176,13579,6,0,B|192:176|192:176|228:133|302:142,1,180,2|0,0:0|0:0,0:0:0:0:
467,229,14862,2,0,B|395:229|395:229|359:272|285:263,1,180,2|0,1:2|0:0,0:0:0:0:
168,320,16145,2,0,P|96:240|128:168,1,180,0|0,1:0|0:0,0:0:0:0:
246,46,17429,2,0,P|318:126|286:198,1,180,0|0,1:0|0:0,0:0:0:0:
192,144,18712,5,0,1:0:0:0:
124,295,19354,2,0,P|172:319|216:320,1,90
281,235,19996,1,0,0:0:0:0:
329,134,20316,1,0,0:0:0:0:
219,111,20637,2,0,L|54:202,2,180,0|0|0,0:0|0:0|0:0,0:0:0:0:
344,112,22242,1,0,0:0:0:0:
424,208,22562,1,0,0:0:0:0:
352,312,22883,2,0,B|304:312|304:312|296:320|296:320|296:304|296:304|288:312|288:312|224:320|176:312,1,180
96,88,24488,6,0,P|120:128|168:152,1,90,0|2,0:0|0:2,0:0:0:0:
280,120,25129,2,0,P|318:142|340:181,1,90,0|2,0:0|0:2,0:0:0:0:
224,232,25771,1,0,0:0:0:0:
96,216,26092,1,0,0:0:0:0:
96,88,26413,2,0,L|192:56,1,90,0|2,0:0|0:2,0:0:0:0:
304,72,27054,1,0,0:0:0:0:
304,72,27375,1,0,0:0:0:0:
336,200,27696,2,0,P|352:256|376:296,1,90,0|2,0:0|0:2,0:0:0:0:
216,280,28338,2,0,P|236:239|247:196,1,90,0|2,0:0|0:2,0:0:0:0:
208,80,28980,6,0,P|168:72|152:72,2,45,0|0|4,0:0|2:0|0:0,0:0:0:0:
176,200,29621,2,0,P|272:200|328:120,1,180
448,120,30584,1,2,0:2:0:0:
376,224,30905,1,0,0:0:0:0:
488,288,31226,1,2,0:2:0:0:
360,336,31546,2,0,B|304:336|304:336|256:304,1,90,0|2,0:0|0:2,0:0:0:0:
176,240,32188,2,0,B|147:221|147:221|91:221,1,90,0|2,0:0|0:2,0:0:0:0:
152,112,32830,6,0,L|344:112,2,180,0|0|0,0:0|0:0|0:0,0:0:0:0:
112,232,34434,2,0,L|208:232,1,90
328,224,35076,1,2,0:2:0:0:
416,136,35397,2,0,P|456:176|464:224,1,90
328,224,36038,1,0,0:0:0:0:
248,128,36359,1,2,0:2:0:0:
120,112,36680,2,0,P|88:160|88:200,1,90
128,312,37322,1,0,0:0:0:0:
232,248,37643,2,0,P|248:184|240:96,1,135
372,72,38445,6,0,B|404:118|372:176|372:176|379:243|397:296,1,225
256,288,39568,1,2,0:2:0:0:
117,289,39889,2,0,B|133:243|136:176|136:176|192:136|192:136,1,180,0|0,0:0|1:1,0:0:0:0:
322,165,40851,1,0,0:0:0:0:
444,133,41172,2,0,P|450:192|428:230,1,90
352,336,41814,2,0,P|346:277|368:239,1,90
272,184,42456,6,0,B|249:229|201:231|201:231|180:273|129:279,3,180,0|0|0|2,0:0|0:0|0:0|0:2,0:0:0:0:
96,152,45022,1,0,0:0:0:0:
96,152,45183,1,4,0:0:0:0:
192,80,45504,2,0,P|248:64|288:72,1,90
328,104,45985,2,0,P|360:160|360:200,1,90
344,240,46466,1,4,0:0:0:0:
240,176,46787,6,0,P|184:184|136:168,1,90
96,160,47268,2,0,P|88:208|96:248,1,90
112,304,47750,1,4,0:0:0:0:
272,256,48070,1,0,0:0:0:0:
272,256,48231,2,0,L|344:176,1,90
304,64,48873,1,0,0:0:0:0:
304,64,49033,1,4,0:0:0:0:
136,144,49354,5,0,0:0:0:0:
136,144,49514,2,0,P|120:200|96:240,1,90
240,264,50156,1,0,0:0:0:0:
240,264,50316,1,4,0:0:0:0:
368,280,50637,1,4,0:0:0:0:
464,200,50958,1,4,0:0:0:0:
448,72,51279,1,4,0:0:0:0:
56,128,52081,6,0,L|136:184,1,90
224,96,52723,1,4,0:0:0:0:
224,96,52883,1,4,0:0:0:0:
280,208,53204,1,4,0:0:0:0:
400,160,53525,1,4,0:0:0:0:
352,40,53846,2,0,P|432:32|488:64,1,135
488,184,54648,6,0,L|472:256,2,60,0|0|0,0:0|0:0|0:0,0:0:0:0:
440,112,55290,1,0,0:0:0:0:
192,136,55931,5,0,0:0:0:0:
408,256,56573,1,0,0:0:0:0:
168,320,57215,2,0,P|104:304|88:280,1,90
168,184,57857,6,0,P|256:192|312:112,1,180,2|2,2:0|2:0,0:0:0:0:
200,72,58819,2,0,P|112:64|56:144,1,180,2|2,2:0|2:0,0:0:0:0:
120,240,59782,2,0,L|168:152,1,90
288,184,60423,2,0,L|240:272,1,90,4|0,0:0|0:0,0:0:0:0:
136,328,61065,1,0,0:0:0:0:
40,248,61386,1,2,0:2:0:0:
104,144,61707,2,0,P|136:96|184:80,1,90
288,104,62349,2,0,P|344:90|375:50,1,90
440,192,62990,6,0,L|352:240,1,90,4|0,0:0|0:0,0:0:0:0:
296,344,63632,1,0,0:0:0:0:
256,224,63953,2,0,P|224:144|232:88,1,135
104,104,64755,1,0,0:0:0:0:
104,232,65076,1,0,0:0:0:0:
320,304,65557,2,0,P|336:248|336:200,1,90,4|0,0:0|0:0,0:0:0:0:
192,80,66199,2,0,P|176:136|176:184,1,90,4|0,0:0|0:0,0:0:0:0:
337,167,66841,2,0,P|333:122|320:80,1,90,4|0,0:0|0:0,0:0:0:0:
174,216,67482,2,0,P|178:261|192:304,1,90,4|0,0:0|0:0,0:0:0:0:
264,200,68124,6,0,P|248:160|160:128,1,135,0|0,0:0|0:0,0:0:0:0:
96,232,68926,1,0,0:0:0:0:
40,136,69247,2,0,P|72:72|144:32,1,135
240,88,70049,2,0,P|288:128|320:128,1,90
376,240,70691,6,0,L|288:256,1,90,4|2,0:0|0:2,0:0:0:0:
208,352,71333,2,0,L|296:336,1,90
424,328,71974,2,0,P|480:264|448:168,1,180
352,112,72937,1,0,0:0:0:0:
232,144,73258,2,0,P|192:184|144:200,1,90,4|0,0:0|0:0,0:0:0:0:
128,80,73899,2,0,P|176:32|288:40,1,180
376,120,74862,1,0,0:0:0:0:
328,240,75183,2,0,P|272:232|160:296,1,180,0|4,0:0|0:0,0:0:0:0:
48,248,76145,1,0,0:0:0:0:
128,152,76466,6,0,L|184:72,1,90,4|0,0:0|0:0,0:0:0:0:
304,80,77108,2,0,L|248:160,1,90,4|0,0:0|0:0,0:0:0:0:
376,160,77750,2,0,L|427:86,1,90,4|0,0:0|0:0,0:0:0:0:
464,208,78391,6,0,P|392:256|336:248,1,135
232,200,79193,1,0,0:0:0:0:
104,216,79514,2,0,P|120:136|160:96,1,135,4|0,0:0|0:0,0:0:0:0:
280,72,80316,5,0,0:0:0:0:
384,152,80637,2,0,B|352:192|352:192|352:272|264:296,1,180
224,176,81600,1,0,0:0:0:0:
144,80,81921,5,0,0:0:0:0:
24,120,82242,1,4,0:0:0:0:
136,184,82562,1,2,0:2:0:0:
16,216,82883,2,0,P|48:272|168:288,1,180,0|4,0:0|0:0,0:0:0:0:
232,192,83846,1,0,0:0:0:0:
320,104,84167,2,0,P|360:136|416:144,1,90,4|0,0:0|0:0,0:0:0:0:
432,264,84808,2,0,P|392:232|336:224,1,90,4|0,0:0|0:0,0:0:0:0:
264,312,85450,6,0,P|184:304|88:328,1,180,0|2,0:0|0:2,0:0:0:0:
104,200,86413,1,0,0:0:0:0:
104,200,86573,1,0,0:0:0:0:
144,80,86894,2,0,P|184:104|272:80,1,135,4|2,0:0|0:2,0:0:0:0:
392,104,87696,1,0,0:0:0:0:
392,104,87857,1,0,0:0:0:0:
368,224,88177,2,4,P|320:296|272:304,1,135,4|2,0:0|0:2,0:0:0:0:
120,208,89140,1,4,0:0:0:0:
256,80,89621,1,4,0:0:0:0:
72,88,90263,5,2,0:0:0:0:
96,104,90584,1,2,0:0:0:0:
120,120,90905,1,4,0:0:0:0:
216,240,91226,2,0,P|264:224|304:184,1,90,4|0,0:0|0:0,0:0:0:0:
416,168,91867,2,0,P|400:120|360:80,1,90,0|0,0:0|0:0,0:0:0:0:
248,72,92509,1,0,0:0:0:0:
120,72,92830,1,0,0:0:0:0:
48,176,93151,2,0,B|88:200|128:192|128:192|160:224|146:282,1,180
256,344,94113,1,0,0:0:0:0:
365,282,94434,2,0,B|352:224|384:192|384:192|424:200|464:176,1,180
392,72,95397,5,0,0:0:0:0:
264,80,95718,2,0,P|200:80|160:72,2,90,0|0|4,0:0|0:0|0:0,0:0:0:0:
336,184,96680,1,0,0:0:0:0:
264,288,97001,2,0,P|232:256|216:200,1,90
144,112,97643,2,0,L|96:192,1,90
136,312,98284,1,0,0:0:0:0:
264,288,98605,2,0,L|312:208,2,90,0|0|0,0:0|0:0|0:0,0:0:0:0:
136,288,99568,1,0,0:0:0:0:
64,184,99889,6,0,P|104:160|160:168,1,90
272,144,100530,2,0,L|352:88,1,90
360,216,101172,2,0,L|280:272,1,90,0|4,0:0|0:0,0:0:0:0:
160,256,101814,1,0,0:0:0:0:
104,144,102135,1,0,0:0:0:0:
192,48,102456,2,0,L|288:32,1,90,2|0,0:2|0:0,0:0:0:0:
368,128,103097,2,0,L|272:144,1,90,2|0,0:2|0:0,0:0:0:0:
160,192,103739,1,2,0:2:0:0:
240,296,104060,2,0,P|184:320|144:320,2,90,2|2|0,0:2|0:2|0:0,0:0:0:0:
328,208,105022,6,0,L|392:128,1,90,2|0,0:2|0:0,0:0:0:0:
256,128,105664,2,0,L|192:48,1,90,2|0,0:2|0:0,0:0:0:0:
256,192,106466,12,0,109033,0:0:0:0:
256,192,109193,12,0,111119,0:0:0:0:
184,72,111760,6,0,B|136:88|104:160|104:160|184:152|192:248|192:248|160:280|168:312,1,323.999990112305,4|0,0:0|0:0,0:0:0:0:
345,299,113044,2,0,B|352:280|320:248|320:248|328:152|408:160|408:160|376:88|328:72,1,323.999990112305,4|0,0:0|0:0,0:0:0:0:
176,88,114327,6,0,B|184:144|112:176|112:176|72:296|208:336,1,323.999990112305,4|0,0:0|0:0,0:0:0:0:
313,333,115611,2,0,B|440:296|400:176|400:176|328:144|336:88,1,323.999990112305,4|0,0:0|0:0,0:0:0:0:
232,120,116894,6,0,P|264:200|288:224,1,107.999996704102
168,200,117536,2,0,P|168:48|304:56,1,323.999990112305
344,184,118819,2,0,P|344:336|208:328,1,323.999990112305
144,240,120103,6,0,B|32:152|248:144|120:48,2,215.999993408203,0|2|0,0:0|0:2|0:0,0:0:0:0:
248,240,121707,1,0,0:0:0:0:
304,144,122028,1,0,0:0:0:0:
376,248,122349,5,0,0:0:0:0:
288,336,122669,2,0,P|208:344|168:176,1,270,4|0,0:0|0:0,0:0:0:0:
256,112,123953,6,0,P|304:96|312:96,2,45,2|0|2,2:0|2:0|2:0,0:0:0:0:
93,80,124595,1,4,0:0:0:0:
120,192,124915,1,2,0:2:0:0:
219,261,125236,2,0,P|273:288|412:207,1,233.999989288331
300,168,126199,1,2,0:2:0:0:
377,80,126520,2,0,P|323:53|184:134,1,233.999989288331
144,240,127482,5,2,0:2:0:0:
80,141,127803,1,0,0:0:0:0:
195,124,128124,2,0,B|268:76|345:172|427:99,1,233.999989288331
433,221,129087,2,0,P|368:240|328:277,1,116.999994644165
223,228,129728,6,0,P|143:195|105:202,1,116.999994644165,4|0,0:0|0:0,0:0:0:0:
289,156,130370,2,0,P|369:189|407:182,1,116.999994644165,4|0,0:0|0:0,0:0:0:0:
496,112,131012,2,0,P|416:79|378:86,1,116.999994644165,4|0,0:0|0:0,0:0:0:0:
184,128,131653,2,0,P|241:128|291:157,1,116.999994644165,4|0,0:0|0:0,0:0:0:0:
304,264,132295,6,0,B|192:304|192:304|132:277,1,175.499991966248,4|0,0:0|0:0,0:0:0:0:
70,169,133097,1,2,0:2:0:0:
118,57,133418,2,0,P|167:77|323:36,1,202.499993820191,4|0,0:0|0:0,0:0:0:0:
410,140,134541,6,0,P|340:148|300:190,1,122.40000074707
207,241,135183,2,0,P|162:280|102:284,1,122.40000074707
102,140,135824,2,0,P|172:148|212:190,1,122.40000074707
304,241,136466,2,0,P|349:280|410:284,1,122.40000074707
400,152,137108,6,0,L|320:56,1,122.40000074707
190,57,137750,2,0,L|112:152,2,122.40000074707,0|0|0,0:0|0:0|0:0,0:0:0:0:
256,176,138712,5,0,0:0:0:0:
256,312,139033,1,0,0:0:0:0:
368,240,139354,2,0,P|392:176|360:112,1,122.40000074707
256,64,139996,2,0,L|128:32,1,122.40000074707,4|0,0:0|0:0,0:0:0:0:
143,239,140637,2,0,P|120:184|137:127,1,122.40000074707,4|0,0:0|0:0,0:0:0:0:
256,64,141279,2,0,L|384:32,1,122.40000074707,4|0,0:0|0:0,0:0:0:0:
328,160,141921,2,0,L|209:189,1,122.40000074707,4|0,0:0|0:0,0:0:0:0:
104,272,142562,6,0,B|144:328|200:328|240:288|240:288|280:344|360:344|392:280|392:280|384:232|408:184|488:184,1,489.600002988281,2|0,0:2|0:0,0:0:0:0:
392,80,144167,1,0,0:0:0:0:
256,64,144488,2,0,P|192:80|136:104,2,122.40000074707,0|0|4,0:0|0:0|0:0,0:0:0:0:
336,152,145771,5,2,0:2:0:0:
272,240,146092,1,0,0:0:0:0:
168,232,146413,2,0,P|128:216|104:152,1,107.999996704102,4|0,0:0|0:0,0:0:0:0:
456,104,147696,2,0,L|424:288,1,180,4|0,0:0|0:0,0:0:0:0:
256,216,148659,1,2,0:2:0:0:
86,281,148980,2,0,L|56:104,1,180,4|0,0:0|0:0,0:0:0:0:
216,192,149942,5,0,0:0:0:0:
368,288,150263,2,0,P|448:200|416:64,1,270,4|0,0:0|0:0,0:0:0:0:
240,80,151546,2,0,P|160:168|192:304,1,270,4|0,0:0|0:0,0:0:0:0:
240,176,152830,2,0,P|192:144|152:144,1,90,4|0,0:0|0:0,0:0:0:0:
56,232,153472,2,0,P|104:264|144:264,1,90
264,288,154113,2,0,L|352:264,1,90,4|0,0:0|0:0,0:0:0:0:
328,128,154755,2,0,L|416:104,1,90,0|0,0:0|0:0,0:0:0:0:
344,216,155397,6,0,P|232:144|288:48,1,270,4|0,0:0|0:0,0:0:0:0:
328,128,156680,2,0,P|197:154|171:46,1,270,4|0,0:0|0:0,0:0:0:0:
104,104,157964,6,0,L|96:208,1,90,4|0,0:0|0:0,0:0:0:0:
200,280,158605,2,0,L|208:176,1,90,2|0,0:2|0:0,0:0:0:0:
328,128,159247,2,0,L|320:232,1,90,4|0,0:0|0:0,0:0:0:0:
424,304,159888,2,0,L|432:200,1,90,2|0,0:2|0:0,0:0:0:0:
328,128,160530,5,4,0:0:0:0:
184,128,160851,1,0,0:0:0:0:
352,240,161172,1,4,0:0:0:0:
160,240,161493,1,0,0:0:0:0:
72,144,161814,5,0,0:0:0:0:
152,40,162135,1,0,0:0:0:0:
256,128,162456,1,0,0:0:0:0:
360,40,162776,1,0,0:0:0:0:
440,144,163097,2,0,P|408:216|240:312,1,270.000010299683
192,224,164701,1,0,0:0:0:0:
192,224,165022,2,0,P|192:176|256:120,1,135.000005149842
296,216,165985,1,2,0:2:0:0:
384,272,166306,6,0,L|472:176,1,107.999996704102
448,88,166947,2,0,P|408:112|336:104,1,107.999996704102,0|2,0:0|0:2,0:0:0:0:
264,176,167589,2,0,P|304:152|384:160,1,107.999996704102,0|0,0:0|0:1,0:0:0:0:
248,104,168231,6,0,L|120:120,1,107.999996704102
96,216,168873,2,0,L|224:200,1,107.999996704102,0|2,0:0|0:2,0:0:0:0:
296,208,169514,6,0,P|352:192|416:224,1,107.999996704102
216,208,170156,2,0,P|160:192|96:224,1,107.999996704102
72,152,170637,6,0,P|120:112|216:96,1,161.999995056153,4|0,0:0|0:0,0:0:0:0:
295,96,171279,2,0,P|375:104|440:152,1,161.999995056153,4|0,0:0|0:0,0:0:0:0:
408,208,171921,2,0,P|312:248|280:312,1,161.999995056153,4|0,0:0|0:0,0:0:0:0:
227,294,172562,2,0,P|180:230|104:208,1,161.999995056153,4|0,0:0|0:0,0:0:0:0:
144,152,173204,2,0,P|200:128|256:24,1,161.999995056153
384,80,174006,1,0,0:0:0:0:
448,184,174327,1,2,0:2:0:0:
376,296,174648,6,0,P|288:256|136:320,1,270.000010299683
64,208,175611,1,2,0:2:0:0:
168,128,175931,2,0,P|232:96|256:56,1,116.999994644165
384,72,176573,1,0,0:0:0:0:
384,208,176894,6,0,L|280:296,2,116.999994644165,2|0|2,0:2|0:0|0:2,0:0:0:0:
288,112,177857,1,0,0:0:0:0:
184,200,178177,2,0,P|144:176|128:88,1,116.999994644165
256,72,178819,1,0,0:0:0:0:
392,56,179140,2,0,P|416:128|360:296,1,233.999989288331
256,264,180103,1,0,0:0:0:0:
256,264,180263,2,0,P|200:256|144:272,1,101.250003862381
144,144,181065,6,0,P|256:88|368:160,1,243.000000926971
256,208,182028,1,0,0:0:0:0:
192,312,182349,2,0,P|144:256|192:104,1,243.000000926971
312,104,183311,2,0,L|440:72,1,121.500000463486
416,192,183953,1,0,0:0:0:0:
429,309,184274,2,0,L|312:280,1,121.500000463486
224,200,184915,6,0,P|160:168|80:304,1,243.000000926971,2|0,0:2|0:0,0:0:0:0:
184,336,185878,1,0,0:0:0:0:
304,312,186199,2,0,L|424:256,1,121.500000463486
440,144,186841,2,0,L|329:195,1,121.500000463486
