osu file format v13

[General]
AudioFilename: Sword Art Online (Crossing Field) Meets Metal.mp3
AudioLeadIn: 0
PreviewTime: 70049
Countdown: 0
SampleSet: Normal
StackLeniency: 0.7
Mode: 0
LetterboxInBreaks: 1
WidescreenStoryboard: 0

[Editor]
Bookmarks: 227268,238659
DistanceSpacing: 0.6
BeatDivisor: 4
GridSize: 8
TimelineZoom: 1.4

[Metadata]
Title:Crossing Field (Metal Cover)
TitleUnicode:Crossing Field (Metal Cover)
Artist:LiSA
ArtistUnicode:LiSA
Creator:LukerMaster
Version:LKR sExtra
Source:Sword Art Online
Tags:Rav Luker rock 331erock Erock 331
BeatmapID:442818
BeatmapSetID:185123

[Difficulty]
HPDrainRate:6.9
CircleSize:4
OverallDifficulty:8
ApproachRate:9.4
SliderMultiplier:1.6
SliderTickRate:1

[Events]
//Background and Video events
0,0,"bgsao.jpg",0,0
//Break Periods
//Storyboard Layer 0 (Background)
//Storyboard Layer 1 (Fail)
//Storyboard Layer 2 (Pass)
//Storyboard Layer 3 (Foreground)
//Storyboard Sound Samples
//Background Colour Transformations
3,100,0,0,0

[TimingPoints]
13579,320.855614973262,4,1,0,100,1,0
13579,-100,4,2,0,100,0,0
19354,-100,4,1,0,70,0,0
70691,-83.3333333333333,4,1,0,70,0,1
70771,-83.3333333333333,4,1,0,70,0,0
79514,-125,4,1,0,70,0,0
80156,-83.3333333333333,4,1,0,70,0,0
90263,-83.3333333333333,4,2,0,25,0,0
90905,-83.3333333333333,4,1,0,70,0,0
109013,-83.3333333333333,4,1,0,5,0,0
109193,-83.3333333333333,4,1,0,70,0,0
111099,-83.3333333333333,4,1,0,5,0,0
111279,-83.3333333333333,4,1,0,55,0,0
122349,-133.333333333333,4,1,0,55,0,0
124595,-76.9230769230769,4,1,0,55,0,0
133418,-111.111111111111,4,1,0,55,0,0
134381,-73.5294117647059,4,1,0,55,0,0
145129,-166.666666666667,4,1,0,55,0,0
147375,-100,4,1,0,55,0,0
151386,-100,4,1,0,5,0,0
151546,-100,4,1,0,55,0,0
163097,-133.333333333333,4,1,0,55,0,0
165343,-66.6666666666667,4,1,0,55,0,0
170497,-66.6666666666667,4,1,0,5,0,0
171119,-66.6666666666667,4,1,0,55,0,0
171139,-66.6666666666667,4,1,0,5,0,0
171760,-66.6666666666667,4,1,0,55,0,0
171780,-66.6666666666667,4,1,0,5,0,0
172402,-66.6666666666667,4,1,0,55,0,0
173044,-66.6666666666667,4,1,0,55,0,0
173204,-100,4,1,0,55,0,0
173846,-66.6666666666667,4,1,0,55,0,0
180263,-133.333333333333,4,1,0,55,0,0
181065,-66.6666666666667,4,1,0,55,0,0
209300,-57.1428571428571,4,1,0,55,0,0
217001,-50,4,1,0,66,0,1
225343,-50,4,2,0,66,0,1
226627,-200,4,2,0,66,0,1
227349,-66.6666666666667,4,1,0,66,0,1
232402,-50,4,1,0,66,0,1
237456,-50,4,1,0,66,0,0
237536,-50,4,1,0,100,0,1
237937,-50,4,1,0,100,0,0
238017,-50,4,1,0,100,0,1
238418,-50,4,1,0,100,0,0
238498,-50,4,1,0,100,0,1
239461,-100,4,1,0,55,0,0

[Colours]
Combo1 : 179,225,234
Combo2 : 53,255,255
Combo3 : 201,0,230
Combo4 : 0,32,255

[HitObjects]
96,104,13579,5,0,0:0:0:0:
232,160,13739,1,0,0:0:0:0:
104,216,13899,2,0,P|136:256|256:280,2,160,2|0|2,0:0|0:0|0:0,0:0:0:0:
392,192,14862,2,0,P|408:240|336:320,1,160,0|0,1:0|0:0,0:0:0:0:
216,248,15343,1,0,0:0:0:0:
272,112,15504,2,0,P|336:56|432:64,1,160
272,312,16145,6,0,P|224:336|136:264,1,160,0|0,1:0|0:0,0:0:0:0:
136,136,16627,1,2,0:0:0:0:
152,152,16707,1,2,0:0:0:0:
168,168,16787,2,0,P|232:216|328:208,1,160
56,80,17429,2,0,B|32:128|32:128|56:144|56:240,1,160,0|0,1:0|0:0,0:0:0:0:
168,320,17910,1,0,0:0:0:0:
288,200,18070,1,0,0:0:0:0:
136,168,18231,1,0,0:0:0:0:
264,288,18391,2,0,P|320:296|432:256,1,160,0|0,0:0|1:0,0:0:0:0:
312,168,18873,5,0,1:0:0:0:
192,96,19033,1,0,1:0:0:0:
152,80,19113,1,0,1:0:0:0:
113,90,19193,1,0,1:0:0:0:
88,121,19274,1,0,1:0:0:0:
104,157,19354,2,0,P|150:200|191:215,1,80,0|2,0:0|2:0,0:0:0:0:
307,185,19675,2,0,P|261:142|220:127,1,80,0|2,0:0|2:0,0:0:0:0:
392,144,19996,5,0,2:0:0:0:
344,280,20156,1,0,2:0:0:0:
208,232,20316,2,0,P|176:264|144:280,1,80,0|2,0:0|2:0,0:0:0:0:
96,144,20637,1,2,2:0:0:0:
96,144,20718,1,2,2:0:0:0:
96,144,20798,1,2,2:0:0:0:
232,88,20958,2,0,P|288:80|320:56,1,80,0|2,0:0|2:0,0:0:0:0:
264,208,21279,2,0,P|208:216|176:240,1,80,0|2,2:0|2:0,0:0:0:0:
280,120,21600,5,0,0:0:0:0:
416,160,21760,1,2,2:0:0:0:
360,296,21921,2,0,P|320:288|272:256,1,80,0|2,0:0|2:0,0:0:0:0:
152,296,22242,2,0,P|160:256|192:208,1,80,0|2,0:0|2:0,0:0:0:0:
332,161,22562,2,0,P|352:127|360:88,1,80,0|2,0:0|2:0,0:0:0:0:
225,115,22883,2,0,P|191:95|152:88,1,80,0|2,0:0|2:0,0:0:0:0:
40,184,23204,1,0,0:0:0:0:
184,176,23365,1,0,0:0:0:0:
112,232,23525,5,0,0:0:0:0:
408,56,24488,6,0,P|416:112|408:144,1,80,0|0,0:0|2:0,0:0:0:0:
264,136,24808,2,0,P|208:144|176:136,1,80,0|0,0:0|2:0,0:0:0:0:
208,280,25129,2,0,P|247:285|286:276,1,80,0|0,0:0|2:0,0:0:0:0:
176,184,25450,2,0,P|112:216|104:304,2,160
464,232,26413,2,0,P|424:272|384:280,1,80,0|2,0:0|2:0,0:0:0:0:
384,136,26734,2,0,P|424:96|464:88,1,80,0|2,0:0|2:0,0:0:0:0:
304,64,27054,1,0,1:0:0:0:
208,176,27215,1,0,2:0:0:0:
112,72,27375,2,0,P|80:104|80:152,1,80,0|0,0:0|2:0,0:0:0:0:
184,232,27696,6,0,L|280:200,2,80,0|2|0,0:0|2:0|0:0,0:0:0:0:
56,168,28177,1,0,2:0:0:0:
152,64,28338,2,0,B|184:40|184:40|320:40,1,160
424,304,28980,2,0,P|368:320|344:336,1,80,0|2,0:0|2:0,0:0:0:0:
240,240,29300,2,0,P|296:224|320:208,1,80
192,136,29621,2,0,P|128:216|192:344,1,240
296,256,30263,2,0,L|376:224,1,80,0|2,0:0|2:0,0:0:0:0:
504,168,30584,2,0,L|424:136,1,80,8|2,2:0|2:0,0:0:0:0:
296,192,30905,2,0,L|264:272,1,80,0|2,1:0|2:0,0:0:0:0:
128,216,31226,5,8,2:0:0:0:
232,120,31386,1,0,2:0:0:0:
88,128,31546,1,0,1:0:0:0:
200,32,31707,1,0,2:0:0:0:
88,128,31867,2,0,P|48:160|40:208,1,80,0|2,0:0|2:0,0:0:0:0:
136,296,32188,2,0,B|200:240|264:304|264:304|352:312|416:208,2,320
88,160,33632,1,0,0:0:0:0:
232,184,33792,1,0,0:0:0:0:
232,184,33873,1,0,0:0:0:0:
232,184,33953,1,0,0:0:0:0:
312,64,34113,2,0,P|224:64|208:72,1,80
160,184,34434,5,0,0:0:0:0:
172,204,34514,1,0,0:0:0:0:
189,220,34595,1,0,0:0:0:0:
208,233,34675,1,0,0:0:0:0:
229,244,34755,2,0,P|313:269|336:271,1,80
403,161,35076,2,0,P|319:136|296:134,1,80,0|2,0:0|2:0,0:0:0:0:
205,58,35397,1,0,1:0:0:0:
65,91,35557,1,0,0:0:0:0:
65,91,35637,1,0,0:0:0:0:
65,91,35718,2,0,P|60:149|73:186,1,80
142,290,36038,2,0,P|175:243|279:223,1,160
48,40,36680,6,0,P|32:88|48:128,1,80,0|2,0:0|2:0,0:0:0:0:
128,232,37001,2,0,P|144:184|128:144,1,80,0|2,0:0|2:0,0:0:0:0:
32,256,37322,6,0,P|48:304|96:328,2,80
80,120,37803,1,0,0:0:0:0:
336,248,38124,1,0,0:0:0:0:
208,304,38284,1,0,0:0:0:0:
88,224,38445,2,0,B|96:176|83:157|83:157|152:88|240:112,1,240
440,272,39247,6,0,P|368:296|336:288,1,80
248,208,39568,2,0,P|320:184|352:192,1,80
248,312,39889,2,0,P|160:336|80:208,2,240
440,104,41172,5,0,0:0:0:0:
312,168,41333,1,0,0:0:0:0:
168,144,41493,2,0,P|192:96|232:80,1,80
72,80,41814,1,0,0:0:0:0:
64,224,41974,1,0,0:0:0:0:
200,280,42135,1,0,0:0:0:0:
200,280,42215,1,0,0:0:0:0:
200,280,42295,1,0,0:0:0:0:
328,208,42456,2,0,P|376:176|416:176,1,80,4|2,0:0|2:0,0:0:0:0:
256,144,42776,2,0,P|262:86|288:56,1,80,4|2,0:0|2:0,0:0:0:0:
97,176,43097,6,0,P|39:169|9:143,1,80,4|2,0:0|2:0,0:0:0:0:
112,272,43417,2,0,P|70:311|32:320,1,80,4|2,0:0|2:0,0:0:0:0:
32,224,43739,1,0,0:0:0:0:
96,80,43899,1,0,0:0:0:0:
192,224,44060,1,0,0:0:0:0:
200,237,44140,1,0,0:0:0:0:
210,249,44220,1,0,0:0:0:0:
347,292,44381,2,0,P|413:246|433:159,1,160
406,137,44782,1,0,0:0:0:0:
363,127,44862,1,0,0:0:0:0:
319,134,44942,1,0,0:0:0:0:
276,123,45022,2,0,P|219:92|208:60,1,80,0|2,0:0|2:0,0:0:0:0:
87,205,45504,5,0,0:0:0:0:
87,205,45824,1,0,0:0:0:0:
169,236,45985,2,0,P|231:248|323:216,1,160
255,157,46466,1,0,0:0:0:0:
99,75,46787,1,0,0:0:0:0:
229,51,46947,2,0,P|291:39|330:46,2,80
221,227,47589,5,0,0:0:0:0:
133,216,47750,1,0,0:0:0:0:
168,296,47910,2,0,P|216:325|337:301,2,160
148,255,48632,1,2,2:0:0:0:
147,211,48712,1,2,2:0:0:0:
165,171,48792,1,2,2:0:0:0:
199,143,48873,2,0,P|257:126|290:137,1,80
437,63,49354,5,0,2:0:0:0:
353,90,49514,2,0,L|268:119,1,80
231,191,49835,2,0,L|316:220,1,80
323,303,50156,5,0,0:0:0:0:
323,303,50236,1,0,0:0:0:0:
323,303,50316,1,0,0:0:0:0:
215,270,50477,1,2,0:0:0:0:
137,189,50637,1,0,0:0:0:0:
150,155,50718,1,0,0:0:0:0:
142,119,50798,1,0,0:0:0:0:
285,117,50958,6,0,L|343:137,2,40
164,37,51279,1,0,0:0:0:0:
128,38,51359,1,0,0:0:0:0:
98,58,51439,1,0,0:0:0:0:
83,91,51520,1,0,0:0:0:0:
80,126,51600,1,0,0:0:0:0:
85,161,51680,1,0,0:0:0:0:
70,193,51760,2,0,P|112:229|159:238,1,80,4|0,0:0|0:0,0:0:0:0:
245,143,52081,1,0,0:0:0:0:
245,143,52161,1,0,0:0:0:0:
245,143,52242,1,0,0:0:0:0:
282,281,52402,5,0,0:0:0:0:
282,281,52482,1,0,0:0:0:0:
282,281,52562,1,0,0:0:0:0:
397,193,52723,1,0,0:0:0:0:
397,193,52803,1,0,0:0:0:0:
397,193,52883,2,0,P|391:144|358:111,2,80
136,64,53525,1,0,0:0:0:0:
342,49,53846,1,0,0:0:0:0:
376,40,53926,1,0,0:0:0:0:
368,75,54006,1,0,0:0:0:0:
368,111,54087,1,0,0:0:0:0:
380,144,54167,5,0,0:0:0:0:
405,169,54247,1,0,0:0:0:0:
423,199,54327,1,4,0:0:0:0:
429,234,54407,1,0,0:0:0:0:
418,268,54488,1,0,0:0:0:0:
386,285,54568,1,0,0:0:0:0:
352,280,54648,2,0,P|292:256|272:212,2,106.666666666667,4|4|4,0:0|0:0|0:0,0:0:0:0:
182,361,55290,6,0,P|56:275|68:123,2,320
307,88,57215,6,0,P|313:57|313:44,2,40
425,170,57536,2,0,P|419:201|419:214,2,40,0|0|0,0:0|0:0|0:0,0:0:0:0:
336,264,57857,5,0,2:0:0:0:
308,280,57937,1,0,2:0:0:0:
276,284,58017,1,0,2:0:0:0:
244,277,58097,1,0,2:0:0:0:
221,254,58177,2,0,P|208:222|208:209,3,40,2|2|2|2,2:0|2:0|2:0|2:0,2:0:0:0:
205,184,58498,2,0,P|202:156|194:137,3,40,2|2|2|2,2:0|2:0|2:0|2:0,2:0:0:0:
178,118,58819,1,0,2:0:0:0:
155,95,58899,1,0,2:0:0:0:
125,81,58980,1,0,2:0:0:0:
93,88,59060,1,0,2:0:0:0:
70,110,59140,1,2,2:0:0:0:
68,141,59220,1,0,2:0:0:0:
92,161,59300,1,0,2:0:0:0:
107,189,59381,1,0,2:0:0:0:
107,220,59461,5,2,2:0:0:0:
92,248,59541,1,0,2:0:0:0:
80,277,59621,1,0,2:0:0:0:
78,308,59701,1,0,2:0:0:0:
107,320,59782,2,0,P|157:321|191:300,1,80
268,191,60103,2,0,P|218:190|184:211,1,80,0|2,0:0|2:0,0:0:0:0:
283,92,60423,2,0,P|333:93|417:18,2,160,0|2|0,0:0|1:0|1:0,0:0:0:0:
143,52,61226,1,0,1:0:0:0:
156,195,61386,2,0,P|196:224|238:231,1,80,0|2,0:0|2:0,0:0:0:0:
336,320,61707,2,0,P|365:280|372:238,1,80,0|2,0:0|2:0,0:0:0:0:
432,120,62028,5,2,2:0:0:0:
304,176,62188,1,2,2:0:0:0:
184,96,62349,2,0,L|104:136,1,80
112,272,62669,1,0,0:0:0:0:
256,280,62830,1,0,0:0:0:0:
256,280,62910,1,0,0:0:0:0:
256,280,62990,2,0,P|288:240|296:208,1,80,0|2,0:0|2:0,0:0:0:0:
232,88,63311,2,0,P|200:128|192:160,1,80,0|2,0:0|2:0,0:0:0:0:
56,120,63632,2,0,P|40:200|64:272,1,160
192,200,64113,5,0,0:0:0:0:
320,272,64274,1,0,0:0:0:0:
184,312,64434,1,0,0:0:0:0:
72,224,64595,2,0,B|80:184|80:184|112:152,1,80,0|2,0:0|2:0,0:0:0:0:
312,144,64915,2,0,B|304:184|304:184|272:216,1,80,0|2,0:0|2:0,0:0:0:0:
216,80,65236,2,0,B|240:40|240:40|376:40,1,160,0|4,0:0|0:0,0:0:0:0:
432,160,65718,5,0,0:0:0:0:
432,160,65798,1,0,0:0:0:0:
432,160,65878,1,0,0:0:0:0:
320,256,66038,1,0,0:0:0:0:
240,136,66199,1,4,0:0:0:0:
384,120,66359,1,0,0:0:0:0:
384,120,66439,1,0,0:0:0:0:
384,120,66520,1,0,0:0:0:0:
288,224,66680,5,0,0:0:0:0:
296,80,66841,2,0,P|368:32|456:64,1,160,4|0,0:0|0:0,0:0:0:0:
448,192,67322,1,0,0:0:0:0:
384,320,67482,2,0,P|336:304|224:328,1,160,4|0,0:0|0:0,0:0:0:0:
128,224,67964,5,0,0:0:0:0:
288,200,68124,1,4,0:0:0:0:
128,128,68284,1,4,0:0:0:0:
216,264,68445,1,4,0:0:0:0:
376,232,68605,2,0,P|384:176|296:112,1,160,0|4,0:0|0:0,0:0:0:0:
48,296,69247,2,0,P|96:320|264:240,1,240
128,160,69889,5,0,0:0:0:0:
128,160,70049,1,4,0:0:0:0:
288,128,70210,1,4,0:0:0:0:
152,40,70370,1,0,0:0:0:0:
40,136,70530,1,0,0:0:0:0:
40,136,70611,1,0,0:0:0:0:
40,136,70691,2,0,P|40:192|64:232,1,95.9999970703126,4|2,0:2|2:0,0:0:0:0:
224,280,71012,2,0,P|224:224|200:184,1,95.9999970703126,0|0,0:0|0:0,0:0:0:0:
344,80,71333,5,0,0:0:0:0:
396,244,71493,1,0,0:0:0:0:
260,352,71653,2,0,P|192:352|160:332,1,95.9999970703126,0|2,0:0|2:0,0:0:0:0:
216,192,71974,1,0,0:0:0:0:
104,88,72135,1,0,0:0:0:0:
252,32,72295,2,0,P|320:32|352:52,1,95.9999970703126,4|2,0:0|2:0,0:0:0:0:
396,192,72616,2,0,P|328:192|296:172,1,95.9999970703126,0|2,0:0|2:0,0:0:0:0:
360,124,72937,1,0,0:0:0:0:
208,116,73097,5,0,0:0:0:0:
208,116,73177,1,0,0:0:0:0:
208,116,73258,1,0,0:0:0:0:
72,184,73418,1,2,2:0:0:0:
192,280,73579,2,0,P|224:248|236:196,1,95.9999970703126,0|2,0:0|2:0,0:0:0:0:
324,76,73899,6,0,L|420:112,1,95.9999970703126
384,260,74220,2,0,L|288:296,1,95.9999970703126
128,260,74541,2,0,L|224:296,1,95.9999970703126
256,144,74862,1,0,0:0:0:0:
256,144,74942,1,0,0:0:0:0:
256,144,75022,1,0,0:0:0:0:
120,72,75183,2,0,P|88:116|128:252,1,191.999994140625
420,212,75824,6,0,P|444:144|372:44,1,191.999994140625,4|0,0:0|0:0,0:0:0:0:
232,76,76306,1,0,0:0:0:0:
168,120,76466,2,0,P|200:168|136:280,1,191.999994140625,4|0,0:0|0:0,0:0:0:0:
60,148,76947,1,0,0:0:0:0:
92,76,77108,2,0,P|168:36|256:96,1,191.999994140625,4|0,0:0|0:0,0:0:0:0:
308,228,77589,1,0,0:0:0:0:
340,296,77750,2,0,P|280:320|164:256,1,191.999994140625,4|0,0:0|0:0,0:0:0:0:
208,120,78231,1,0,0:0:0:0:
208,120,78311,1,0,0:0:0:0:
208,120,78391,1,4,0:1:0:0:
68,52,78552,5,0,0:0:0:0:
76,204,78712,1,0,0:0:0:0:
216,272,78873,1,0,0:0:0:0:
432,56,79193,1,0,0:0:0:0:
432,56,79514,2,0,P|452:132|432:252,1,192
316,144,80156,1,0,2:0:0:0:
232,272,80316,2,0,P|176:204|172:172,1,95.9999970703126
308,88,80637,1,0,0:0:0:0:
308,88,80798,2,0,B|300:156|368:200|368:200|392:344|320:348,1,287.999991210938
180,280,81439,1,0,0:0:0:0:
112,120,81600,5,0,0:0:0:0:
112,120,81680,1,0,0:0:0:0:
112,120,81760,1,0,0:0:0:0:
252,180,81921,2,0,P|260:124|244:80,1,95.9999970703126,0|2,0:0|2:0,0:0:0:0:
376,172,82242,2,0,P|368:228|384:272,1,95.9999970703126,0|2,0:0|2:0,0:0:0:0:
232,308,82562,2,0,L|132:312,2,95.9999970703126
232,308,83044,1,0,0:0:0:0:
324,312,83365,6,0,P|352:264|208:116,1,287.999991210938,4|0,0:0|0:0,0:0:0:0:
256,264,84006,1,0,0:0:0:0:
188,312,84167,2,0,P|160:264|184:120,1,191.999994140625,4|0,0:0|0:0,0:0:0:0:
256,84,84648,1,0,0:0:0:0:
337,133,84808,2,0,P|360:224|324:312,1,191.999994140625,4|0,0:0|0:0,0:0:0:0:
256,264,85290,1,0,0:0:0:0:
180,208,85450,2,0,P|132:180|84:176,1,95.9999970703126
132,88,85771,2,0,P|166:44|210:23,1,95.9999970703126
201,26,86012,1,0,0:0:0:0:
201,26,86092,1,0,0:0:0:0:
380,100,86413,5,0,0:0:0:0:
380,100,86573,1,0,0:0:0:0:
348,288,86894,2,0,P|296:288|256:96,1,287.999991210938
176,280,87696,1,0,0:0:0:0:
112,208,87857,1,0,0:0:0:0:
162,104,88177,5,0,0:0:0:0:
189,94,88258,1,0,0:0:0:0:
217,93,88338,1,0,0:0:0:0:
245,98,88418,1,0,0:0:0:0:
270,110,88498,1,0,0:0:0:0:
298,115,88579,1,0,0:0:0:0:
326,117,88659,1,0,0:0:0:0:
441,106,88819,5,4,0:0:0:0:
282,273,89140,1,4,0:0:0:0:
224,173,89300,1,4,0:0:0:0:
78,138,89621,1,4,0:0:0:0:
22,38,89781,5,4,0:0:0:0:
368,48,90263,5,0,0:0:0:0:
428,124,90584,1,0,0:0:0:0:
372,200,90905,1,4,1:0:0:0:
160,292,91226,6,0,P|124:228|128:184,1,95.9999970703126,0|2,0:0|2:0,0:0:0:0:
188,112,91546,2,0,P|224:176|220:220,1,95.9999970703126,0|2,0:0|2:0,0:0:0:0:
304,280,91867,1,2,2:0:0:0:
304,280,91947,1,2,2:0:0:0:
304,280,92028,1,2,2:0:0:0:
356,180,92188,2,0,L|368:80,1,95.9999970703126,0|2,0:0|2:0,0:0:0:0:
256,108,92509,2,0,P|208:244|148:268,1,191.999994140625,2|0,2:0|0:0,0:0:0:0:
88,184,92990,1,2,2:0:0:0:
112,72,93151,2,0,P|160:60|200:32,1,95.9999970703126,2|2,2:0|2:0,0:0:0:0:
216,148,93472,5,0,0:0:0:0:
324,104,93632,1,0,2:0:0:0:
324,104,93712,1,0,2:0:0:0:
324,104,93792,2,0,P|356:144|312:276,1,191.999994140625,4|0,0:0|0:0,0:0:0:0:
244,180,94274,1,2,2:0:0:0:
148,244,94434,2,0,P|116:196|116:152,1,95.9999970703126,2|2,2:0|2:0,0:0:0:0:
182,23,94755,2,0,P|211:60|216:108,1,95.9999970703126,0|2,1:0|2:0,0:0:0:0:
316,164,95076,1,0,0:0:0:0:
428,136,95236,1,2,2:0:0:0:
464,24,95397,2,0,B|408:68|340:0|280:64,1,191.999994140625,0|0,0:0|1:0,0:0:0:0:
208,148,95878,1,0,0:0:0:0:
100,188,96038,1,0,0:0:0:0:
100,188,96119,1,0,0:0:0:0:
100,188,96199,1,0,0:0:0:0:
100,188,96279,1,0,0:0:0:0:
100,188,96359,6,0,P|128:232|164:264,1,95.9999970703126,4|0,0:0|0:0,0:0:0:0:
352,252,96680,2,0,P|324:208|288:176,1,95.9999970703126
116,100,97001,2,0,P|150:67|176:26,1,95.9999970703126,4|2,0:0|2:0,0:0:0:0:
292,48,97322,1,0,0:0:0:0:
248,152,97482,1,2,0:2:0:0:
244,268,97643,2,0,P|283:294|329:310,1,95.9999970703126,4|2,0:0|2:0,0:0:0:0:
348,196,97964,1,0,0:0:0:0:
244,84,98124,1,0,0:0:0:0:
396,100,98284,1,0,0:0:0:0:
192,180,98445,1,2,0:2:0:0:
84,216,98605,6,0,P|76:160|96:116,1,95.9999970703126,4|2,0:0|2:0,0:0:0:0:
60,12,98926,1,4,0:0:0:0:
172,44,99087,1,0,0:0:0:0:
172,44,99167,1,0,0:0:0:0:
172,44,99247,2,0,P|192:96|188:136,1,95.9999970703126
155,155,99488,1,0,0:0:0:0:
135,187,99568,1,0,0:0:0:0:
128,224,99648,1,0,0:0:0:0:
141,259,99728,1,0,0:0:0:0:
169,284,99808,1,0,0:0:0:0:
207,288,99889,1,0,0:2:0:0:
244,281,99969,1,0,0:0:0:0:
272,254,100049,1,0,0:0:0:0:
282,217,100129,1,0,0:0:0:0:
283,178,100210,2,0,P|285:139|288:125,3,47.9999985351563,0|0|0|0,0:0|0:0|0:0|0:0,0:0:0:0:
303,95,100530,5,0,0:0:0:0:
333,71,100611,1,0,0:0:0:0:
371,68,100691,1,0,0:0:0:0:
406,82,100771,1,0,0:0:0:0:
431,110,100851,1,4,0:0:0:0:
442,146,100931,1,0,0:0:0:0:
431,183,101012,1,0,0:0:0:0:
410,215,101092,1,0,0:0:0:0:
413,253,101172,1,0,0:0:0:0:
375,243,101252,1,0,0:0:0:0:
337,233,101333,1,0,0:0:0:0:
298,235,101413,1,0,0:0:0:0:
260,241,101493,6,0,P|218:255|179:299,1,95.9999970703126,0|2,0:0|0:2,0:0:0:0:
128,189,101814,1,0,0:0:0:0:
128,189,101974,1,0,0:0:0:0:
194,95,102135,2,0,P|230:132|234:196,1,95.9999970703126,0|2,0:0|2:0,0:0:0:0:
348,216,102456,1,0,0:0:0:0:
460,189,102616,1,0,0:0:0:0:
470,74,102777,1,2,0:2:0:0:
364,30,102937,1,0,0:0:0:0:
288,117,103097,1,2,0:2:0:0:
220,208,103258,5,2,0:2:0:0:
203,321,103418,1,0,0:0:0:0:
91,343,103578,1,2,0:2:0:0:
36,240,103739,1,0,0:0:0:0:
116,158,103899,1,0,0:0:0:0:
224,120,104060,2,0,P|200:80|156:52,1,95.9999970703126,2|0,0:2|2:0,0:0:0:0:
288,264,104381,2,0,P|312:304|356:332,1,95.9999970703126,2|0,0:2|2:0,0:0:0:0:
392,224,104701,1,0,0:0:0:0:
424,112,104862,1,0,0:0:0:0:
332,40,105022,6,0,P|312:80|320:144,1,95.9999970703126,0|2,0:0|2:0,0:0:0:0:
232,212,105343,2,0,L|156:288,1,95.9999970703126,0|2,0:0|2:0,0:0:0:0:
152,164,105664,2,0,L|228:88,1,95.9999970703126,2|2,2:0|2:0,0:0:0:0:
384,176,105985,2,0,L|308:252,1,95.9999970703126,0|2,0:0|2:0,0:0:0:0:
304,128,106306,2,0,L|380:52,1,95.9999970703126,2|0,2:0|1:0,0:0:0:0:
400,80,106546,1,0,0:0:0:0:
424,104,106627,2,0,P|460:140|404:256,1,191.999994140625
304,216,107108,1,2,2:0:0:0:
192,240,107268,2,0,P|144:204|96:192,1,95.9999970703126,0|0,0:0|1:0,0:0:0:0:
96,164,107509,1,0,0:0:0:0:
100,132,107589,1,0,0:0:0:0:
208,88,107750,1,0,0:0:0:0:
256,192,107910,12,0,109033,0:0:0:0:
256,192,109193,12,0,111119,0:0:0:0:
124,80,111280,5,0,0:0:0:0:
124,80,111360,1,0,0:0:0:0:
124,80,111440,1,0,0:0:0:0:
246,239,111761,1,4,0:0:0:0:
272,264,111841,1,0,0:0:0:0:
308,274,111921,1,0,0:0:0:0:
343,268,112001,1,0,0:0:0:0:
373,247,112081,1,0,0:0:0:0:
389,214,112162,1,0,0:0:0:0:
390,178,112242,1,0,0:0:0:0:
374,145,112322,1,0,0:0:0:0:
344,122,112403,1,4,0:0:0:0:
308,116,112483,5,0,0:0:0:0:
272,126,112563,1,0,0:0:0:0:
242,148,112644,1,0,0:0:0:0:
235,184,112724,1,0,0:0:0:0:
229,220,112804,1,0,0:0:0:0:
207,249,112884,1,0,0:0:0:0:
171,258,112965,1,0,0:0:0:0:
134,257,113045,1,4,0:0:0:0:
105,236,113125,1,0,0:0:0:0:
92,201,113205,1,0,0:0:0:0:
101,166,113285,1,0,0:0:0:0:
127,140,113366,1,0,0:0:0:0:
162,131,113446,1,0,0:0:0:0:
198,132,113526,1,0,0:0:0:0:
234,141,113606,1,0,0:0:0:0:
265,160,113686,5,4,0:0:0:0:
291,185,113767,1,4,0:0:0:0:
318,210,113847,1,4,0:0:0:0:
347,231,113927,1,4,0:0:0:0:
386,246,114006,2,0,P|410:249|434:242,3,47.9999985351563
463,205,114327,1,4,0:0:0:0:
466,157,114407,1,0,0:0:0:0:
444,113,114488,1,0,0:0:0:0:
404,86,114568,1,0,0:0:0:0:
357,75,114648,1,0,0:0:0:0:
310,84,114728,1,0,0:0:0:0:
278,120,114808,1,0,0:0:0:0:
281,168,114889,1,0,0:0:0:0:
279,215,114969,1,0,0:0:0:0:
253,255,115049,1,0,0:0:0:0:
211,279,115129,1,0,0:0:0:0:
163,270,115210,1,0,0:0:0:0:
140,227,115290,6,0,L|119:177,3,47.9999985351563
108,135,115611,2,0,L|129:79,3,47.9999985351563
164,63,115931,2,0,L|219:55,3,47.9999985351563
233,74,116252,1,0,0:0:0:0:
242,79,116332,1,0,0:0:0:0:
251,85,116412,1,0,0:0:0:0:
261,91,116492,1,0,0:0:0:0:
270,97,116572,1,0,0:0:0:0:
279,103,116653,1,0,0:0:0:0:
289,108,116733,1,0,0:0:0:0:
298,114,116813,1,0,0:0:0:0:
308,120,116894,2,0,L|228:197,1,95.9999970703126
76,216,117215,2,0,L|156:139,1,95.9999970703126
339,209,117536,5,0,0:0:0:0:
353,196,117616,1,0,0:0:0:0:
363,179,117696,1,0,0:0:0:0:
371,161,117776,1,0,0:0:0:0:
372,141,117857,1,0,0:0:0:0:
364,123,117937,1,0,0:0:0:0:
353,107,118017,1,0,0:0:0:0:
347,88,118097,1,0,0:0:0:0:
348,68,118177,5,4,0:0:0:0:
314,74,118258,1,0,0:0:0:0:
280,79,118338,1,0,0:0:0:0:
246,80,118418,1,0,0:0:0:0:
212,79,118498,1,0,0:0:0:0:
178,74,118578,1,0,0:0:0:0:
144,67,118659,1,0,0:0:0:0:
112,54,118739,1,0,0:0:0:0:
86,32,118819,5,4,0:0:0:0:
91,79,118899,1,0,0:0:0:0:
104,125,118980,1,0,0:0:0:0:
136,160,119060,1,0,0:0:0:0:
177,184,119140,1,0,0:0:0:0:
222,199,119220,1,0,0:0:0:0:
269,199,119300,1,0,0:0:0:0:
312,178,119381,1,0,0:0:0:0:
350,158,119461,2,0,P|368:140|388:105,3,47.9999985351563,0|0|0|0,0:0|0:0|0:0|0:0,0:0:0:0:
396,74,119782,2,0,P|399:49|391:9,3,47.9999985351563,0|0|0|0,0:0|0:0|0:0|0:0,0:0:0:0:
414,49,120103,5,0,0:0:0:0:
423,76,120183,1,0,0:0:0:0:
434,102,120263,1,0,0:0:0:0:
448,126,120343,1,0,0:0:0:0:
464,149,120423,1,0,0:0:0:0:
483,170,120504,1,0,0:0:0:0:
506,185,120584,1,0,0:0:0:0:
506,213,120664,1,0,0:0:0:0:
484,225,120744,5,4,0:0:0:0:
441,234,120824,1,0,0:0:0:0:
397,233,120905,1,0,0:0:0:0:
359,211,120985,1,0,0:0:0:0:
342,171,121065,1,0,0:0:0:0:
347,128,121145,1,0,0:0:0:0:
333,86,121226,1,0,0:0:0:0:
300,58,121306,1,0,0:0:0:0:
257,51,121386,1,0,0:0:0:0:
217,66,121466,1,0,0:0:0:0:
189,99,121546,1,0,0:0:0:0:
181,141,121627,1,0,0:0:0:0:
196,182,121707,1,0,0:0:0:0:
229,210,121787,1,0,0:0:0:0:
272,217,121867,1,0,0:0:0:0:
312,202,121947,1,0,0:0:0:0:
340,169,122028,1,4,0:0:0:0:
344,126,122108,5,0,0:0:0:0:
351,153,122188,1,0,0:0:0:0:
354,181,122268,1,0,0:0:0:0:
359,216,122349,2,0,P|330:263|321:286,1,60.0000022888184,4|0,0:0|0:0,0:0:0:0:
269,309,122669,2,0,P|222:280|199:271,1,60.0000022888184,4|0,0:0|0:0,0:0:0:0:
148,297,122990,5,0,0:0:0:0:
148,297,123311,2,0,P|128:228|132:157,1,120.000004577637
202,56,123953,1,2,2:0:0:0:
250,108,124113,1,0,2:0:0:0:
315,77,124274,1,2,2:0:0:0:
316,328,124595,2,0,P|248:316|144:196,1,207.999990478516
108,80,125076,1,2,2:0:0:0:
224,164,125236,1,0,0:0:0:0:
224,164,125316,1,0,0:0:0:0:
224,164,125397,1,0,0:0:0:0:
356,100,125557,6,0,P|384:156|372:208,1,103.999995239258,0|2,0:0|2:0,0:0:0:0:
156,284,125878,2,0,P|128:228|140:176,1,103.999995239258,0|2,0:0|2:0,0:0:0:0:
208,64,126199,2,0,L|96:80,1,103.999995239258
44,212,126520,2,0,P|108:200|252:256,1,207.999990478516
364,168,127001,1,0,0:0:0:0:
364,136,127081,1,0,0:0:0:0:
364,104,127161,2,0,P|270:61|167:70,1,207.999990478516
108,204,127643,1,2,2:0:0:0:
100,348,127803,2,0,L|208:312,1,103.999995239258
412,232,128124,2,0,L|304:268,1,103.999995239258
100,232,128445,6,0,L|208:268,1,103.999995239258,0|4,0:0|0:0,0:0:0:0:
313,315,128766,2,0,L|412:348,2,103.999995239258,0|2|0,0:0|2:0|0:0,0:0:0:0:
256,180,129247,1,0,0:0:0:0:
164,68,129407,1,0,0:0:0:0:
348,68,129568,1,0,0:0:0:0:
348,212,129728,5,4,0:0:0:0:
256,100,129889,1,0,0:0:0:0:
256,100,129969,1,0,0:0:0:0:
256,100,130049,1,0,0:0:0:0:
164,212,130210,1,0,0:0:0:0:
296,268,130370,2,0,P|328:296|388:304,1,103.999995239258,4|0,0:0|0:0,0:0:0:0:
404,292,130611,1,0,0:0:0:0:
416,276,130691,1,0,0:0:0:0:
256,176,130851,1,0,0:0:0:0:
216,268,131012,2,0,P|184:296|124:304,1,103.999995239258,4|0,0:0|0:0,0:0:0:0:
108,292,131252,1,0,0:0:0:0:
96,276,131333,1,0,0:0:0:0:
80,132,131493,5,0,0:0:0:0:
208,56,131653,2,0,P|256:64|312:56,1,103.999995239258,4|0,0:0|0:0,0:0:0:0:
328,72,131894,1,0,0:0:0:0:
344,88,131974,1,0,0:0:0:0:
464,176,132135,1,0,0:0:0:0:
347,280,132295,5,4,0:0:0:0:
164,280,132456,1,4,0:0:0:0:
393,215,132616,1,4,0:0:0:0:
118,215,132776,1,4,0:0:0:0:
256,136,133097,1,4,0:0:0:0:
192,64,133258,1,0,0:0:0:0:
328,64,133418,2,0,B|384:48|424:24|424:24|472:80|344:256,1,359.999989013672,4|0,0:0|0:0,0:0:0:0:
192,272,134381,5,0,0:0:0:0:
72,184,134541,2,0,P|120:144|192:128,1,108.800000664063,0|2,0:0|0:2,0:0:0:0:
304,184,134862,2,0,P|256:224|184:240,1,108.800000664063,0|2,0:0|0:2,0:0:0:0:
96,144,135183,2,0,P|144:104|184:64,1,108.800000664063
416,144,135504,2,0,P|368:104|328:64,1,108.800000664063
256,200,135824,1,0,0:0:0:0:
128,280,135985,1,2,0:2:0:0:
120,128,136145,1,0,0:0:0:0:
248,208,136306,1,2,0:2:0:0:
112,272,136466,1,0,0:0:0:0:
128,120,136627,1,0,0:0:0:0:
272,80,136787,6,0,P|320:104|352:160,1,108.800000664063
240,304,137108,2,0,P|192:280|160:224,1,108.800000664063
184,80,137429,6,0,P|240:64|304:40,1,108.800000664063,0|2,0:0|0:2,0:0:0:0:
240,192,137750,2,0,L|352:192,1,108.800000664063
184,304,138070,2,0,P|240:320|304:344,1,108.800000664063,0|2,0:0|1:2,0:0:0:0:
408,240,138391,1,4,0:0:0:0:
304,128,138552,1,0,0:0:0:0:
456,152,138712,1,0,0:0:0:0:
256,216,138873,1,0,0:0:0:0:
360,320,139033,6,0,L|248:304,1,108.800000664063
252,79,139354,2,0,L|360:64,1,108.800000664063
370,295,139675,2,0,L|280:280,2,54.4000003320313
370,88,139996,2,0,L|262:102,1,108.800000664063
144,192,140316,1,4,0:0:0:0:
144,192,140477,1,4,0:0:0:0:
240,312,140637,2,0,P|288:256|296:208,1,108.800000664063
328,72,140958,5,4,0:0:0:0:
328,72,141038,1,4,0:0:0:0:
328,72,141119,1,4,0:0:0:0:
184,104,141279,2,0,P|104:104|72:128,1,108.800000664063
80,272,141600,1,4,0:0:0:0:
80,272,141680,1,4,0:0:0:0:
80,272,141760,1,4,0:0:0:0:
224,224,141921,2,0,L|336:192,1,108.800000664063
440,88,142242,1,0,0:0:0:0:
288,72,142402,1,0,0:0:0:0:
138,96,142562,5,2,0:2:0:0:
131,122,142643,1,2,0:2:0:0:
123,148,142723,1,2,0:2:0:0:
118,174,142803,1,2,0:2:0:0:
115,201,142883,1,2,0:2:0:0:
141,228,142964,5,0,0:0:0:0:
167,254,143044,1,0,0:0:0:0:
202,266,143124,1,0,0:0:0:0:
239,269,143204,1,2,0:2:0:0:
276,260,143284,1,0,0:0:0:0:
309,241,143365,1,0,0:0:0:0:
346,234,143445,1,0,0:0:0:0:
383,233,143525,1,2,0:2:0:0:
374,184,143605,5,0,0:0:0:0:
375,135,143685,1,0,0:0:0:0:
384,86,143766,1,0,0:0:0:0:
408,43,143846,1,2,0:2:0:0:
446,73,143926,1,0,0:0:0:0:
464,118,144006,1,0,0:0:0:0:
474,166,144087,1,0,0:0:0:0:
479,214,144167,1,2,0:2:0:0:
469,239,144247,5,0,0:0:0:0:
459,264,144327,1,0,0:0:0:0:
449,289,144407,1,0,0:0:0:0:
439,314,144488,2,0,P|370:325|325:319,2,108.800000664063
256,80,145129,2,0,B|216:112|112:104|112:104|128:160,1,191.999994140625,2|4,0:2|0:0,0:0:0:0:
171,229,146092,1,0,0:0:0:0:
264,252,146413,2,4,B|314:233|366:251|366:251|353:181|359:151,1,191.999994140625,4|0,0:0|0:0,0:0:0:0:
308,77,147375,5,0,0:0:0:0:
212,17,147536,1,0,0:0:0:0:
142,104,147696,2,0,P|124:147|127:189,1,80,4|0,0:0|0:0,0:0:0:0:
226,227,148017,1,0,0:0:0:0:
132,288,148177,1,0,0:0:0:0:
233,336,148338,2,0,P|297:324|337:331,1,80,4|0,0:0|0:0,0:0:0:0:
404,262,148659,1,0,0:0:0:0:
448,159,148819,1,0,0:0:0:0:
388,63,148980,2,0,P|338:41|297:33,1,80,4|0,0:0|0:0,0:0:0:0:
212,81,149300,5,0,0:0:0:0:
212,81,149461,1,0,0:0:0:0:
203,192,149621,2,0,P|238:216|290:224,1,80,4|0,0:0|0:0,0:0:0:0:
359,151,149942,1,0,0:0:0:0:
296,312,150263,5,0,0:0:0:0:
256,192,150423,12,0,151386,0:0:0:0:
344,248,151546,5,0,0:0:0:0:
256,192,151707,12,4,152830,0:0:0:0:
166,75,152990,5,0,0:0:0:0:
88,200,153151,2,0,P|128:248|128:280,1,80
52,271,153472,1,0,0:0:0:0:
194,200,153632,1,0,0:0:0:0:
185,359,153792,1,0,0:0:0:0:
312,192,153953,5,0,0:0:0:0:
456,120,154113,2,0,P|416:80|360:64,1,80,4|0,0:0|0:0,0:0:0:0:
232,72,154434,1,0,0:0:0:0:
392,48,154595,1,0,0:0:0:0:
384,208,154755,2,0,P|384:264|400:288,1,80
240,328,155076,1,0,0:0:0:0:
222,318,155156,1,0,0:0:0:0:
209,302,155236,1,0,0:0:0:0:
93,190,155397,2,0,P|137:177|225:95,1,160,4|0,0:0|0:0,0:0:0:0:
290,247,155878,1,0,0:0:0:0:
416,149,156038,2,0,P|429:105|511:17,2,160,0|0|4,0:0|0:0|0:0,0:0:0:0:
136,120,157322,6,0,P|104:192|80:280,2,160,0|0|4,0:0|0:0|0:0,0:0:0:0:
295,139,158124,1,0,0:0:0:0:
138,170,158284,1,0,0:0:0:0:
297,190,158445,1,0,0:0:0:0:
140,222,158605,2,0,P|144:273|139:308,1,80,4|0,0:0|0:0,0:0:0:0:
292,95,158926,2,0,P|288:44|293:9,1,80
56,104,159247,5,4,0:0:0:0:
56,280,159407,1,0,0:0:0:0:
240,336,159568,2,0,P|280:320|320:280,1,80
448,192,159889,2,0,L|360:192,1,80,0|2,0:0|2:0,0:0:0:0:
240,48,160210,2,0,P|277:62|307:87,1,80,0|0,0:0|2:0,0:0:0:0:
424,192,160530,5,0,0:0:0:0:
88,192,160851,1,0,0:0:0:0:
256,32,161172,1,0,0:0:0:0:
256,352,161493,1,0,0:0:0:0:
256,192,161653,1,0,0:0:0:0:
256,192,161734,1,0,0:0:0:0:
256,192,161814,1,0,0:0:0:0:
360,104,161974,5,0,0:0:0:0:
360,104,162054,1,0,0:0:0:0:
360,104,162135,1,0,0:0:0:0:
152,280,162456,1,0,0:0:0:0:
144,104,162776,1,0,0:0:0:0:
144,104,162857,1,0,0:0:0:0:
144,104,162937,1,0,0:0:0:0:
144,104,163017,1,0,0:0:0:0:
144,104,163097,2,0,B|176:144|256:120|256:120|344:144|370:110,1,240
256,248,164060,5,0,0:0:0:0:
256,256,164381,5,0,0:0:0:0:
256,260,164461,1,0,0:0:0:0:
256,264,164541,1,0,0:0:0:0:
256,268,164621,1,0,0:0:0:0:
256,272,164701,1,0,0:0:0:0:
256,276,164782,1,0,0:0:0:0:
256,280,164862,1,0,0:0:0:0:
256,284,164942,1,0,0:0:0:0:
256,288,165022,1,0,0:0:0:0:
256,292,165103,1,0,0:0:0:0:
256,296,165183,1,0,0:0:0:0:
256,300,165263,1,0,0:0:0:0:
256,304,165343,2,0,P|228:336|148:352,1,120.000004577637,4|0,0:0|0:0,0:0:0:0:
160,241,165664,5,4,0:0:0:0:
160,60,165824,1,0,0:0:0:0:
315,151,165985,1,0,0:0:0:0:
352,241,166145,5,4,0:0:0:0:
352,60,166305,1,0,0:0:0:0:
197,151,166466,1,0,0:0:0:0:
256,304,166627,5,4,0:0:0:0:
256,72,166787,1,0,0:0:0:0:
47,158,166947,5,4,0:0:0:0:
57,338,167108,1,0,0:0:0:0:
208,240,167268,1,0,0:0:0:0:
465,226,167429,1,4,0:0:0:0:
455,46,167590,1,0,0:0:0:0:
304,144,167750,1,0,0:0:0:0:
256,192,167910,5,4,0:0:0:0:
256,192,168070,1,0,0:0:0:0:
344,280,168231,1,4,0:0:0:0:
167,103,168391,1,0,0:0:0:0:
256,317,168552,1,0,0:0:0:0:
256,66,168712,1,4,0:0:0:0:
167,280,168873,1,0,0:0:0:0:
344,103,169033,1,0,0:0:0:0:
130,191,169193,1,4,0:0:0:0:
381,192,169354,1,0,0:0:0:0:
130,191,169514,5,4,0:0:0:0:
130,191,169675,1,0,0:0:0:0:
381,192,169835,1,0,0:0:0:0:
128,104,169996,1,4,0:0:0:0:
384,104,170156,1,0,0:0:0:0:
384,104,170316,1,0,0:0:0:0:
192,280,170477,5,4,0:0:0:0:
256,192,170497,12,0,171099,0:0:0:0:
336,120,171119,5,4,0:0:0:0:
256,192,171139,12,0,171740,0:0:0:0:
40,128,171760,5,4,0:0:0:0:
256,192,171780,12,0,172382,0:0:0:0:
368,160,172402,5,4,0:0:0:0:
304,288,172562,2,0,P|240:248|72:280,1,240.000009155274
144,160,173044,5,4,0:0:0:0:
208,288,173204,2,0,P|272:248|440:280,1,240.000009155274
256,184,173846,1,0,0:0:0:0:
408,72,174006,6,0,L|368:200,1,120.000004577637
104,312,174327,2,0,L|144:184,1,120.000004577637
272,56,174648,5,4,0:0:0:0:
287,81,174728,1,0,0:0:0:0:
297,108,174808,1,0,0:0:0:0:
306,136,174889,1,0,0:0:0:0:
310,165,174969,1,0,0:0:0:0:
269,155,175049,5,0,0:0:0:0:
227,150,175129,1,0,0:0:0:0:
184,154,175210,1,0,0:0:0:0:
155,184,175290,2,0,P|177:219|204:241,1,60.0000022888184
354,282,175450,2,0,P|332:247|305:225,1,60.0000022888184
124,82,175611,2,0,P|163:71|198:73,1,60.0000022888184
451,183,175771,2,0,P|411:193|376:191,1,60.0000022888184
371,205,175931,5,0,0:0:0:0:
348,215,176012,1,0,0:0:0:0:
326,225,176092,1,0,0:0:0:0:
303,234,176172,1,0,0:0:0:0:
280,243,176252,2,0,P|205:252|143:235,1,120.000004577637,4|0,0:0|0:0,0:0:0:0:
297,89,176573,2,0,P|372:80|434:97,1,120.000004577637
222,159,176894,2,0,P|213:84|230:22,1,120.000004577637,4|0,0:0|0:0,0:0:0:0:
376,176,177215,2,0,P|385:251|368:313,1,120.000004577637
136,293,177536,2,0,P|126:234|136:176,1,120.000004577637
352,128,177857,6,0,P|361:186|352:245,1,120.000004577637,4|0,0:0|0:0,0:0:0:0:
168,336,178177,2,0,P|109:345|50:336,1,120.000004577637,4|0,0:0|0:0,0:0:0:0:
50,47,178498,1,0,0:0:0:0:
50,47,178578,1,0,0:0:0:0:
50,47,178659,1,0,0:0:0:0:
168,216,178819,1,0,0:0:0:0:
264,40,178980,1,0,0:0:0:0:
176,40,179140,2,0,P|200:104|248:128,1,120.000004577637,4|0,0:0|0:0,0:0:0:0:
448,128,179461,2,0,P|424:192|376:216,1,120.000004577637
184,160,179782,5,0,0:0:0:0:
200,168,179862,1,0,0:0:0:0:
216,176,179942,1,0,0:0:0:0:
400,264,180103,1,0,0:0:0:0:
336,320,180263,2,0,P|352:192|464:216,1,240.000009155274,4|0,0:0|0:0,0:0:0:0:
416,88,181065,5,0,0:0:0:0:
393,107,181145,1,0,0:0:0:0:
365,120,181226,1,0,0:0:0:0:
335,123,181306,1,0,0:0:0:0:
305,117,181386,2,0,P|303:87|318:61,2,60.0000022888184,0|0|0,0:0|0:0|0:0,0:0:0:0:
106,113,181707,2,0,L|52:84,2,60.0000022888184,0|0|0,0:0|0:0|0:0,0:0:0:0:
102,152,181947,1,0,0:0:0:0:
106,182,182028,6,0,P|129:240|174:273,1,120.000004577637
255,197,182349,1,0,0:0:0:0:
255,197,182429,1,0,0:0:0:0:
255,197,182509,1,0,0:0:0:0:
322,331,182669,1,0,0:0:0:0:
349,318,182750,1,0,0:0:0:0:
371,297,182830,1,0,0:0:0:0:
380,268,182910,1,0,0:0:0:0:
386,238,182990,6,0,P|416:226|463:226,2,60.0000022888184,2|2|2,0:2|0:2|0:2,0:0:0:0:
152,133,183311,2,0,P|122:121|75:121,2,60.0000022888184,2|2|2,0:2|0:2|0:2,0:0:0:0:
272,68,183632,1,0,0:0:0:0:
301,61,183712,1,0,0:0:0:0:
330,65,183792,1,0,0:0:0:0:
358,77,183872,1,0,0:0:0:0:
380,97,183952,1,4,0:0:0:0:
394,123,184033,1,0,0:0:0:0:
400,152,184113,1,0,0:0:0:0:
397,182,184193,1,0,0:0:0:0:
384,209,184273,1,4,0:0:0:0:
359,225,184354,5,0,0:0:0:0:
329,229,184434,1,0,0:0:0:0:
299,222,184514,1,0,0:0:0:0:
271,208,184595,1,4,0:0:0:0:
248,188,184675,1,0,0:0:0:0:
223,170,184755,1,0,0:0:0:0:
196,156,184835,1,0,0:0:0:0:
166,153,184915,2,0,P|135:153|98:164,1,60.0000022888184,2|0,0:2|0:2,0:0:0:0:
57,276,185076,2,0,P|88:276|125:265,1,60.0000022888184,4|0,0:0|0:0,0:0:0:0:
351,162,185236,6,0,P|320:162|283:173,1,60.0000022888184,2|0,0:2|0:0,0:0:0:0:
242,285,185397,2,0,P|273:285|310:274,1,60.0000022888184,4|0,0:0|0:0,0:0:0:0:
449,54,185557,6,0,P|414:68|379:98,1,60.0000022888184,4|0,0:0|0:0,0:0:0:0:
386,240,185718,2,0,P|420:225|455:195,1,60.0000022888184,4|0,0:0|0:0,0:0:0:0:
236,71,185878,2,0,B|178:56|117:86|117:86|58:135|102:207,1,240.000009155274,2|0,0:2|0:0,0:0:0:0:
224,200,186359,1,0,0:0:0:0:
288,312,186520,2,0,P|344:288|424:288,1,120.000004577637,0|2,0:0|2:2,0:0:0:0:
400,152,186841,2,0,P|304:136|136:128,1,240.000009155274
88,240,187322,1,0,0:0:0:0:
109,99,187482,2,0,P|169:95|224:72,1,120.000004577637,0|2,0:0|2:2,0:0:0:0:
402,99,187803,2,0,P|342:95|288:72,1,120.000004577637,0|2,0:0|2:2,0:0:0:0:
256,200,188124,5,0,0:0:0:0:
256,200,188204,1,0,0:0:0:0:
256,200,188284,1,0,0:0:0:0:
152,288,188445,1,0,0:0:0:0:
360,96,188605,1,0,0:0:0:0:
360,96,188685,1,0,0:0:0:0:
360,96,188766,2,0,P|400:144|400:216,1,120.000004577637,0|2,0:0|2:0,0:0:0:0:
152,288,189087,2,0,P|112:240|112:168,1,120.000004577637,0|2,0:0|2:0,0:0:0:0:
200,88,189407,1,0,0:0:0:0:
200,88,189568,5,0,0:0:0:0:
320,144,189728,2,0,P|344:208|376:256,1,120.000004577637,0|2,0:0|0:2,0:0:0:0:
192,144,190049,2,0,P|168:208|136:256,1,120.000004577637,0|2,0:0|0:2,0:0:0:0:
320,240,190370,2,0,P|344:176|376:128,1,120.000004577637,0|2,0:0|0:2,0:0:0:0:
256,64,190691,2,0,L|256:320,2,240.000009155274,4|0|4,0:0|0:0|0:0,0:0:0:0:
144,136,191493,1,0,0:0:0:0:
144,136,191573,1,0,0:0:0:0:
144,136,191653,1,0,0:0:0:0:
368,136,191814,1,0,0:0:0:0:
320,256,191974,5,4,0:0:0:0:
192,256,192135,1,0,0:0:0:0:
192,256,192215,1,0,0:0:0:0:
192,256,192295,1,0,0:0:0:0:
256,136,192456,1,0,0:0:0:0:
168,32,192616,1,4,0:0:0:0:
344,32,192776,1,0,0:0:0:0:
344,32,192857,1,0,0:0:0:0:
344,32,192937,1,0,0:0:0:0:
376,160,193097,5,0,0:0:0:0:
256,224,193258,1,4,0:0:0:0:
136,160,193418,1,0,0:0:0:0:
136,160,193498,1,0,0:0:0:0:
136,160,193578,1,0,0:0:0:0:
174,300,193739,5,0,0:0:0:0:
258,56,193899,1,4,0:0:0:0:
333,302,194060,1,4,0:0:0:0:
127,147,194220,1,4,0:0:0:0:
385,152,194381,1,4,0:0:0:0:
256,192,194701,5,0,0:0:0:0:
256,192,194862,1,0,0:0:0:0:
256,192,194942,1,0,0:0:0:0:
256,192,195022,1,0,0:0:0:0:
127,147,195183,2,0,L|80:264,1,120.000004577637,0|2,0:0|2:2,0:0:0:0:
384,152,195504,2,0,L|431:35,1,120.000004577637,0|2,0:0|2:2,0:0:0:0:
144,216,195824,1,0,0:0:0:0:
256,96,195985,1,0,0:0:0:0:
368,216,196145,1,0,0:0:0:0:
256,256,196466,6,0,P|208:248|128:256,1,120.000004577637,0|2,0:0|0:2,0:0:0:0:
352,120,196787,2,0,P|400:128|480:120,1,120.000004577637
352,256,197108,2,0,P|400:248|480:256,1,120.000004577637,0|2,0:0|0:2,0:0:0:0:
256,120,197429,2,0,P|208:128|128:120,1,120.000004577637
40,320,197750,5,4,0:0:0:0:
64,184,197910,1,0,0:0:0:0:
176,344,198070,1,0,0:0:0:0:
200,208,198231,1,0,0:0:0:0:
336,344,198391,5,4,0:0:0:0:
312,208,198551,1,0,0:0:0:0:
472,320,198711,1,0,0:0:0:0:
448,184,198872,1,0,0:0:0:0:
448,184,198953,1,0,0:0:0:0:
448,184,199033,2,0,P|408:136|384:80,1,120.000004577637,4|2,0:0|0:2,0:0:0:0:
126,83,199354,2,0,P|102:138|64:184,1,120.000004577637,0|2,0:0|0:2,0:0:0:0:
385,300,199675,2,0,P|409:245|448:199,1,120.000004577637,0|2,0:0|0:2,0:0:0:0:
303,144,199996,5,0,0:0:0:0:
208,239,200156,1,0,0:0:0:0:
256,72,200316,1,0,0:0:0:0:
256,312,200477,1,0,0:0:0:0:
256,72,200637,2,0,P|312:56|376:64,1,120.000004577637,0|2,0:0|0:2,0:0:0:0:
176,160,200958,2,0,P|120:176|56:168,1,120.000004577637,0|0,0:0|0:0,0:0:0:0:
168,272,201279,5,0,0:0:0:0:
152,288,201359,1,0,0:0:0:0:
136,304,201439,1,0,0:0:0:0:
336,248,201600,2,0,B|400:208|376:152|376:152|312:96|344:40,1,240.000009155274,4|0,0:0|0:0,0:0:0:0:
256,184,202081,1,0,0:0:0:0:
176,248,202242,2,0,B|112:208|136:152|136:152|200:96|168:40,1,240.000009155274,4|0,0:0|0:0,0:0:0:0:
256,168,202723,5,0,0:0:0:0:
344,200,202883,2,0,B|368:160|352:112|352:112|400:80|448:104|448:104|480:80|480:56,1,240.000009155274,4|0,0:0|0:0,0:0:0:0:
256,152,203365,1,0,0:0:0:0:
168,200,203525,2,0,B|144:160|160:112|160:112|112:80|64:104|64:104|32:80|32:56,1,240.000009155274,4|0,0:0|0:0,0:0:0:0:
256,136,204006,5,0,0:0:0:0:
322,227,204167,1,0,0:0:0:0:
149,101,204327,1,0,0:0:0:0:
362,101,204488,1,0,0:0:0:0:
190,227,204648,1,0,0:0:0:0:
256,24,204969,1,0,0:0:0:0:
256,32,205290,1,0,0:0:0:0:
256,56,205450,5,4,0:0:0:0:
259,85,205530,1,0,0:0:0:0:
272,112,205611,1,0,0:0:0:0:
292,133,205691,1,0,0:0:0:0:
317,148,205771,1,0,0:0:0:0:
340,165,205851,1,0,0:0:0:0:
360,186,205931,1,0,0:0:0:0:
374,212,206012,1,0,0:0:0:0:
381,240,206092,2,0,P|331:285|264:288,1,120.000004577637,4|0,0:0|0:0,0:0:0:0:
201,235,206413,6,0,P|151:204|92:207,2,120.000004577637,0|0|4,0:0|0:0|0:0,0:0:0:0:
280,296,206894,1,0,0:0:0:0:
376,256,207054,2,0,P|383:197|356:144,1,120.000004577637,0|0,0:0|0:0,0:0:0:0:
136,128,207375,2,0,P|128:186|155:239,1,120.000004577637,0|0,0:0|0:0,0:0:0:0:
256,56,207696,5,0,0:0:0:0:
256,80,208017,2,0,L|256:328,1,240.000009155274,0|4,0:0|0:0,0:0:0:0:
171,256,208659,1,0,0:0:0:0:
353,192,208819,1,2,0:2:0:0:
139,127,208980,1,0,0:0:0:0:
385,75,209140,1,0,0:0:0:0:
464,200,209300,6,0,B|392:232|344:272|344:272|304:208|352:128,1,280.000002670288
256,40,209782,1,2,0:2:0:0:
166,139,209942,2,0,B|208:208|168:272|168:272|120:232|48:200,1,280.000002670288
256,312,210423,1,2,0:2:0:0:
360,280,210584,2,0,P|258:199|160:284,1,280.000002670288,0|0,0:0|0:0,0:0:0:0:
80,152,211065,1,4,0:0:0:0:
192,88,211226,1,2,0:2:0:0:
320,88,211386,1,4,0:0:0:0:
432,152,211546,1,0,0:0:0:0:
328,232,211707,5,0,0:0:0:0:
328,232,211787,1,0,0:0:0:0:
328,232,211867,1,0,0:0:0:0:
120,96,212188,1,4,0:0:0:0:
392,96,212349,1,0,0:0:0:0:
72,280,212669,5,4,0:0:0:0:
160,328,213151,5,0,0:0:0:0:
416,184,213472,2,0,L|288:256,1,140.000001335144
120,96,213953,1,0,0:0:0:0:
143,80,214033,1,0,0:0:0:0:
169,72,214113,1,0,0:0:0:0:
196,73,214193,1,0,0:0:0:0:
223,78,214274,1,0,0:0:0:0:
249,86,214354,1,0,0:0:0:0:
276,90,214434,1,4,0:0:0:0:
382,53,214595,5,4,0:0:0:0:
336,320,214915,5,4,0:0:0:0:
80,248,215076,1,4,0:0:0:0:
384,248,215397,5,4,0:0:0:0:
128,176,215558,1,4,0:0:0:0:
176,104,215718,5,0,0:0:0:0:
195,123,215798,1,0,0:0:0:0:
214,142,215878,1,0,0:0:0:0:
233,161,215958,1,0,0:0:0:0:
252,180,216038,2,0,L|316:137,1,70.000000667572
379,235,216199,2,0,L|315:278,1,70.000000667572
213,315,216359,2,0,L|170:251,1,70.000000667572
133,149,216520,2,0,L|197:106,1,70.000000667572
299,69,216680,2,0,L|342:133,1,70.000000667572
363,114,216841,5,0,0:0:0:0:
389,106,216921,1,0,0:0:0:0:
416,110,217001,2,0,P|425:189|381:276,1,160,4|2,0:0|0:2,0:0:0:0:
96,274,217322,2,0,P|87:195|131:108,1,160,0|2,0:0|0:2,0:0:0:0:
439,75,217643,2,0,P|448:154|404:241,1,160,0|2,0:0|0:2,0:0:0:0:
73,309,217964,2,0,P|64:230|108:143,1,160,0|2,0:0|0:2,0:0:0:0:
122,140,218204,1,2,0:2:0:0:
151,127,218284,2,0,P|227:105|282:48,1,160,4|2,0:0|0:2,0:0:0:0:
361,257,218605,2,0,P|284:278|229:335,1,160,0|2,0:0|0:2,0:0:0:0:
321,87,218926,2,0,P|342:163|399:218,1,160,0|2,0:0|0:2,0:0:0:0:
191,297,219247,2,0,P|169:220|112:165,1,160,0|2,0:0|0:2,0:0:0:0:
92,190,219488,5,2,0:2:0:0:
78,219,219568,2,0,B|136:277|136:277|216:258,1,160,4|2,0:0|0:2,0:0:0:0:
376,163,219889,2,0,B|321:108|321:108|240:126,1,160,0|2,0:0|0:2,0:0:0:0:
327,292,220210,2,0,B|381:346|381:346|462:328,1,160,0|2,0:0|0:2,0:0:0:0:
376,40,220530,6,0,B|336:64|296:104|296:104|352:112|360:160,1,160,0|2,0:0|0:2,0:0:0:0:
372,146,220771,1,2,0:2:0:0:
401,159,220851,2,0,B|441:183|481:223|481:223|425:231|417:279,1,160,0|2,0:0|0:2,0:0:0:0:
192,264,221172,2,0,P|144:280|64:352,1,160,0|2,0:0|0:2,0:0:0:0:
48,192,221493,2,0,L|208:192,1,160
312,192,221814,1,0,0:0:0:0:
328,192,221894,1,0,0:0:0:0:
344,192,221974,1,0,0:0:0:0:
192,120,222135,2,0,P|144:104|64:32,1,160,4|2,0:0|0:2,0:0:0:0:
320,264,222456,2,0,P|368:280|448:352,1,160,0|2,0:0|0:2,0:0:0:0:
192,264,222776,2,0,P|144:280|64:352,1,160,0|2,0:0|0:2,0:0:0:0:
320,192,223097,6,0,P|336:128|288:48,1,160,0|2,0:0|0:2,0:0:0:0:
256,48,223338,1,2,0:2:0:0:
220,50,223418,2,0,P|177:115|192:192,1,160,4|0,0:0|0:0,0:0:0:0:
291,333,223739,2,0,P|334:268|320:192,1,160,0|2,0:0|0:2,0:0:0:0:
220,333,224060,2,0,P|177:268|192:192,1,160,4|0,0:0|0:0,0:0:0:0:
256,120,224381,6,0,P|216:104|96:168,1,160
192,200,224701,1,0,0:0:0:0:
320,200,224862,1,0,0:0:0:0:
176,240,225022,1,0,0:0:0:0:
337,240,225183,1,0,0:0:0:0:
256,320,225343,5,0,0:0:0:0:
225,329,225423,1,0,0:0:0:0:
192,330,225504,1,0,0:0:0:0:
160,322,225584,1,0,0:0:0:0:
133,303,225664,1,4,1:0:0:0:
114,277,225744,1,0,0:0:0:0:
111,245,225824,1,0,0:0:0:0:
123,215,225905,1,0,0:0:0:0:
128,183,225985,5,4,1:0:0:0:
167,183,226065,1,4,1:0:0:0:
206,176,226145,1,4,1:0:0:0:
244,162,226226,1,4,1:0:0:0:
279,144,226306,1,4,1:0:0:0:
310,119,226386,1,4,1:0:0:0:
343,96,226466,1,4,1:0:0:0:
378,78,226546,1,4,1:0:0:0:
416,64,226627,2,0,P|420:121|486:201,1,160,4|0,1:0|1:0,0:0:0:0:
463,222,227349,5,0,0:0:0:0:
442,244,227429,1,0,0:0:0:0:
415,257,227509,1,0,0:0:0:0:
385,262,227589,2,0,P|352:269|314:289,3,60.0000022888184,0|0|0|0,0:0|0:0|0:0|0:0,0:0:0:0:
301,293,227910,2,0,P|252:316|214:317,3,60.0000022888184,0|0|0|0,0:0|0:0|0:0|0:0,0:0:0:0:
217,307,228231,1,0,0:0:0:0:
189,295,228311,1,0,0:0:0:0:
169,272,228391,1,0,0:0:0:0:
160,242,228472,1,0,0:0:0:0:
166,212,228552,6,0,P|178:173|176:133,3,60.0000022888184,0|0|0|0,0:0|0:0|0:0|0:0,0:0:0:0:
171,124,228873,2,0,P|169:77|186:45,3,60.0000022888184,0|0|0|0,0:0|0:0|0:0|0:0,0:0:0:0:
197,47,229193,1,0,0:0:0:0:
225,36,229274,1,0,0:0:0:0:
254,40,229354,1,0,0:0:0:0:
280,53,229434,1,0,0:0:0:0:
299,75,229514,1,0,0:0:0:0:
315,100,229595,1,0,0:0:0:0:
337,120,229675,1,0,0:0:0:0:
364,132,229755,1,0,0:0:0:0:
393,136,229835,1,0,0:0:0:0:
382,164,229915,1,0,0:0:0:0:
373,193,229996,1,0,0:0:0:0:
370,222,230076,1,0,0:0:0:0:
372,251,230156,1,0,0:0:0:0:
377,280,230236,1,0,0:0:0:0:
386,308,230316,1,0,0:0:0:0:
358,295,230397,1,0,0:0:0:0:
328,290,230477,6,0,L|256:271,1,60.0000022888184,2|0,0:2|0:0,0:0:0:0:
184,94,230637,2,0,L|256:113,1,60.0000022888184,0|0,0:0|0:0,0:0:0:0:
369,234,230798,2,0,L|299:258,1,60.0000022888184,2|0,0:2|0:0,0:0:0:0:
142,149,230958,2,0,L|212:125,1,60.0000022888184,0|0,0:1|0:0,0:0:0:0:
94,241,231119,2,0,L|23:264,1,60.0000022888184,2|0,0:2|0:0,0:0:0:0:
144,64,231279,2,0,L|214:40,1,60.0000022888184,0|0,0:0|0:0,0:0:0:0:
240,128,231439,2,0,L|310:104,1,60.0000022888184,2|0,0:2|0:0,0:0:0:0:
336,192,231600,2,0,L|406:168,1,60.0000022888184,0|0,0:0|0:0,0:0:0:0:
464,40,231760,2,0,L|393:63,1,60.0000022888184,2|0,0:2|0:0,0:0:0:0:
256,192,231921,5,0,0:0:0:0:
184,272,232081,1,0,0:0:0:0:
312,136,232242,1,0,0:0:0:0:
320,128,232322,1,0,0:0:0:0:
328,120,232402,2,0,L|424:104,1,80,2|0,0:2|0:0,0:0:0:0:
192,256,232562,2,0,L|96:272,1,80
362,201,232723,2,0,L|448:298,1,80,2|0,0:2|0:0,0:0:0:0:
112,144,232883,6,0,L|25:46,1,80
200,120,233044,2,0,L|192:32,1,80,2|0,0:2|0:0,0:0:0:0:
296,112,233204,2,0,L|312:16,1,80
400,128,233365,2,0,L|456:40,1,80,2|0,0:2|0:0,0:0:0:0:
240,272,233525,2,0,L|184:360,1,80,0|0,0:0|0:0,0:0:0:0:
342,235,233685,2,0,L|443:212,1,80,2|0,0:2|0:0,0:0:0:0:
128,224,233845,2,0,L|26:246,1,80,0|0,0:0|0:0,0:0:0:0:
200,80,234006,2,0,L|301:57,1,80,2|0,0:2|0:0,0:0:0:0:
512,176,234167,2,0,L|410:198,1,80,0|0,0:2|0:0,0:0:0:0:
443,229,234327,1,0,0:0:0:0:
419,260,234407,1,0,0:0:0:0:
379,268,234488,1,0,0:0:0:0:
339,275,234568,1,0,0:0:0:0:
301,289,234648,1,4,0:0:0:0:
265,307,234728,1,0,0:0:0:0:
226,317,234808,1,0,0:0:0:0:
185,320,234889,1,0,0:0:0:0:
144,304,234969,6,0,P|176:264|184:224,1,80,2|0,0:2|0:0,0:0:0:0:
256,80,235129,2,0,P|224:120|216:160,1,80,0|0,0:0|0:0,0:0:0:0:
357,239,235290,2,0,P|334:193|301:169,1,80,2|0,0:2|0:0,0:0:0:0:
112,128,235450,2,0,P|61:138|30:164,1,80,0|0,0:2|0:0,0:0:0:0:
208,272,235611,6,0,P|258:261|289:235,1,80,2|0,0:2|0:0,0:0:0:0:
464,168,235771,2,0,P|413:157|382:131,1,80,0|0,0:2|0:0,0:0:0:0:
48,168,235931,2,0,P|98:157|129:131,1,80,2|0,0:2|0:0,0:0:0:0:
344,72,236092,2,0,P|320:104|312:152,1,80
168,72,236252,2,0,P|192:104|200:152,1,80,2|0,0:2|0:0,0:0:0:0:
256,232,236413,2,0,L|256:320,1,80
310,302,236573,5,2,0:2:0:0:
364,291,236653,1,0,0:0:0:0:
420,295,236734,1,0,0:0:0:0:
471,316,236814,1,0,0:0:0:0:
452,263,236894,1,2,0:2:0:0:
441,208,236974,1,0,0:0:0:0:
451,153,237054,1,0,0:0:0:0:
449,96,237135,1,0,0:0:0:0:
422,46,237215,1,4,0:1:0:0:
390,92,237295,1,4,0:0:0:0:
348,129,237375,1,4,0:0:0:0:
293,145,237456,1,4,0:0:0:0:
237,143,237536,5,4,0:0:0:0:
275,241,237696,1,4,0:0:0:0:
272,88,238017,5,4,0:0:0:0:
239,295,238177,1,4,0:0:0:0:
354,69,238498,5,4,0:0:0:0:
157,314,238658,1,4,0:0:0:0:
