osu file format v14

[General]
AudioFilename: optc.mp3
AudioLeadIn: 0
PreviewTime: 55889
Countdown: 0
SampleSet: Normal
StackLeniency: 0.3
Mode: 0
LetterboxInBreaks: 0
WidescreenStoryboard: 0

[Editor]
DistanceSpacing: 0.9
BeatDivisor: 4
GridSize: 32
TimelineZoom: 2.300005

[Metadata]
Title:Catch the Moment -Radio Edit ver.-
TitleUnicode:Catch the Moment -Radio Edit ver.-
Artist:LiSA
ArtistUnicode:LiSA
Creator:Shad0w1and
Version:Moecho's Insane
Source:劇場版 ソードアート・オンライン -オーディナル・スケール-
Tags:SWORD ART ONLINE The Movie - Ordinal Scale - SAO Lami intoon Kawaiwkyik Rizia Moecho Moeri Doormat Flask Kisses
BeatmapID:1218409
BeatmapSetID:570938

[Difficulty]
HPDrainRate:6
CircleSize:4
OverallDifficulty:7
ApproachRate:9
SliderMultiplier:1.6
SliderTickRate:1

[Events]
//Background and Video events
0,0,"BG2.jpg",0,0
//Break Periods
2,105116,106842
//Storyboard Layer 0 (Background)
//Storyboard Layer 1 (Fail)
//Storyboard Layer 2 (Pass)
//Storyboard Layer 3 (Foreground)
//Storyboard Sound Samples

[TimingPoints]
74,315.789473684211,4,2,98,50,1,0
74,-133.333333333333,4,2,98,50,0,0
8916,-133.333333333333,4,2,0,50,0,0
9863,-133.333333333333,4,1,98,20,0,0
10021,-133.333333333333,4,1,98,60,0,0
10179,-100,4,1,99,60,0,0
11363,-100,4,1,99,20,0,0
11442,-83.3333333333333,4,1,99,60,0,1
13889,-83.3333333333333,4,1,99,20,0,1
13968,-83.3333333333333,4,1,99,60,0,1
16179,-66.6666666666667,4,1,99,60,0,1
16416,-66.6666666666667,4,1,99,20,0,1
16495,-83.3333333333333,4,1,99,60,0,1
19968,-83.3333333333333,4,1,99,60,0,0
20126,-200,4,1,99,60,0,1
20146,-200,4,1,99,60,0,0
21074,-200,4,1,99,20,0,0
21231,-100,4,1,99,60,0,0
21547,-133.333333333333,4,2,99,60,0,0
22810,-200,4,2,99,60,0,0
24074,-133.333333333333,4,2,99,60,0,0
25337,-200,4,2,99,60,0,0
26600,-133.333333333333,4,2,99,60,0,0
27863,-200,4,2,99,60,0,0
29126,-133.333333333333,4,2,99,60,0,0
30074,-200,4,2,99,60,0,0
31179,-133.333333333333,4,1,99,60,0,0
31574,-133.333333333333,4,1,99,20,0,0
31652,-100,4,1,99,60,0,0
35442,-133.333333333333,4,1,99,60,0,0
36705,-100,4,1,99,60,0,0
36942,-100,4,1,99,20,0,0
37021,-100,4,1,99,60,0,0
38205,-100,4,1,99,20,0,0
38284,-100,4,1,99,60,0,0
41521,-100,4,1,99,20,0,0
41600,-80,4,1,99,60,0,0
41758,-200,4,1,99,60,0,0
42863,-80,4,1,99,60,0,0
43021,-200,4,1,99,60,0,0
46179,-133.333333333333,4,1,99,60,0,0
46810,-200,4,1,99,60,0,0
51231,-133.333333333333,4,1,99,60,0,0
51547,-100,4,1,99,60,0,0
56837,-100,4,1,99,20,0,0
56916,-83.3333333333333,4,1,99,60,0,1
58100,-83.3333333333333,4,1,99,20,0,1
58179,-83.3333333333333,4,1,99,60,0,1
59363,-83.3333333333333,4,1,99,20,0,1
59442,-83.3333333333333,4,1,99,60,0,1
60626,-83.3333333333333,4,1,99,20,0,1
60705,-83.3333333333333,4,1,99,60,0,1
61889,-83.3333333333333,4,1,99,20,0,1
61968,-83.3333333333333,4,1,99,60,0,1
63152,-83.3333333333333,4,1,99,20,0,1
63231,-83.3333333333333,4,1,99,60,0,1
64416,-83.3333333333333,4,1,99,20,0,1
64495,-83.3333333333333,4,1,99,60,0,1
65442,-66.6666666666667,4,1,99,60,0,1
65679,-66.6666666666667,4,1,99,20,0,1
65758,-83.3333333333333,4,1,99,60,0,1
66231,-100,4,1,99,60,0,1
66626,-100,4,1,99,20,0,1
66705,-83.3333333333333,4,1,99,60,0,1
66942,-83.3333333333333,4,1,99,20,0,1
67021,-83.3333333333333,4,1,99,60,0,1
68205,-83.3333333333333,4,1,99,20,0,1
68284,-83.3333333333333,4,1,99,60,0,1
68837,-83.3333333333333,4,1,99,20,0,1
68916,-83.3333333333333,4,1,99,60,0,1
69468,-83.3333333333333,4,1,99,20,0,1
69547,-83.3333333333333,4,1,99,60,0,1
70731,-83.3333333333333,4,1,99,20,0,1
70810,-83.3333333333333,4,1,99,60,0,1
71363,-83.3333333333333,4,1,99,20,0,1
71442,-83.3333333333333,4,1,99,60,0,1
71995,-83.3333333333333,4,1,99,20,0,1
72074,-83.3333333333333,4,1,99,60,0,1
73258,-83.3333333333333,4,1,99,20,0,1
73337,-83.3333333333333,4,1,99,60,0,1
74521,-83.3333333333333,4,1,99,20,0,1
74600,-83.3333333333333,4,1,99,60,0,1
76100,-83.3333333333333,4,1,99,20,0,1
76179,-83.3333333333333,4,1,99,60,0,1
77047,-83.3333333333333,4,1,99,20,0,1
77126,-83.3333333333333,4,1,99,60,0,1
77679,-83.3333333333333,4,1,99,20,0,1
77758,-83.3333333333333,4,1,99,60,0,1
78310,-83.3333333333333,4,1,99,20,0,1
78389,-83.3333333333333,4,1,99,60,0,1
79574,-83.3333333333333,4,1,99,20,0,1
79652,-83.3333333333333,4,1,99,60,0,1
80837,-83.3333333333333,4,1,99,20,0,1
80916,-83.3333333333333,4,1,99,60,0,1
81152,-83.3333333333333,4,1,99,20,0,1
81231,-100,4,1,99,60,0,1
82179,-83.3333333333333,4,1,99,60,0,1
82731,-83.3333333333333,4,1,99,20,0,1
82810,-83.3333333333333,4,1,99,60,0,1
83363,-83.3333333333333,4,1,99,20,0,1
83442,-83.3333333333333,4,1,99,60,0,1
84942,-83.3333333333333,4,1,99,20,0,1
85021,-83.3333333333333,4,1,99,60,0,1
85889,-83.3333333333333,4,1,99,20,0,1
85968,-83.3333333333333,4,1,99,60,0,1
86679,-83.3333333333333,4,1,99,20,0,1
86758,-83.3333333333333,4,1,99,60,0,1
87152,-83.3333333333333,4,1,99,20,0,1
87231,-83.3333333333333,4,1,99,60,0,1
87468,-83.3333333333333,4,1,99,20,0,1
87547,-83.3333333333333,4,1,99,60,0,1
89679,-83.3333333333333,4,1,99,20,0,1
89758,-83.3333333333333,4,1,99,60,0,1
92521,-83.3333333333333,4,1,99,20,0,1
92600,-83.3333333333333,4,1,99,60,0,1
93784,-83.3333333333333,4,1,99,20,0,1
93863,-83.3333333333333,4,1,99,60,0,1
95047,-83.3333333333333,4,1,99,20,0,1
95126,-83.3333333333333,4,1,99,60,0,1
97258,-83.3333333333333,4,1,99,20,0,1
97337,-83.3333333333333,4,1,99,60,0,1
103337,-100,4,1,99,60,0,0
104916,-100,4,1,99,40,0,0
107442,-83.3333333333333,4,1,99,60,0,1
109889,-83.3333333333333,4,1,99,20,0,1
109968,-83.3333333333333,4,1,99,60,0,1
112179,-66.6666666666667,4,1,99,60,0,1
112416,-66.6666666666667,4,1,99,20,0,1
112495,-83.3333333333333,4,1,99,60,0,1
115652,300,4,1,99,60,1,1
115652,-83.3333333333333,4,1,99,60,0,1
115952,-83.3333333333333,4,1,99,60,0,0
116102,315.789473684211,4,1,99,60,1,1
116102,-133.333333333333,4,1,99,60,0,1
116121,-133.333333333333,4,1,99,60,0,0
116733,-111.111111111111,4,1,99,30,0,0
116889,-100,4,1,99,60,0,0
117365,-100,4,1,99,60,0,0
117444,-100,4,1,99,30,0,0
124944,-100,4,1,99,5,0,0

[Colours]
Combo1 : 142,233,255
Combo2 : 157,173,189
Combo3 : 223,173,149
Combo4 : 225,225,225
Combo5 : 251,139,79

[HitObjects]
51,174,74,6,0,L|110:170,1,60.0000022888184
233,124,389,2,0,L|173:120,1,60.0000022888184
59,254,705,2,0,L|118:250,1,60.0000022888184
241,204,1021,2,0,L|181:200,1,60.0000022888184,2|0,0:0|0:0,0:0:0:0:
331,257,1258,1,0,0:0:0:0:
330,257,1337,6,0,P|341:229|341:199,1,60.0000022888184
149,264,1652,2,0,P|167:287|192:302,1,60.0000022888184
233,103,1968,2,0,P|203:106|177:121,1,60.0000022888184
368,121,2284,2,0,P|338:117|312:102,1,60.0000022888184,2|0,0:0|0:0,0:0:0:0:
455,40,2521,1,0,0:0:0:0:
455,40,2600,6,0,L|448:99,1,60.0000022888184
438,182,2916,1,0,0:0:0:0:
312,102,3074,6,0,L|318:161,1,60.0000022888184
329,244,3390,1,0,0:0:0:0:
438,182,3547,6,0,L|435:211,1,30.0000011444092,2|0,0:0|0:0,0:0:0:0:
426,288,3705,1,0,0:0:0:0:
443,343,3863,6,0,P|440:313|425:287,1,60.0000022888184
269,250,4179,2,0,L|328:243,1,60.0000022888184
212,346,4495,1,0,0:0:0:0:
145,279,4652,2,0,B|132:195|132:195|163:216,1,120.000004577637,0|2,0:0|0:0,0:0:0:0:
108,354,5126,6,0,L|33:349,1,60.0000022888184
212,346,5442,1,0,0:0:0:0:
135,219,5600,2,0,L|145:279,1,60.0000022888184
68,152,5916,5,0,0:0:0:0:
214,183,6074,1,2,0:0:0:0:
67,152,6231,2,0,P|82:148|97:148,1,30.0000011444092
214,183,6389,6,0,P|241:194|271:191,1,60.0000022888184
346,158,6705,2,0,P|365:135|373:107,1,60.0000022888184
135,20,7021,6,0,P|162:8|192:11,1,60.0000022888184
268,45,7337,2,0,P|287:67|295:95,1,60.0000022888184,2|0,0:0|0:0,0:0:0:0:
373,107,7574,1,0,0:0:0:0:
373,107,7652,6,0,P|365:135|346:158,1,60.0000022888184
213,182,7968,1,0,0:0:0:0:
271,191,8126,2,0,P|241:194|214:183,1,60.0000022888184
144,66,8442,1,0,0:0:0:0:
156,123,8600,2,0,P|143:95|144:66,1,60.0000022888184,2|0,0:0|0:0,0:0:0:0:
259,77,8837,1,0,0:0:0:0:
259,77,8916,5,2,0:0:0:0:
256,192,8995,12,0,9863,0:0:0:0:
259,77,10021,6,0,L|255:113,1,30.0000011444092,0|0,3:0|3:0,0:0:0:0:
204,182,10179,6,0,L|214:301,2,120,12|8|8,0:0|0:0|0:0,0:0:0:0:
154,364,10810,2,0,P|142:347|135:329,1,40,8|0,3:1|3:0,0:0:0:0:
290,323,10968,2,0,P|283:341|272:358,1,40,0|0,3:0|3:0,0:0:0:0:
214,301,11126,2,0,L|204:182,1,120,8|0,0:0|0:0,0:0:0:0:
150,122,11442,6,0,P|193:104|239:114,1,95.9999970703126,4|0,3:0|0:0,0:0:0:0:
357,29,11758,2,0,P|351:75|319:110,1,95.9999970703126,8|0,0:0|0:0,0:0:0:0:
334,255,12074,2,0,P|296:226|281:181,1,95.9999970703126,0|0,3:0|3:0,0:0:0:0:
280,38,12389,1,8,0:0:0:0:
436,196,12547,6,0,B|486:153|486:153|364:183,1,191.999994140625,8|0,3:1|3:0,0:0:0:0:
208,296,13021,2,0,B|183:267|183:267|239:279,1,95.9999970703126,8|0,0:0|0:0,0:0:0:0:
357,380,13337,1,8,0:0:0:0:
334,255,13495,2,0,L|345:321,1,47.9999985351563,0|0,3:0|3:0,0:0:0:0:
464,321,13652,2,0,P|426:378|357:380,1,143.999995605469,8|0,0:0|0:0,0:0:0:0:
341,302,13968,6,0,L|358:207,1,95.9999970703126,4|0,3:0|0:0,0:0:0:0:
417,116,14284,1,8,0:0:0:0:
508,84,14442,2,0,L|417:116,1,95.9999970703126,0|0,3:0|0:0,0:0:0:0:
309,110,14758,1,0,3:0:0:0:
236,49,14916,2,0,L|309:111,1,95.9999970703126,8|0,0:0|0:0,0:0:0:0:
220,143,15231,5,8,0:0:0:0:
332,23,15389,1,0,3:0:0:0:
106,93,15547,5,8,0:0:0:0:
236,49,15705,1,0,3:0:0:0:
94,9,15863,6,0,P|118:9|141:18,1,47.9999985351563,8|0,0:0|3:0,0:0:0:0:
236,49,16021,2,0,L|229:100,1,47.9999985351563,0|0,3:0|3:0,0:0:0:0:
106,92,16179,2,0,P|120:179|192:230,1,180.000006866455
192,230,16495,6,0,L|97:215,1,95.9999970703126,4|0,3:0|0:0,0:0:0:0:
43,318,16810,2,0,L|137:303,1,95.9999970703126,8|0,0:0|0:0,0:0:0:0:
299,251,17126,2,0,L|393:236,1,95.9999970703126,0|0,3:0|3:0,0:0:0:0:
448,339,17442,2,0,L|353:324,1,95.9999970703126,8|0,0:0|3:0,0:0:0:0:
192,230,17758,6,0,L|177:135,1,95.9999970703126,0|0,0:0|3:0,0:0:0:0:
230,307,18074,1,12,0:0:0:0:
246,90,18231,1,0,0:0:0:0:
332,192,18389,2,0,P|308:192|285:184,1,47.9999985351563,8|0,0:0|3:0,0:0:0:0:
246,90,18547,2,0,P|257:68|275:53,1,47.9999985351563,0|0,3:0|3:0,0:0:0:0:
417,123,18705,2,0,L|322:115,1,95.9999970703126,12|0,0:0|0:0,0:0:0:0:
503,90,18942,1,0,0:0:0:0:
503,90,19021,6,0,P|513:135|492:178,1,95.9999970703126,4|0,3:0|3:0,0:0:0:0:
425,211,19258,1,8,0:0:0:0:
425,211,19337,2,0,L|431:258,3,47.9999985351563,8|0|0|8,0:0|0:0|3:0|0:0,0:0:0:0:
346,319,19652,1,0,0:0:0:0:
419,366,19810,1,0,0:0:0:0:
448,345,19968,1,0,3:0:0:0:
346,319,20126,6,0,B|311:323|282:304|282:304|262:368|173:382|135:318,1,240,4|0,3:0|0:0,0:0:0:0:
192,196,21231,6,0,L|205:275,1,80,12|0,0:0|0:0,0:0:0:0:
149,127,21468,1,0,0:0:0:0:
149,127,21547,6,0,P|176:114|205:115,1,60.0000022888184,4|0,3:0|0:0,0:0:0:0:
71,234,21863,2,0,P|73:204|89:179,1,60.0000022888184,0|0,3:0|0:0,0:0:0:0:
124,355,22179,2,0,P|99:337|85:311,1,60.0000022888184,0|0,3:0|0:0,0:0:0:0:
254,369,22495,2,0,P|226:381|197:380,1,60.0000022888184,0|0,3:0|0:0,0:0:0:0:
331,263,22810,6,0,L|325:342,1,80,0|0,3:0|3:0,0:0:0:0:
283,152,23284,1,0,0:0:0:0:
278,73,23442,2,0,L|283:152,1,80,0|0,3:0|3:0,0:0:0:0:
411,279,23916,1,0,0:0:0:0:
357,300,24074,6,0,P|386:296|411:279,1,60.0000022888184,0|0,3:0|0:0,0:0:0:0:
234,250,24390,2,0,P|252:273|278:286,1,60.0000022888184,0|0,3:0|0:0,0:0:0:0:
214,119,24705,2,0,P|202:146|204:176,1,60.0000022888184,0|0,3:0|0:0,0:0:0:0:
317,40,25022,2,0,P|287:43|262:60,1,60.0000022888184,0|0,3:0|0:0,0:0:0:0:
436,89,25337,6,0,L|429:168,1,80,0|0,3:0|3:0,0:0:0:0:
357,300,25810,1,0,0:0:0:0:
363,379,25968,2,0,L|357:300,1,80,0|0,3:0|3:0,0:0:0:0:
440,258,26442,1,0,0:0:0:0:
497,264,26600,6,0,P|467:268|439:257,1,60.0000022888184,0|0,3:0|0:0,0:0:0:0:
357,300,26916,2,0,P|352:270|363:242,1,60.0000022888184,0|0,3:0|0:0,0:0:0:0:
321,160,27231,2,0,P|350:155|378:166,1,60.0000022888184,0|0,3:0|0:0,0:0:0:0:
461,124,27547,2,0,P|465:153|454:181,1,60.0000022888184,0|0,3:0|0:0,0:0:0:0:
363,242,27863,6,0,L|283:245,1,80,0|0,3:0|3:0,0:0:0:0:
204,174,28337,1,0,0:0:0:0:
124,170,28495,2,0,L|203:173,1,80,0|0,3:0|3:0,0:0:0:0:
283,245,28968,1,0,0:0:0:0:
288,303,29126,6,0,P|291:273|283:245,1,60.0000022888184,0|0,3:0|0:0,0:0:0:0:
198,115,29442,2,0,P|195:144|203:173,1,60.0000022888184,0|0,3:0|0:0,0:0:0:0:
153,297,29758,2,0,P|189:280|226:285,1,60.0000022888184,8|0,3:1|0:0,0:0:0:0:
399,179,30074,6,0,B|421:142|402:87|402:87|355:152|275:134,1,240,4|0,3:1|0:0,0:0:0:0:
198,115,31179,5,0,3:0:0:0:
105,21,31337,2,0,B|128:0|128:0|132:58,1,90.0000034332277,8|0,0:0|0:0,0:0:0:0:
198,115,31652,6,0,L|190:194,1,80,4|0,3:0|0:0,0:0:0:0:
41,226,31968,2,0,P|76:207|116:208,1,80,8|0,0:0|0:0,0:0:0:0:
74,358,32284,2,0,P|40:337|21:302,1,80,0|0,3:0|0:0,0:0:0:0:
150,337,32600,1,8,0:0:0:0:
171,263,32758,2,0,P|170:303|150:337,1,80,0|0,0:0|3:0,0:0:0:0:
96,283,33074,5,0,0:0:0:0:
190,194,33231,2,0,L|198:115,1,80,8|0,0:0|0:0,0:0:0:0:
49,41,33547,2,0,P|83:23|123:23,1,80,0|0,3:0|0:0,0:0:0:0:
198,114,33863,2,0,P|232:132|272:132,1,80,8|0,0:0|0:0,0:0:0:0:
367,69,34179,6,0,B|391:39|400:2|400:2|410:94,2,160,0|8|0,3:0|0:0|3:0,0:0:0:0:
431,200,34968,1,0,0:0:0:0:
506,193,35126,2,0,P|467:185|430:199,1,80,8|0,0:0|0:0,0:0:0:0:
469,323,35442,6,0,L|475:263,1,60.0000022888184,0|0,3:0|0:0,0:0:0:0:
325,264,35758,2,0,L|331:204,1,60.0000022888184,8|0,0:0|0:0,0:0:0:0:
386,356,36074,2,0,L|392:296,1,60.0000022888184,0|0,3:0|0:0,0:0:0:0:
238,375,36389,2,0,L|244:315,1,60.0000022888184,8|0,0:0|0:0,0:0:0:0:
47,275,36705,6,0,P|89:235|146:247,1,120,0|0,3:0|0:0,0:0:0:0:
146,247,37021,2,0,L|140:208,1,40,8|0,0:0|0:0,0:0:0:0:
32,128,37179,2,0,B|48:100|48:100|55:147,1,80,0|0,3:0|3:0,0:0:0:0:
194,62,37495,2,0,B|178:34|178:34|170:81,1,80,0|8,3:0|0:0,0:0:0:0:
140,208,37810,2,0,L|146:247,1,40,0|0,3:0|3:0,0:0:0:0:
47,276,37968,6,0,P|89:236|146:248,1,120,0|0,3:0|0:0,0:0:0:0:
212,292,38284,2,0,L|206:331,1,40,8|0,0:0|0:0,0:0:0:0:
230,174,38442,1,0,3:0:0:0:
194,62,38600,2,0,B|178:34|178:34|170:81,1,80,0|0,3:0|0:0,0:0:0:0:
230,174,38916,2,0,L|342:162,1,80,8|0,0:0|0:0,0:0:0:0:
388,73,39152,1,0,0:0:0:0:
387,73,39231,6,0,P|350:86|311:79,1,80,0|0,3:0|0:0,0:0:0:0:
117,55,39547,2,0,P|155:47|193:61,1,80,8|0,0:0|0:0,0:0:0:0:
309,165,39863,5,0,3:0:0:0:
153,127,40021,2,0,L|160:173,1,40,12|0,0:0|0:0,0:0:0:0:
309,165,40179,5,0,3:0:0:0:
54,261,40337,2,0,B|75:233|78:194|78:194|97:246|166:254,1,160,4|0,3:0|3:0,0:0:0:0:
233,274,40810,5,8,0:0:0:0:
159,166,40968,1,0,3:0:0:0:
233,274,41126,5,8,0:0:0:0:
133,354,41284,2,0,B|176:347|176:347|209:368|209:368|246:364,1,120,0|0,3:0|0:0,0:0:0:0:
355,318,41600,2,0,L|305:312,1,50,12|0,0:0|0:0,0:0:0:0:
442,333,41758,5,0,3:0:0:0:
398,192,42074,1,0,3:0:0:0:
442,333,42389,1,0,3:0:0:0:
442,333,42705,1,0,3:0:0:0:
398,192,42863,2,0,L|447:183,1,50,12|0,0:0|0:0,0:0:0:0:
308,205,43021,5,0,3:0:0:0:
352,64,43337,1,0,3:0:0:0:
308,205,43652,1,0,3:0:0:0:
352,64,43968,1,8,0:0:0:0:
243,146,44126,1,0,3:0:0:0:
308,320,44284,6,0,P|321:262|308:205,1,120,4|0,3:0|3:0,0:0:0:0:
242,30,44916,2,0,P|229:88|243:146,1,120,4|0,3:1|3:0,0:0:0:0:
420,177,45547,6,4,B|382:177|382:177|350:200|350:200|307:203,1,120,4|0,3:1|3:0,0:0:0:0:
497,206,46179,2,0,P|503:176|497:147,1,60.0000022888184,4|0,3:1|0:0,0:0:0:0:
414,259,46416,1,0,0:0:0:0:
414,259,46495,2,0,P|407:289|414:316,1,60.0000022888184,0|0,3:0|0:0,0:0:0:0:
479,375,46810,6,0,L|359:364,1,120,4|0,3:0|3:0,0:0:0:0:
257,343,47442,1,8,0:0:0:0:
261,382,47600,2,0,L|256:342,1,40
310,242,47916,1,0,3:0:0:0:
298,120,48074,5,0,0:0:0:0:
306,203,48231,2,0,L|310:242,1,40,8|0,0:0|0:0,0:0:0:0:
213,264,48547,1,0,3:0:0:0:
173,259,48705,2,0,L|212:263,1,40,8|0,0:0|0:0,0:0:0:0:
338,117,49021,2,0,L|298:121,1,40
213,264,49337,6,0,L|201:104,1,160,12|0,0:0|0:0,0:0:0:0:
332,200,50126,1,0,3:0:0:0:
344,41,50284,6,0,L|332:200,1,160,4|0,0:0|3:0,0:0:0:0:
201,104,51074,1,0,3:0:0:0:
135,57,51231,2,0,P|121:83|119:113,1,60.0000022888184
283,112,51547,6,0,P|278:73|253:42,1,80,12|0,0:0|0:0,0:0:0:0:
206,184,51863,6,0,L|201:104,1,80,12|0,3:0|3:0,0:0:0:0:
117,241,52179,2,0,L|111:320,1,80,8|0,0:0|3:0,0:0:0:0:
270,253,52495,2,0,L|190:258,1,80,8|0,0:0|3:0,0:0:0:0:
53,163,52810,2,0,L|133:168,1,80,8|0,0:0|3:0,0:0:0:0:
282,29,53126,5,8,0:0:0:0:
274,26,53284,1,0,3:0:0:0:
208,116,53442,5,8,0:0:0:0:
231,111,53600,1,0,3:0:0:0:
328,187,53758,5,8,0:0:0:0:
280,178,53916,1,0,3:0:0:0:
166,284,54074,5,8,0:0:0:0:
234,263,54231,1,0,3:0:0:0:
364,318,54389,6,0,B|331:304|318:267|318:267|312:310|293:328|271:339,1,160,12|0,0:0|3:0,0:0:0:0:
406,243,54863,2,0,L|411:202,2,40,0|0|0,0:0|0:0|3:0,0:0:0:0:
294,70,55179,1,8,0:0:0:0:
420,126,55337,1,8,0:0:0:0:
294,70,55495,2,0,L|299:111,1,40,0|0,3:0|3:0,0:0:0:0:
319,268,55652,5,4,3:0:0:0:
318,268,56284,6,0,P|299:269|280:263,1,40,8|0,0:0|3:0,0:0:0:0:
104,290,56442,2,0,P|123:288|142:294,1,40,8|0,0:0|3:0,0:0:0:0:
185,198,56600,2,0,B|201:181|210:155|210:155|203:255,1,120,12|0,0:0|0:0,0:0:0:0:
187,356,56916,6,0,P|234:357|276:335,1,95.9999970703126,4|0,3:0|0:0,0:0:0:0:
422,208,57231,2,0,P|380:185|332:187,1,95.9999970703126,8|0,0:0|0:0,0:0:0:0:
364,333,57547,1,0,3:0:0:0:
364,333,57705,1,0,3:0:0:0:
435,106,57863,2,0,B|467:57|467:57|471:147,1,143.999995605469,8|0,0:0|0:0,0:0:0:0:
422,208,58179,6,0,L|326:194,1,95.9999970703126,0|0,3:0|0:0,0:0:0:0:
188,60,58495,2,0,L|283:46,1,95.9999970703126,8|0,0:0|0:0,0:0:0:0:
245,185,58810,1,0,3:0:0:0:
245,185,58968,1,0,3:0:0:0:
67,39,59126,2,0,B|111:12|111:12|92:115,1,143.999995605469,8|0,0:0|0:0,0:0:0:0:
43,173,59442,6,0,P|87:189|133:179,1,95.9999970703126,0|0,3:0|0:0,0:0:0:0:
293,277,59758,2,0,P|246:266|202:283,1,95.9999970703126,8|0,0:0|0:0,0:0:0:0:
202,128,60074,1,0,3:0:0:0:
202,128,60231,1,0,3:0:0:0:
338,39,60389,2,0,B|294:12|294:12|313:115,1,143.999995605469,8|0,0:0|0:0,0:0:0:0:
361,173,60705,6,0,P|316:189|270:179,1,95.9999970703126,0|0,3:0|0:0,0:0:0:0:
112,277,61021,2,0,P|158:266|202:283,1,95.9999970703126,8|0,0:0|0:0,0:0:0:0:
202,128,61337,1,0,3:0:0:0:
202,128,61494,1,0,3:0:0:0:
343,282,61652,2,0,B|293:274|293:274|244:288|244:288|197:281,1,143.999995605469,8|0,0:0|0:0,0:0:0:0:
112,277,61968,6,0,P|158:266|202:283,1,95.9999970703126,0|0,3:0|0:0,0:0:0:0:
394,352,62284,2,0,P|350:369|304:359,1,95.9999970703126,8|0,0:0|0:0,0:0:0:0:
237,208,62600,1,0,3:0:0:0:
237,208,62758,1,0,3:0:0:0:
465,228,62916,2,0,B|425:192|425:192|439:281,1,143.999995605469,8|0,0:0|0:0,0:0:0:0:
394,352,63231,6,0,P|350:369|304:359,1,95.9999970703126,0|0,3:0|0:0,0:0:0:0:
112,277,63547,2,0,P|158:266|202:283,1,95.9999970703126,8|0,0:0|0:0,0:0:0:0:
344,282,63863,1,0,3:0:0:0:
344,282,64021,1,0,3:0:0:0:
211,154,64179,2,0,B|251:118|251:118|237:208,1,143.999995605469,8|0,0:0|0:0,0:0:0:0:
202,283,64495,6,0,L|213:378,1,95.9999970703126,0|0,3:0|0:0,0:0:0:0:
13,246,64810,2,0,L|24:150,1,95.9999970703126,8|0,0:0|0:0,0:0:0:0:
15,16,65126,1,0,3:0:0:0:
15,16,65284,1,0,3:0:0:0:
86,91,65442,6,0,P|94:12|15:16,1,180.000006866455,8|0,0:0|0:0,0:0:0:0:
24,150,65758,6,0,B|76:131|76:131|149:143|149:143|209:127,1,191.999994140625,4|0,3:0|0:0,0:0:0:0:
333,83,66231,6,0,P|245:99|260:188,1,200,0|0,3:0|0:0,0:0:0:0:
371,161,66705,6,0,B|407:142|414:113|414:113|403:173|435:206,1,143.999995605469,12|0,0:0|0:0,0:0:0:0:
388,258,67021,5,4,3:0:0:0:
416,340,67337,2,0,P|418:293|388:258,1,95.9999970703126,8|0,0:0|0:0,0:0:0:0:
500,144,67652,1,0,3:0:0:0:
500,144,67810,1,0,3:0:0:0:
388,258,67968,2,8,B|337:249|337:249|282:267|282:267|248:260,1,143.999995605469
279,180,68284,5,0,3:0:0:0:
279,180,68442,1,0,3:0:0:0:
197,333,68600,2,0,B|167:308|163:281|163:281|163:333|122:365,1,143.999995605469,8|0,0:0|0:0,0:0:0:0:
71,289,68916,5,0,3:0:0:0:
71,289,69074,1,0,3:0:0:0:
0,138,69231,2,0,B|56:105|102:137|102:137|78:146|62:171,1,143.999995605469,8|0,0:0|0:0,0:0:0:0:
131,209,69547,5,0,3:0:0:0:
215,177,69863,2,0,P|168:180|131:208,1,95.9999970703126,8|0,0:0|0:0,0:0:0:0:
221,356,70179,1,0,3:0:0:0:
221,356,70337,1,0,3:0:0:0:
339,240,70495,2,0,B|291:240|291:240|252:262|252:262|201:264,1,143.999995605469,8|0,0:0|0:0,0:0:0:0:
119,290,70810,5,0,3:0:0:0:
119,290,70968,1,0,3:0:0:0:
242,114,71126,2,0,B|199:86|199:86|216:177,1,143.999995605469,8|0,0:0|0:0,0:0:0:0:
281,251,71442,5,0,3:0:0:0:
281,251,71600,1,0,3:0:0:0:
448,209,71758,2,0,P|415:165|334:198,1,143.999995605469,8|0,0:0|0:0,0:0:0:0:
448,209,72074,6,0,L|438:113,1,95.9999970703126,4|0,3:0|0:0,0:0:0:0:
232,18,72389,2,0,L|242:114,1,95.9999970703126,8|0,0:0|0:0,0:0:0:0:
384,258,72705,1,0,3:0:0:0:
438,113,72863,1,0,3:0:0:0:
384,258,73021,2,0,B|336:243|336:243|289:257|289:257|245:245,1,143.999995605469,8|0,0:0|0:0,0:0:0:0:
163,278,73337,6,0,P|159:231|178:188,1,95.9999970703126,0|0,3:0|0:0,0:0:0:0:
334,328,73652,1,8,0:0:0:0:
174,139,73810,2,0,L|178:187,1,47.9999985351563,0|0,3:0|3:0,0:0:0:0:
333,328,73968,2,0,P|290:347|243:343,1,95.9999970703126,0|0,3:0|3:0,0:0:0:0:
245,245,74284,2,0,L|260:101,1,143.999995605469,8|0,0:0|0:0,0:0:0:0:
222,28,74600,5,12,3:0:0:0:
340,170,74758,1,0,0:0:0:0:
340,170,74916,1,0,3:0:0:0:
308,33,75074,5,8,0:0:0:0:
173,139,75232,1,0,0:0:0:0:
173,139,75390,1,0,3:0:0:0:
377,144,75547,5,8,0:0:0:0:
165,211,75705,1,0,0:0:0:0:
377,144,75863,6,0,B|333:145|333:145|291:179|291:179|245:181,1,143.999995605469,12|0,0:0|0:0,0:0:0:0:
165,211,76179,1,8,0:0:0:0:
361,227,76337,1,0,3:0:0:0:
260,101,76495,2,0,L|269:53,1,47.9999985351563,8|0,0:0|3:0,0:0:0:0:
165,211,76652,2,0,L|174:258,1,47.9999985351563,0|0,3:0|3:0,0:0:0:0:
398,334,76810,2,0,P|414:268|361:227,1,143.999995605469,12|0,0:0|0:0,0:0:0:0:
290,254,77126,6,0,L|281:349,1,95.9999970703126,4|0,3:0|0:0,0:0:0:0:
83,384,77442,2,0,P|59:329|97:257,1,143.999995605469,8|0,0:0|0:0,0:0:0:0:
174,258,77758,2,0,L|165:211,1,47.9999985351563,0|0,3:0|0:0,0:0:0:0:
146,133,77916,1,0,3:0:0:0:
14,51,78074,2,0,B|63:37|63:37|110:56|110:56|151:46,1,143.999995605469,8|0,0:0|0:0,0:0:0:0:
237,27,78389,5,0,3:0:0:0:
237,27,78547,1,0,0:0:0:0:
229,109,78705,5,8,0:0:0:0:
229,109,78863,1,0,0:0:0:0:
377,187,79021,5,0,3:0:0:0:
377,187,79179,1,0,3:0:0:0:
494,60,79337,6,0,P|422:49|409:117,1,143.999995605469,8|0,0:0|0:0,0:0:0:0:
460,173,79652,6,0,B|478:156|484:140|484:140|474:180|480:204,1,95.9999970703126,0|0,3:0|0:0,0:0:0:0:
422,292,79968,1,8,0:0:0:0:
473,360,80126,1,0,0:0:0:0:
512,282,80284,2,0,P|465:273|421:291,1,95.9999970703126,0|0,3:0|3:0,0:0:0:0:
214,332,80600,2,0,B|271:325|271:325|309:345|309:345|352:339,1,143.999995605469,8|0,0:0|0:0,0:0:0:0:
421,291,80916,6,0,B|417:257|438:233|438:233|398:265|339:251,1,143.999995605469,0|0,3:0|0:0,0:0:0:0:
361,254,81231,2,0,L|354:174,1,80,8|0,0:0|0:0,0:0:0:0:
293,116,81547,1,0,3:0:0:0:
354,174,81705,1,0,3:0:0:0:
286,36,81863,2,0,L|293:116,1,80,8|0,0:0|0:0,0:0:0:0:
472,107,82179,6,0,P|440:82|386:84,1,95.9999970703126,0|0,3:0|0:0,0:0:0:0:
293,116,82495,2,0,L|149:105,1,143.999995605469,8|0,0:0|0:0,0:0:0:0:
67,108,82810,2,0,L|81:49,1,47.9999985351563,0|0,3:0|0:0,0:0:0:0:
47,192,82968,1,0,3:0:0:0:
127,290,83126,2,0,P|160:230|123:172,1,143.999995605469,8|0,0:0|0:0,0:0:0:0:
127,290,83442,6,0,L|222:283,1,95.9999970703126,0|0,3:0|0:0,0:0:0:0:
349,187,83758,2,0,L|254:194,1,95.9999970703126,8|0,0:0|0:0,0:0:0:0:
222,282,84074,1,0,3:0:0:0:
253,194,84231,1,0,3:0:0:0:
309,273,84389,2,0,L|302:368,1,95.9999970703126,8|0,0:0|0:0,0:0:0:0:
253,194,84705,6,0,B|195:151|195:151|246:174|292:169,1,143.999995605469,0|0,3:0|0:0,0:0:0:0:
349,186,85021,2,0,P|372:182|393:171,1,47.9999985351563,8|0,0:0|0:0,0:0:0:0:
438,42,85179,1,0,0:0:0:0:
341,106,85337,1,0,3:0:0:0:
341,106,85495,1,0,3:0:0:0:
454,270,85652,2,0,B|465:246|462:211|462:211|443:244|395:259,1,143.999995605469,8|0,0:0|0:0,0:0:0:0:
309,273,85968,5,4,3:0:0:0:
188,247,86126,2,0,B|172:222|177:205|177:205|200:227|239:233,1,95.9999970703126,0|0,3:0|0:0,0:0:0:0:
380,349,86442,2,0,P|375:283|310:272,1,143.999995605469,8|0,0:0|0:0,0:0:0:0:
245,373,86758,2,0,P|240:349|242:326,1,47.9999985351563,0|0,3:0|0:0,0:0:0:0:
379,195,86916,2,0,P|374:261|308:272,1,143.999995605469,8|0,0:0|0:0,0:0:0:0:
221,229,87231,6,0,B|119:210|119:210|142:241,1,143.999995605469,4|0,3:1|0:0,0:0:0:0:
158,309,87547,2,0,P|163:285|156:262,1,47.9999985351563,0|0,3:0|0:0,0:0:0:0:
46,226,87705,2,0,P|41:202|48:179,2,47.9999985351563,0|0|0,3:0|0:0|0:0,0:0:0:0:
88,292,88021,1,0,3:0:0:0:
190,105,88179,6,0,B|231:88|256:40|256:40|215:142|222:229,1,287.999991210938,12|0,0:0|3:0,0:0:0:0:
115,138,88810,2,0,P|108:92|128:49,1,95.9999970703126,8|0,0:0|0:0,0:0:0:0:
333,153,89126,1,0,3:0:0:0:
274,300,89284,1,0,3:0:0:0:
222,229,89442,2,0,B|281:218|281:218|329:235|329:235|369:227,1,143.999995605469,8|0,0:0|0:0,0:0:0:0:
446,215,89758,5,8,0:0:0:0:
397,362,89916,1,0,3:0:0:0:
470,308,90074,1,0,3:0:0:0:
470,308,90231,1,0,0:0:0:0:
446,215,90389,2,0,B|438:154|438:154|475:185,1,95.9999970703126,8|0,0:0|3:0,0:0:0:0:
397,362,90705,6,0,B|314:349|314:349|204:383|204:383|115:370,1,287.999991210938,12|0,0:0|3:0,0:0:0:0:
14,301,91337,2,0,P|0:256|13:210,1,95.9999970703126,8|0,0:0|0:0,0:0:0:0:
195,213,91652,2,0,P|209:258|194:303,1,95.9999970703126,0|0,3:0|3:0,0:0:0:0:
109,250,91968,2,0,L|99:154,1,95.9999970703126,12|0,0:0|0:0,0:0:0:0:
56,60,92205,1,0,0:0:0:0:
56,60,92284,6,0,B|140:26|124:87|212:48,1,143.999995605469,4|0,3:0|0:0,0:0:0:0:
195,54,92600,2,0,L|190:109,1,47.9999985351563,8|0,0:0|0:0,0:0:0:0:
292,181,92758,2,0,L|283:85,1,95.9999970703126,0|0,3:0|0:0,0:0:0:0:
195,54,93074,1,0,3:0:0:0:
383,165,93231,2,0,P|335:161|291:180,1,95.9999970703126,8|0,0:0|0:0,0:0:0:0:
376,339,93547,6,0,B|383:294|350:243|350:243|373:253|393:249,1,143.999995605469,0|0,3:0|0:0,0:0:0:0:
464,198,93863,2,0,P|469:150|449:108,2,95.9999970703126,8|0|0,0:0|0:0|0:0,0:0:0:0:
351,244,94337,2,0,L|303:237,1,47.9999985351563,0|0,3:0|0:0,0:0:0:0:
156,227,94495,1,8,0:0:0:0:
383,165,94652,1,0,0:0:0:0:
156,227,94810,6,0,B|134:212|122:179|122:179|137:262,1,143.999995605469,4|0,3:0|0:0,0:0:0:0:
182,327,95126,2,0,P|160:337|136:341,1,47.9999985351563,0|0,3:0|0:0,0:0:0:0:
52,130,95284,2,0,P|88:100|135:94,1,95.9999970703126,8|0,0:0|0:0,0:0:0:0:
57,280,95600,2,0,L|48:232,1,47.9999985351563,0|0,3:0|0:0,0:0:0:0:
218,59,95758,2,0,L|210:154,1,95.9999970703126,8|0,0:0|0:0,0:0:0:0:
74,56,96074,6,0,P|73:32|80:9,2,47.9999985351563,8|0|0,0:0|0:0|0:0,0:0:0:0:
209,154,96389,1,0,3:0:0:0:
284,12,96547,2,0,P|295:32|298:56,1,47.9999985351563,8|0,0:0|0:0,0:0:0:0:
209,154,96705,2,0,B|228:128|228:128|235:191,1,95.9999970703126,0|0,3:0|3:0,0:0:0:0:
357,242,97021,2,0,B|330:197|330:197|317:287,1,143.999995605469,8|0,0:0|0:0,0:0:0:0:
340,384,97337,6,0,B|370:378|392:382|392:382|372:373|347:335,1,95.9999970703126,4|0,3:0|0:0,0:0:0:0:
475,323,97652,1,0,3:0:0:0:
475,322,97810,2,0,P|444:309|397:326,1,47.9999985351563,8|0,0:0|0:0,0:0:0:0:
243,375,97968,6,0,B|237:345|241:323|241:323|232:343|194:368,1,95.9999970703126,0|0,3:0|0:0,0:0:0:0:
159,286,98283,1,8,0:0:0:0:
159,286,98442,1,0,0:0:0:0:
255,124,98600,6,0,B|240:117|227:98|227:98|235:155,1,95.9999970703126,4|0,3:0|0:0,0:0:0:0:
293,211,98837,1,0,0:0:0:0:
293,211,98916,2,0,L|287:267,1,47.9999985351563,0|0,3:0|0:0,0:0:0:0:
305,56,99074,1,8,0:0:0:0:
128,79,99231,6,0,B|143:72|156:53|156:53|147:110,1,95.9999970703126,0|0,3:0|0:0,0:0:0:0:
90,166,99468,1,0,0:0:0:0:
90,166,99547,2,0,L|96:222,1,47.9999985351563,8|0,0:0|0:0,0:0:0:0:
78,11,99705,1,0,0:0:0:0:
0,248,99863,6,0,B|61:239|61:239|120:263|120:263|186:254,1,191.999994140625,4|0,0:0|3:0,0:0:0:0:
237,201,100337,2,0,P|117:223|181:327,1,287.999991210938,8|8,0:0|0:0,0:0:0:0:
314,168,100968,1,0,3:0:0:0:
501,162,101126,6,0,B|440:153|440:153|381:177|381:177|314:168,1,191.999994140625,12|0,0:0|3:0,0:0:0:0:
261,116,101600,2,0,P|381:137|317:241,1,287.999991210938,12|8,0:0|0:0,0:0:0:0:
186,254,102231,1,0,0:0:0:0:
314,168,102389,5,0,3:0:0:0:
272,244,102547,1,8,0:0:0:0:
186,254,102705,1,8,0:0:0:0:
112,209,102863,1,0,3:0:0:0:
102,123,103021,1,0,3:0:0:0:
153,53,103179,1,0,3:0:0:0:
314,168,103337,1,12,3:0:0:0:
256,192,103416,12,0,104916,2:0:0:0:
362,122,107442,6,0,P|319:104|273:114,1,95.9999970703126,4|0,3:0|0:0,0:0:0:0:
155,29,107758,2,0,P|161:75|193:110,1,95.9999970703126,8|0,0:0|0:0,0:0:0:0:
178,255,108074,2,0,P|216:226|231:181,1,95.9999970703126,0|0,3:0|3:0,0:0:0:0:
232,38,108389,1,12,0:0:0:0:
76,196,108547,6,0,B|26:153|26:153|148:183,1,191.999994140625,8|0,3:1|3:0,0:0:0:0:
304,296,109021,2,0,B|329:267|329:267|273:279,1,95.9999970703126,8|0,0:0|0:0,0:0:0:0:
155,380,109337,1,8,0:0:0:0:
178,255,109495,2,0,L|167:321,1,47.9999985351563,0|0,3:0|3:0,0:0:0:0:
48,321,109652,2,0,P|86:378|155:380,1,143.999995605469,12|0,0:0|0:0,0:0:0:0:
171,302,109968,6,0,L|154:207,1,95.9999970703126,4|0,3:0|0:0,0:0:0:0:
95,116,110284,1,8,0:0:0:0:
4,84,110442,2,0,L|95:116,1,95.9999970703126,4|0,3:1|0:0,0:0:0:0:
203,110,110758,1,0,3:0:0:0:
276,49,110916,2,0,L|203:111,1,95.9999970703126,12|0,0:0|0:0,0:0:0:0:
292,143,111231,5,8,0:0:0:0:
180,23,111389,1,4,3:1:0:0:
406,93,111547,5,8,0:0:0:0:
276,49,111705,1,0,3:0:0:0:
417,9,111863,6,0,P|393:9|371:18,1,47.9999985351563,8|0,0:0|3:0,0:0:0:0:
276,49,112021,2,0,L|283:100,1,47.9999985351563,0|0,3:0|3:0,0:0:0:0:
405,92,112179,2,0,P|391:179|319:230,1,180.000006866455
320,230,112495,6,0,L|415:215,1,95.9999970703126,4|0,3:0|0:0,0:0:0:0:
469,318,112810,2,0,L|375:303,1,95.9999970703126,8|4,0:0|0:0,0:0:0:0:
213,251,113126,2,0,L|119:236,1,95.9999970703126,0|0,3:0|3:0,0:0:0:0:
64,339,113442,2,0,L|159:324,1,95.9999970703126,12|0,0:0|3:0,0:0:0:0:
320,230,113758,6,0,L|335:135,1,95.9999970703126,0|4,0:0|3:0,0:0:0:0:
282,307,114074,1,8,0:0:0:0:
266,90,114231,1,0,0:0:0:0:
180,193,114389,2,0,P|204:193|227:185,1,47.9999985351563,12|0,0:0|3:0,0:0:0:0:
266,90,114547,2,0,P|255:68|238:52,1,47.9999985351563,0|0,3:0|3:0,0:0:0:0:
95,123,114705,2,0,L|190:115,1,95.9999970703126,12|0,0:0|0:0,0:0:0:0:
38,70,114942,1,0,0:0:0:0:
38,70,115021,6,0,P|18:111|25:160,1,95.9999970703126,0|0,3:0|3:0,0:0:0:0:
87,211,115258,1,8,0:0:0:0:
87,211,115337,2,0,L|81:258,3,47.9999985351563,8|0|0|8,0:0|0:0|3:0|0:0,0:0:0:0:
166,319,115652,1,0,0:0:0:0:
93,366,115802,1,0,0:0:0:0:
64,345,115952,1,0,3:0:0:0:
166,319,116102,6,0,B|201:323|230:304|230:304|254:367|324:380|364:351|385:313,1,240,12|0,3:0|0:0,0:0:0:0:
349,159,116891,5,8,0:0:0:0:
310,280,117049,1,8,0:0:0:0:
390,239,117207,1,0,3:0:0:0:
269,200,117365,1,12,3:0:0:0:
256,192,117444,12,0,124944,0:0:0:0:
