osu file format v14

[General]
AudioFilename: optc.mp3
AudioLeadIn: 0
PreviewTime: 55889
Countdown: 0
SampleSet: Soft
StackLeniency: 0.9
Mode: 0
LetterboxInBreaks: 0
WidescreenStoryboard: 0

[Editor]
Bookmarks: 74,11442,21547,31652,41758,51863,56916,67021,77126,87231,97337,107442
DistanceSpacing: 1.1
BeatDivisor: 4
GridSize: 16
TimelineZoom: 2.500005

[Metadata]
Title:Catch the Moment -Radio Edit ver.-
TitleUnicode:Catch the Moment -Radio Edit ver.-
Artist:LiSA
ArtistUnicode:LiSA
Creator:Shad0w1and
Version:Flask's Advanced
Source:劇場版 ソードアート・オンライン -オーディナル・スケール-
Tags:SWORD ART ONLINE The Movie - Ordinal Scale - SAO Lami intoon Kawaiwkyik Rizia Moecho Moeri Doormat Flask Kisses
BeatmapID:1224768
BeatmapSetID:570938

[Difficulty]
HPDrainRate:4
CircleSize:3.6
OverallDifficulty:4
ApproachRate:5
SliderMultiplier:1
SliderTickRate:1

[Events]
//Background and Video events
0,0,"BG2.jpg",0,0
//Break Periods
//Storyboard Layer 0 (Background)
//Storyboard Layer 1 (Fail)
//Storyboard Layer 2 (Pass)
//Storyboard Layer 3 (Foreground)
//Storyboard Sound Samples

[TimingPoints]
74,315.789473684211,4,2,1,50,1,0
10179,-100,4,2,1,70,0,0
11442,-100,4,2,1,80,0,0
21547,-100,4,2,1,50,0,0
30074,-125,4,2,1,60,0,0
31179,-100,4,2,1,50,0,0
31652,-100,4,2,1,60,0,0
51863,-100,4,2,1,70,0,0
54389,-100,4,2,1,80,0,0
56284,-100,4,2,1,60,0,0
56916,-100,4,2,1,80,0,1
67337,-100,4,2,1,70,0,1
74600,-100,4,2,1,80,0,1
87231,-100,4,2,1,70,0,1
102389,-100,4,2,1,80,0,1
103337,-125,4,2,1,50,0,0
106179,-100,4,2,1,50,0,0
107442,-100,4,2,1,70,0,1
115652,300,4,2,1,70,1,1
116102,315.789473684211,4,2,1,60,1,0
116102,-125,4,2,1,60,0,0
117049,-100,4,2,1,60,0,0
118628,-100,4,2,1,50,0,0
119891,-100,4,2,1,40,0,0
121154,-100,4,2,1,30,0,0
122417,-100,4,2,1,20,0,0
123680,-100,4,2,1,10,0,0
124944,-100,4,2,1,5,0,0

[Colours]
Combo1 : 142,233,255
Combo2 : 157,173,189
Combo3 : 223,173,149
Combo4 : 225,225,225
Combo5 : 251,139,79

[HitObjects]
38,119,74,5,2,0:0:0:0:
105,32,389,1,0,0:0:0:0:
209,69,705,1,0,0:0:0:0:
205,179,1021,1,0,0:0:0:0:
99,211,1337,2,0,L|123:316,2,100,2|0|0,0:0|0:0|0:0,0:0:0:0:
129,105,2284,1,0,0:0:0:0:
231,144,2600,6,0,P|281:153|330:130,1,100,2|0,0:0|0:0,0:0:0:0:
427,95,3231,2,0,L|414:194,1,100,0|0,0:0|0:0,0:0:0:0:
478,284,3863,1,2,0:0:0:0:
419,377,4179,1,0,0:0:0:0:
311,352,4495,1,0,0:0:0:0:
311,352,4810,1,0,0:0:0:0:
302,242,5126,6,0,L|320:133,1,100,2|0,0:0|0:0,0:0:0:0:
376,49,5758,2,0,P|328:29|276:42,1,100,0|0,0:0|0:0,0:0:0:0:
203,115,6389,1,2,0:0:0:0:
114,49,6705,1,0,0:0:0:0:
104,158,7021,1,0,0:0:0:0:
17,90,7337,1,0,0:0:0:0:
8,199,7652,6,0,L|0:303,1,100,2|0,0:0|0:0,0:0:0:0:
81,373,8284,2,0,P|126:358|147:307,1,100,0|0,0:0|0:0,0:0:0:0:
175,206,8916,6,0,B|239:171|303:211|303:211|377:261|459:199,1,300,2|0,0:0|0:0,0:0:0:0:
372,129,10179,6,0,P|357:92|363:42,2,75,12|8|8,0:0|0:0|0:0,0:0:0:0:
318,117,10810,2,0,P|269:103|210:104,1,100,8|8,0:0|0:0,0:0:0:0:
142,181,11442,5,6,0:0:0:0:
70,97,11758,1,8,0:0:0:0:
18,194,12074,1,8,0:1:0:0:
88,278,12389,1,8,0:0:0:0:
88,278,12547,2,0,P|139:293|176:384,1,150,6|8,0:0|0:0,0:0:0:0:
287,364,13337,2,0,L|304:255,1,100,8|8,0:1|0:0,0:0:0:0:
394,205,13968,6,0,P|357:178|348:121,1,100,6|8,0:0|0:0,0:0:0:0:
368,76,14442,1,0,0:0:0:0:
319,49,14600,2,0,L|330:-1,2,50,8|0|0,0:1|0:0|0:0,0:0:0:0:
264,56,15074,6,0,B|237:55|237:55|214:126|146:134,1,150,6|8,0:0|0:0,0:0:0:0:
45,164,15863,2,0,L|52:219,1,50,8|8,0:3|0:3,0:0:0:0:
58,268,16179,1,8,0:0:0:0:
146,330,16495,6,0,P|199:314|249:328,1,100,6|8,0:0|0:0,0:0:0:0:
334,381,17126,2,0,L|436:370,1,100,8|8,0:1|0:0,0:0:0:0:
453,261,17758,2,0,L|504:254,2,50,10|0|8,0:1|0:0|0:0,0:0:0:0:
403,237,18231,1,0,0:0:0:0:
349,251,18389,2,0,L|331:146,1,100,8|12,0:3|0:0,0:0:0:0:
251,77,19021,6,0,L|263:15,2,50,6|0|8,0:0|0:0|0:0,0:0:0:0:
216,120,19495,1,0,0:0:0:0:
255,222,19810,1,8,0:0:0:0:
177,299,20126,2,0,B|149:356|34:392|-31:273|42:170|106:227|106:227|104:275,1,350,6|8,0:0|0:0,0:0:0:0:
50,160,21547,6,0,L|45:55,2,100,14|8|8,0:1|0:1|0:1,0:0:0:0:
148,109,22495,1,8,0:1:0:0:
217,194,22810,2,0,P|267:204|317:183,1,100,10|8,0:1|0:1,0:0:0:0:
334,136,23284,1,0,0:0:0:0:
334,136,23442,2,0,P|356:84|406:74,1,100,8|8,0:1|0:1,0:0:0:0:
480,141,24074,6,0,P|504:89|479:3,2,150,10|0|8,0:1|0:0|0:1,0:0:0:0:
498,249,25337,2,0,L|390:242,1,100,10|8,0:1|0:1,0:0:0:0:
336,333,25968,1,8,0:1:0:0:
247,270,26284,1,8,0:1:0:0:
168,346,26600,6,0,P|124:360|67:349,2,100,10|8|8,0:1|0:1|0:1,0:0:0:0:
149,237,27547,2,0,L|141:180,1,50,8|0,0:1|0:0,0:0:0:0:
100,150,27863,2,0,P|114:98|92:48,1,100,10|8,0:1|0:1,0:0:0:0:
47,34,28337,1,0,0:0:0:0:
47,34,28495,2,0,L|152:25,1,100,8|8,0:1|0:1,0:0:0:0:
229,97,29126,5,10,0:1:0:0:
312,25,29442,1,8,0:1:0:0:
395,97,29758,1,8,0:0:0:0:
360,203,30074,6,0,B|308:274|377:350|377:350|454:283|415:210,1,320,14|4,0:1|0:3,0:0:0:0:
497,137,31652,5,6,0:0:0:0:
422,55,31968,2,0,P|370:24|326:29,1,100,8|8,0:0|0:1,0:0:0:0:
248,98,32600,1,8,0:0:0:0:
248,98,32758,2,0,L|139:88,2,100,0|0|0,0:0|0:0|0:0,0:0:0:0:
240,152,33547,2,0,L|248:213,1,50,8|0,0:1|0:0,0:0:0:0:
264,254,33863,2,0,L|255:308,1,50,8|0,0:0|0:0,0:0:0:0:
224,349,34179,6,0,B|174:320|121:367|121:367|101:353|64:358,2,150,10|0|8,0:1|0:0|0:0,0:0:0:0:
330,375,35442,2,0,L|432:363,1,100,10|8,0:1|0:0,0:0:0:0:
492,272,36074,1,8,0:1:0:0:
432,180,36389,1,8,0:0:0:0:
330,223,36705,6,0,P|284:233|232:221,2,100,10|8|8,0:1|0:0|0:1,0:0:0:0:
346,114,37652,2,0,L|334:60,1,50,8|0,0:0|0:0,0:0:0:0:
357,14,37968,2,0,P|314:42|259:36,1,100,10|8,0:1|0:0,0:0:0:0:
215,20,38442,2,0,P|165:9|112:35,2,100,0|0|0,0:0|0:0|0:0,0:0:0:0:
222,74,39231,6,0,L|205:186,1,100,10|8,0:1|0:0,0:0:0:0:
139,260,39863,2,0,L|83:255,1,50,8|8,0:1|0:0,0:0:0:0:
41,354,40337,2,0,P|111:376|185:349,1,150,14|8,0:1|0:0,0:0:0:0:
242,260,41126,1,12,0:3:0:0:
327,329,41442,5,8,0:0:0:0:
327,329,41600,2,0,B|392:286|392:286|459:319,1,150,14|8,0:0|0:3,0:0:0:0:
511,222,42389,1,8,0:1:0:0:
431,145,42705,1,8,0:3:0:0:
431,145,42863,2,0,L|438:-17,1,150,4|8,0:0|0:3,0:0:0:0:
339,45,43652,1,8,0:1:0:0:
233,13,43968,1,8,0:0:0:0:
152,87,44284,5,6,0:0:0:0:
145,307,44916,1,6,0:0:0:0:
365,314,45547,1,6,0:0:0:0:
372,94,46179,2,0,P|421:76|479:86,1,100,6|12,0:0|0:3,0:0:0:0:
433,182,46810,5,6,0:0:0:0:
484,279,47126,1,8,0:1:0:0:
413,363,47442,1,8,0:0:0:0:
413,363,47600,1,8,0:1:0:0:
316,309,47916,2,0,L|270:277,1,50,8|8,0:3|0:0,0:0:0:0:
204,365,48389,1,8,0:3:0:0:
104,318,48705,2,0,L|82:206,1,100,8|8,0:0|0:1,0:0:0:0:
33,122,49337,6,0,P|88:47|182:85,1,200,14|8,0:0|0:1,0:0:0:0:
237,169,50284,2,0,P|325:199|381:124,1,200,14|12,0:0|0:3,0:0:0:0:
479,172,51231,2,0,L|495:73,2,100,8|14|14,0:0|0:0|0:0,0:0:0:0:
386,232,52179,5,8,0:0:0:0:
298,165,52495,1,8,0:0:0:0:
285,273,52810,1,8,0:0:0:0:
274,382,53126,2,0,L|167:375,1,100,10|8,0:0|0:0,0:0:0:0:
101,291,53758,2,0,P|90:235|105:188,1,100,8|8,0:0|0:0,0:0:0:0:
75,87,54389,6,0,B|123:64|169:104|169:104|198:111|229:90,2,150,14|8|8,0:0|0:1|0:1,0:0:0:0:
3,3,55652,1,10,0:0:0:0:
4,223,56284,6,0,L|29:322,1,100,8|12,0:3|0:0,0:0:0:0:
122,378,56916,6,0,P|166:385|215:359,1,100,6|8,0:0|0:0,0:0:0:0:
293,285,57547,2,0,L|351:291,2,50,8|8|8,0:1|0:1|0:0,0:0:0:0:
209,212,58179,2,0,L|194:103,1,100,10|8,0:1|0:0,0:0:0:0:
293,64,58810,2,0,L|300:14,2,50,8|8|8,0:1|0:1|0:0,0:0:0:0:
403,65,59442,6,0,P|447:96|459:149,1,100,10|8,0:1|0:0,0:0:0:0:
415,241,60074,1,8,0:1:0:0:
364,262,60231,1,8,0:1:0:0:
311,245,60389,2,0,P|266:305|356:371,1,200,8|8,0:0|0:0,0:0:0:0:
450,342,61337,2,0,L|463:235,1,100,8|8,0:1|0:0,0:0:0:0:
438,135,61968,5,10,0:1:0:0:
335,176,62284,1,8,0:0:0:0:
254,100,62600,2,0,L|215:57,2,50,8|8|8,0:1|0:1|0:0,0:0:0:0:
359,69,63231,5,10,0:1:0:0:
335,176,63547,1,8,0:0:0:0:
231,214,63863,2,0,L|246:266,2,50,8|8|8,0:1|0:1|0:0,0:0:0:0:
151,137,64495,6,0,P|101:115|47:125,2,100,10|8|8,0:1|0:0|0:1,0:0:0:0:
130,245,65442,1,8,0:0:0:0:
85,345,65758,2,0,B|145:333|145:333|183:344|183:344|244:332,2,150,14|8|10,0:0|0:0|0:0,0:0:0:0:
19,256,67021,5,6,0:0:0:0:
68,157,67337,1,2,0:3:0:0:
177,155,67652,1,8,0:1:0:0:
240,245,67968,2,0,P|278:215|292:157,1,100,4|8,0:3|0:1,0:0:0:0:
268,117,68442,2,0,L|331:110,1,50,8|2,0:1|0:3,0:0:0:0:
411,53,68916,2,0,L|424:4,2,50,8|8|4,0:1|0:1|0:3,0:0:0:0:
492,126,69547,5,6,0:0:0:0:
432,218,69863,2,0,L|440:320,1,100,2|8,0:3|0:1,0:0:0:0:
346,377,70495,1,4,0:3:0:0:
275,293,70810,2,0,L|226:280,2,50,8|8|4,0:1|0:1|0:3,0:0:0:0:
322,195,71442,2,0,L|327:144,2,50,8|8|4,0:1|0:1|0:3,0:0:0:0:
232,130,72074,5,6,0:0:0:0:
143,194,72389,2,0,L|38:185,2,100,8|8|8,0:0|0:1|0:0,0:0:0:0:
148,81,73337,2,0,P|223:30|317:82,1,200,10|10,0:1|0:1,0:0:0:0:
408,128,74284,1,8,0:0:0:0:
337,212,74600,6,0,P|324:265|352:313,1,100,14|8,0:0|0:1,0:0:0:0:
381,344,75074,2,0,L|273:338,1,100,14|8,0:0|0:1,0:0:0:0:
228,353,75547,2,0,L|176:349,2,50,14|8|8,0:0|0:1|0:0,0:0:0:0:
216,243,76179,1,10,0:0:0:0:
115,288,76495,2,0,P|106:239|118:191,1,100,8|6,0:0|0:1,0:0:0:0:
210,132,77126,6,0,L|192:33,2,100,6|8|8,0:0|0:0|0:1,0:0:0:0:
260,155,77916,2,0,P|286:145|316:146,1,50,8|8,0:1|0:0,0:0:0:0:
390,217,78389,2,0,P|444:223|491:200,2,100,10|8|8,0:1|0:0|0:1,0:0:0:0:
343,187,79179,2,0,L|353:242,1,50,8|8,0:1|0:0,0:0:0:0:
320,343,79652,2,0,L|215:355,2,100,10|8|8,0:1|0:0|0:1,0:0:0:0:
368,369,80442,1,8,0:1:0:0:
407,330,80600,6,0,B|414:264|414:264|403:231|403:231|419:120,1,200,8|8,0:0|0:0,0:0:0:0:
466,35,81547,2,0,P|414:22|369:38,1,100,8|8,0:1|0:0,0:0:0:0:
293,114,82179,6,0,L|185:102,1,100,10|8,0:1|0:0,0:0:0:0:
84,85,82810,1,8,0:1:0:0:
84,85,82968,1,8,0:1:0:0:
84,85,83126,1,8,0:0:0:0:
41,186,83442,6,0,L|149:198,1,100,10|8,0:1|0:0,0:0:0:0:
250,215,84073,1,8,0:1:0:0:
250,215,84231,1,8,0:1:0:0:
250,215,84389,1,8,0:0:0:0:
265,323,84705,6,0,L|157:311,1,100,10|8,0:1|0:0,0:0:0:0:
58,294,85336,1,8,0:1:0:0:
58,294,85494,1,8,0:1:0:0:
58,294,85652,1,8,0:0:0:0:
144,226,85968,6,0,B|172:195|172:195|189:145|155:78,2,150,14|8|10,0:0|0:0|0:0,0:0:0:0:
68,305,87231,5,6,0:0:0:0:
161,362,87547,2,0,L|262:346,1,100,8|8,0:1|0:1,0:0:0:0:
366,374,88179,2,0,B|412:367|434:311|434:311|495:291|528:351,1,200,6|8,0:1|0:0,0:0:0:0:
443,265,89126,2,0,P|423:220|427:163,1,100,8|8,0:1|0:0,0:0:0:0:
379,69,89758,6,0,L|388:13,2,50,10|8|8,0:1|0:1|0:1,0:0:0:0:
298,144,90389,1,8,0:1:0:0:
220,67,90705,2,0,B|156:45|112:91|112:91|121:39|75:2,1,200,6|8,0:1|0:0,0:0:0:0:
0,82,91652,1,8,0:1:0:0:
33,186,91968,1,8,0:0:0:0:
142,190,92284,6,0,P|155:239|143:288,1,100,6|8,0:1|0:0,0:0:0:0:
128,339,92758,2,0,P|163:303|212:289,1,100,8|8,0:1|0:1,0:0:0:0:
264,282,93231,2,0,P|215:268|178:233,1,100,8|10,0:0|0:1,0:0:0:0:
268,170,93863,1,8,0:0:0:0:
271,59,94179,2,0,P|319:72|356:107,1,100,8|8,0:1|0:0,0:0:0:0:
451,51,94810,6,0,L|462:166,1,100,6|8,0:0|0:1,0:0:0:0:
459,205,95284,2,0,L|449:304,1,100,8|8,0:0|0:1,0:0:0:0:
445,359,95758,1,8,0:0:0:0:
359,289,96074,1,10,0:1:0:0:
258,331,96389,2,0,L|200:335,1,50,8|8,0:1|0:0,0:0:0:0:
157,312,96705,2,0,L|93:317,2,50,8|8|8,0:1|0:3|0:0,0:0:0:0:
201,210,97337,6,0,P|218:163|200:102,1,100,14|8,0:1|0:1,0:0:0:0:
164,81,97810,1,8,0:0:0:0:
164,81,97968,2,0,P|114:89|70:135,1,100,10|8,0:1|0:0,0:0:0:0:
99,230,98600,1,10,0:1:0:0:
166,316,98916,2,0,L|171:370,2,50,8|8|8,0:0|0:1|0:1,0:0:0:0:
251,246,99547,1,8,0:0:0:0:
331,321,99863,6,0,L|438:311,1,100,14|8,0:1|0:0,0:0:0:0:
464,267,100337,2,0,P|476:218|459:170,1,100,8|8,0:1|0:1,0:0:0:0:
425,130,100810,2,0,L|325:120,1,100,8|10,0:0|0:1,0:0:0:0:
238,188,101442,2,0,P|216:139|225:80,1,100,8|0,0:0|0:0,0:0:0:0:
292,11,102074,1,8,0:0:0:0:
394,50,102389,6,0,L|443:35,2,50,10|8|8,0:1|0:1|0:1,0:0:0:0:
366,98,102863,2,0,B|371:133|370:161|370:161|399:183,1,100,10|8,0:1|0:1,0:0:0:0:
418,223,103337,6,0,B|393:266|393:266|437:357|354:424|238:395|229:259|328:237,1,400,14|0,0:0|0:0,0:0:0:0:
418,223,106495,5,0,0:0:0:0:
397,115,106810,2,0,L|405:57,2,50,0|0|0,0:0|0:0|0:0,0:0:0:0:
291,147,107442,6,0,L|190:139,1,100,14|8,0:0|0:1,0:0:0:0:
139,157,107916,2,0,L|84:151,1,50,8|8,0:3|0:0,0:0:0:0:
27,242,108389,1,8,0:1:0:0:
27,242,108547,2,0,P|62:286|61:336,1,100,8|8,0:0|0:1,0:0:0:0:
39,378,109021,2,0,L|143:362,1,100,8|8,0:0|0:0,0:0:0:0:
213,282,109652,1,8,0:0:0:0:
295,354,109968,6,0,P|323:270|296:208,1,150,10|8,0:0|0:0,0:0:0:0:
273,168,110600,2,0,L|283:109,2,50,8|8|8,0:1|0:1|0:0,0:0:0:0:
221,189,111074,2,0,B|193:200|193:200|129:202|98:132,1,150,8|0,0:1|0:0,0:0:0:0:
36,46,111863,2,0,P|83:27|139:38,1,100,8|8,0:0|0:0,0:0:0:0:
238,8,112495,6,0,L|251:118,1,100,8|8,0:0|0:1,0:0:0:0:
286,148,112968,2,0,P|338:156|386:125,1,100,8|8,0:0|0:1,0:0:0:0:
403,84,113442,2,0,L|466:77,1,50,8|8,0:0|0:1,0:0:0:0:
459,133,113758,2,0,L|517:124,2,50,8|8|8,0:1|0:0|0:1,0:0:0:0:
447,186,114231,1,8,0:1:0:0:
447,186,114389,2,0,P|438:239|464:282,1,100,8|8,0:0|0:0,0:0:0:0:
404,373,115021,6,0,L|294:363,1,100,14|8,0:0|0:1,0:0:0:0:
272,318,115495,1,0,0:0:0:0:
206,226,115802,1,8,0:1:0:0:
168,338,116102,6,0,B|142:325|142:325|127:358|89:369|89:369|55:348|53:310|53:310|13:319,1,200,14|10,0:0|0:1,0:0:0:0:
11,368,117049,6,0,L|0:260,1,100,8|14,0:1|0:1,0:0:0:0:
256,192,117523,12,0,124944,0:0:0:0:
