osu file format v14

[General]
AudioFilename: optc.mp3
AudioLeadIn: 0
PreviewTime: 55889
Countdown: 0
SampleSet: Soft
StackLeniency: 0.7
Mode: 0
LetterboxInBreaks: 0
WidescreenStoryboard: 0

[Editor]
Bookmarks: 74,11442,21547,31652,41758,51863,56916,67021,75863,77126,87231,97337,107442
DistanceSpacing: 1
BeatDivisor: 4
GridSize: 32
TimelineZoom: 2.400006

[Metadata]
Title:Catch the Moment -Radio Edit ver.-
TitleUnicode:Catch the Moment -Radio Edit ver.-
Artist:LiSA
ArtistUnicode:LiSA
Creator:Shad0w1and
Version:Another
Source:劇場版 ソードアート・オンライン -オーディナル・スケール-
Tags:SWORD ART ONLINE The Movie - Ordinal Scale - SAO Lami intoon Kawaiwkyik Rizia Moecho Moeri Doormat Flask Kisses
BeatmapID:1233411
BeatmapSetID:570938

[Difficulty]
HPDrainRate:6
CircleSize:4
OverallDifficulty:8
ApproachRate:9
SliderMultiplier:1.92
SliderTickRate:1

[Events]
//Background and Video events
0,0,"BG1.jpg",0,0
//Break Periods
//Storyboard Layer 0 (Background)
//Storyboard Layer 1 (Fail)
//Storyboard Layer 2 (Pass)
//Storyboard Layer 3 (Foreground)
//Storyboard Sound Samples

[TimingPoints]
74,315.789473684211,4,2,1,50,1,0
389,-111.111111111111,4,2,1,50,0,0
705,-125,4,2,1,50,0,0
1021,-142.857142857143,4,2,1,50,0,0
1337,-166.666666666667,4,2,1,50,0,0
2600,-100,4,2,1,50,0,0
2916,-111.111111111111,4,2,1,50,0,0
3231,-125,4,2,1,50,0,0
3547,-142.857142857143,4,2,1,50,0,0
3863,-166.666666666667,4,2,1,50,0,0
5126,-100,4,2,1,50,0,0
5442,-111.111111111111,4,2,1,50,0,0
5758,-125,4,2,1,50,0,0
6074,-142.857142857143,4,2,1,50,0,0
6389,-166.666666666667,4,2,1,50,0,0
7652,-100,4,2,1,50,0,0
7968,-111.111111111111,4,2,1,50,0,0
8284,-125,4,2,1,50,0,0
8600,-142.857142857143,4,2,1,50,0,0
10179,-100,4,2,1,70,0,0
11442,-100,4,2,1,80,0,0
19810,-66.6666666666667,4,2,1,80,0,0
21547,-133.333333333333,4,2,1,50,0,0
30074,-200,4,2,1,60,0,0
31652,-111.111111111111,4,2,1,60,0,0
51863,-100,4,2,1,70,0,0
54389,-100,4,2,1,80,0,0
56916,-100,4,2,1,80,0,1
67337,-100,4,2,1,70,0,1
74600,-100,4,2,1,80,0,1
87231,-100,4,2,1,70,0,1
102389,-100,4,2,1,80,0,1
103337,-133.333333333333,4,2,1,50,0,0
107442,-100,4,2,1,70,0,1
115652,300,4,2,1,70,1,1
116102,315.789473684211,4,2,1,60,1,0
118628,-100,4,2,1,50,0,0
119891,-100,4,2,1,40,0,0
121154,-100,4,2,1,30,0,0
122417,-100,4,2,1,20,0,0
123680,-100,4,2,1,10,0,0
124944,-100,4,2,1,5,0,0

[Colours]
Combo1 : 142,233,255
Combo2 : 157,173,189
Combo3 : 223,173,149
Combo4 : 225,225,225
Combo5 : 251,139,79

[HitObjects]
68,92,74,6,0,P|108:100|168:124,1,96,2|0,0:0|0:0,0:0:0:0:
248,172,389,2,0,P|200:188|168:204,1,86.3999973632813,0|0,0:0|0:0,0:0:0:0:
140,284,705,2,0,P|188:300|220:316,1,76.8,0|0,0:0|0:0,0:0:0:0:
292,372,1021,2,0,P|328:356|376:344,1,67.1999979492188,0|0,0:0|0:0,0:0:0:0:
354,348,1258,1,0,0:0:0:0:
354,348,1337,6,0,P|364:304|384:232,1,115.199996484375,2|0,0:0|0:0,0:0:0:0:
252,86,1968,2,0,P|302:57|351:27,1,115.199996484375,0|0,0:0|0:0,0:0:0:0:
352,28,2600,6,0,L|364:132,1,96,2|0,0:0|0:0,0:0:0:0:
352,192,2916,2,0,L|340:96,1,86.3999973632813,0|0,0:0|0:0,0:0:0:0:
320,224,3231,2,0,L|310:300,1,76.8,0|0,0:0|0:0,0:0:0:0:
316,356,3547,2,0,L|325:279,1,67.1999979492188,0|0,0:0|0:0,0:0:0:0:
324,289,3784,1,0,0:0:0:0:
324,289,3863,6,0,L|200:308,2,115.199996484375,2|0|0,0:0|0:0|0:0,0:0:0:0:
324,289,4810,1,0,0:0:0:0:
96,176,5126,6,0,P|84:224|60:272,1,96,2|0,0:0|0:0,0:0:0:0:
125,369,5442,2,0,P|137:321|161:273,1,86.3999973632813,0|0,0:0|0:0,0:0:0:0:
74,190,5758,2,0,P|70:239|55:290,1,76.8,0|0,0:0|0:0,0:0:0:0:
144,354,6074,2,0,P|147:309|160:263,1,67.1999979492188,0|0,0:0|0:0,0:0:0:0:
151,287,6310,1,0,0:0:0:0:
151,287,6389,6,0,P|208:299|269:306,1,115.199996484375,2|0,0:0|0:0,0:0:0:0:
388,218,7021,2,0,P|423:263|455:311,1,115.199996484375,0|0,0:0|0:0,0:0:0:0:
456,312,7652,6,0,L|352:324,1,96,2|0,0:0|0:0,0:0:0:0:
280,256,7968,2,0,L|375:244,1,86.3999973632813,0|0,0:0|0:0,0:0:0:0:
480,300,8284,2,0,L|376:312,1,76.8,0|0,0:0|0:0,0:0:0:0:
296,236,8600,2,0,L|391:224,1,67.1999979492188,0|0,0:0|0:0,0:0:0:0:
362,228,8837,1,0,0:0:0:0:
362,228,8916,1,2,0:0:0:0:
336,108,10021,5,8,0:3:0:0:
336,108,10100,1,8,0:3:0:0:
336,108,10179,2,0,L|160:128,2,144,12|8|8,0:0|0:0|0:0,0:0:0:0:
460,248,10810,6,0,L|440:332,1,48,8|8,0:0|0:3,0:0:0:0:
304,264,10968,2,0,L|324:180,1,48,8|8,0:3|0:3,0:0:0:0:
400,184,11126,2,0,L|366:324,1,144,8|0,0:0|0:0,0:0:0:0:
360,344,11442,6,0,P|307:347|235:321,1,96,6|0,0:0|0:0,0:0:0:0:
89,257,11758,2,0,P|149:251|199:234,1,96,8|0,0:0|0:0,0:0:0:0:
284,100,12074,1,8,0:1:0:0:
153,124,12231,1,0,0:0:0:0:
315,217,12389,1,8,0:0:0:0:
88,256,12547,6,0,B|80:184|57:126|57:126|79:136|124:143,1,192,6|8,0:0|0:1,0:0:0:0:
217,242,13021,2,0,P|202:279|187:336,1,96,8|0,0:0|0:0,0:0:0:0:
13,248,13337,1,8,0:1:0:0:
112,141,13495,1,0,0:0:0:0:
187,333,13652,1,8,0:0:0:0:
88,256,13810,1,0,0:0:0:0:
217,242,13968,6,0,P|276:261|336:270,1,96,6|0,0:0|0:0,0:0:0:0:
464,217,14284,1,8,0:0:0:0:
382,333,14442,1,0,0:0:0:0:
352,145,14600,2,0,P|391:127|456:115,1,96,8|0,0:1|0:0,0:0:0:0:
217,242,14916,2,0,P|170:228|116:215,1,96,8|0,0:0|0:0,0:0:0:0:
249,362,15231,5,14,0:1:0:0:
355,202,15389,1,0,0:0:0:0:
394,338,15547,1,8,0:0:0:0:
217,242,15705,1,0,0:0:0:0:
245,63,15863,6,0,P|261:115|269:143,1,48,8|8,0:3|0:3,0:0:0:0:
217,242,16021,2,0,P|227:220|238:199,1,48,8|8,0:3|0:3,0:0:0:0:
422,167,16179,2,0,P|366:171|314:179,1,96,12|0,0:0|0:0,0:0:0:0:
92,260,16495,5,6,0:0:0:0:
184,288,16652,1,0,0:0:0:0:
268,332,16810,1,8,0:0:0:0:
104,172,16968,1,0,0:0:0:0:
104,172,17047,1,0,0:0:0:0:
104,172,17126,2,0,P|112:248|120:296,1,96,8|0,0:1|0:0,0:0:0:0:
212,280,17442,1,8,0:0:0:0:
296,324,17600,1,0,0:0:0:0:
220,376,17758,5,10,0:1:0:0:
185,174,17916,1,0,0:0:0:0:
328,313,18074,1,8,0:0:0:0:
114,267,18231,2,0,B|85:203,1,48,0|0,0:0|0:0,0:0:0:0:
206,80,18389,5,8,0:3:0:0:
206,80,18468,1,8,0:3:0:0:
206,80,18547,1,8,0:3:0:0:
206,80,18626,1,8,0:3:0:0:
206,80,18705,2,0,P|251:104|273:148,1,96,12|0,0:0|0:0,0:0:0:0:
80,161,19021,6,0,P|95:120|119:43,1,96,6|0,0:0|0:0,0:0:0:0:
112,70,19258,1,0,0:0:0:0:
112,70,19337,1,8,0:0:0:0:
212,280,19495,5,0,0:0:0:0:
212,280,19574,1,0,0:0:0:0:
212,280,19652,2,0,L|276:268,1,48,8|0,0:1|0:0,0:0:0:0:
305,354,19810,6,0,B|337:378|337:378|361:270,1,144.000005493164,8|8,0:0|0:1,0:0:0:0:
419,23,20126,1,6,0:0:0:0:
332,64,21231,1,8,0:0:0:0:
240,76,21547,6,0,L|164:68,1,72.0000027465821,14|0,0:1|0:0,0:0:0:0:
84,25,21863,2,0,P|57:63|38:111,1,72.0000027465821,8|0,0:1|0:0,0:0:0:0:
0,168,22179,2,0,P|37:180|86:201,1,72.0000027465821,8|0,0:1|0:0,0:0:0:0:
155,157,22495,2,0,P|168:195|180:250,1,72.0000027465821,8|0,0:1|0:0,0:0:0:0:
256,178,22810,6,0,P|287:173|332:170,1,72.0000027465821,10|0,0:1|0:0,0:0:0:0:
412,128,23126,2,0,P|432:170|459:215,1,72.0000027465821,8|0,0:1|0:0,0:0:0:0:
501,269,23442,2,0,P|426:232|367:266,1,144.000005493164,8|8,0:1|0:1,0:0:0:0:
315,327,23916,1,0,0:0:0:0:
243,263,24074,6,0,L|255:187,1,72.0000027465821,10|0,0:1|0:0,0:0:0:0:
227,102,24389,1,8,0:1:0:0:
144,147,24547,2,0,L|149:238,1,72.0000027465821,0|8,0:0|0:1,0:0:0:0:
94,296,24863,1,0,0:0:0:0:
32,225,25021,2,0,L|50:143,1,72.0000027465821,8|0,0:1|0:0,0:0:0:0:
2,71,25337,6,0,P|48:116|138:109,1,144.000005493164,10|8,0:1|0:1,0:0:0:0:
91,28,25968,1,8,0:1:0:0:
191,43,26284,1,8,0:1:0:0:
220,136,26600,6,0,L|290:157,2,72.0000027465821,10|0|8,0:1|0:0|0:1,0:0:0:0:
184,223,27074,2,0,L|111:236,2,72.0000027465821,0|8|0,0:0|0:1|0:0,0:0:0:0:
267,264,27547,1,8,0:1:0:0:
267,264,27705,1,0,0:0:0:0:
355,268,27863,6,0,P|332:326|235:347,1,144.000005493164,10|8,0:1|0:1,0:0:0:0:
150,312,28337,2,0,P|156:346|160:416,1,72.0000027465821,0|8,0:0|0:1,0:0:0:0:
50,277,28652,2,0,P|69:246|84:214,2,72.0000027465821,0|8|0,0:0|0:1|0:0,0:0:0:0:
95,113,29126,5,10,0:1:0:0:
163,73,29284,1,0,0:0:0:0:
243,73,29442,1,8,0:1:0:0:
315,105,29600,1,0,0:0:0:0:
363,169,29758,2,0,L|358:262,1,72.0000027465821,8|0,0:0|0:0,0:0:0:0:
268,277,30074,6,0,B|224:282|178:276|178:276|183:319|183:319|135:327|74:353|74:353|75:312|68:255|68:255|92:261|117:264,1,384,14|4,0:1|0:3,0:0:0:0:
105,262,31652,6,0,P|116:214|128:128,1,129.599996044922,6|0,0:0|0:0,0:0:0:0:
138,92,31968,2,0,P|184:111|232:124,1,86.3999973632813,8|0,0:0|0:0,0:0:0:0:
352,227,32284,2,0,P|312:225|248:233,1,86.3999973632813,8|0,0:1|0:0,0:0:0:0:
151,218,32600,1,8,0:0:0:0:
303,113,32758,6,0,P|349:180|346:249,1,129.599996044922,0|0,0:0|0:0,0:0:0:0:
325,261,33074,2,0,P|269:255|223:254,1,86.3999973632813,0|8,0:0|0:0,0:0:0:0:
116,295,33389,1,0,0:0:0:0:
140,196,33547,5,8,0:1:0:0:
227,350,33705,1,0,0:0:0:0:
225,212,33863,1,8,0:0:0:0:
116,295,34021,1,0,0:0:0:0:
58,168,34179,6,0,P|99:178|139:195,2,86.3999973632813,10|0|8,0:1|0:0|0:0,0:0:0:0:
123,325,34652,2,0,P|165:315|205:299,2,86.3999973632813,0|8|0,0:0|0:1|0:0,0:0:0:0:
17,282,35126,1,8,0:0:0:0:
139,195,35284,1,0,0:0:0:0:
49,72,35442,6,0,L|33:172,1,86.3999973632813,10|0,0:1|0:0,0:0:0:0:
123,325,35758,2,0,L|137:210,1,86.3999973632813,8|0,0:0|0:0,0:0:0:0:
308,180,36074,2,0,P|323:257|248:281,1,172.799994726563,8|8,0:1|0:0,0:0:0:0:
139,198,36705,6,0,B|207:186|207:186|240:195|240:195|338:172,1,172.799994726563,10|8,0:1|0:0,0:0:0:0:
307,179,37179,1,0,0:0:0:0:
247,281,37337,2,0,B|233:322|233:322|237:386,1,86.3999973632813,8|0,0:1|0:0,0:0:0:0:
344,334,37652,1,8,0:0:0:0:
307,179,37810,1,0,0:0:0:0:
139,198,37968,6,0,B|104:114|104:114|133:80,1,129.599996044922,10|0,0:1|0:0,0:0:0:0:
159,59,38284,1,8,0:0:0:0:
307,179,38442,1,0,0:0:0:0:
307,179,38600,2,0,P|287:221|272:270,2,86.3999973632813,8|0|8,0:1|0:0|0:0,0:0:0:0:
454,252,39074,1,0,0:0:0:0:
454,252,39231,6,0,P|420:332|332:325,1,172.799994726563,10|8,0:1|0:0,0:0:0:0:
380,268,39863,5,8,0:1:0:0:
201,181,40021,1,8,0:0:0:0:
201,181,40337,6,0,B|223:187|252:211|252:211|243:149|250:84,1,172.799994726563,14|0,0:1|0:0,0:0:0:0:
115,178,40810,6,0,P|158:184|236:171,1,86.3999973632813,8|0,0:0|0:0,0:0:0:0:
125,314,41126,6,0,P|164:242|94:173,1,172.799994726563,12|8,0:3|0:0,0:0:0:0:
42,148,41600,6,0,L|40:191,1,43.1999986816407,14|0,0:0|0:0,0:0:0:0:
90,248,41758,5,0,0:0:0:0:
120,264,42074,1,8,0:3:0:0:
150,279,42389,1,8,0:1:0:0:
180,294,42705,1,8,0:3:0:0:
454,254,42863,6,0,L|456:211,1,43.1999986816407,4|0,0:0|0:0,0:0:0:0:
406,154,43021,5,0,0:0:0:0:
376,138,43337,1,8,0:3:0:0:
346,123,43652,1,8,0:1:0:0:
316,108,43968,1,8,0:0:0:0:
180,294,44284,5,6,0:0:0:0:
116,134,44916,5,6,0:0:0:0:
380,268,45547,5,6,0:0:0:0:
316,108,46179,5,6,0:0:0:0:
180,294,46495,5,12,0:3:0:0:
380,268,46810,6,0,P|390:233|408:138,1,129.599996044922,6|0,0:0|0:0,0:0:0:0:
407,141,47126,2,0,P|363:139|321:133,1,86.3999973632813,8|8,0:1|0:1,0:0:0:0:
185,216,47442,2,0,P|236:220|294:232,1,86.3999973632813,8|8,0:0|0:1,0:0:0:0:
380,268,47758,1,8,0:1:0:0:
380,268,47916,1,8,0:3:0:0:
200,300,48074,6,0,P|191:258|185:216,1,86.3999973632813,0|8,0:0|0:0,0:0:0:0:
106,97,48389,2,0,P|91:140|82:188,1,86.3999973632813,8|8,0:3|0:1,0:0:0:0:
233,296,48705,2,0,P|241:236|254:107,1,172.799994726563,8|8,0:0|0:1,0:0:0:0:
252,124,49337,5,14,0:0:0:0:
346,239,49495,2,0,B|399:253|464:239|464:239|456:269|424:275,1,172.799994726563,8|8,0:1|0:3,0:0:0:0:
434,149,49968,2,0,P|442:111|461:50,1,86.3999973632813,8|8,0:1|0:1,0:0:0:0:
346,239,50284,2,0,P|354:282|363:339,1,86.3999973632813,14|8,0:0|0:1,0:0:0:0:
244,213,50600,6,0,P|199:207|119:193,1,86.3999973632813,10|8,0:3|0:1,0:0:0:0:
360,324,50916,2,0,P|307:329|246:338,1,86.3999973632813,12|8,0:3|0:1,0:0:0:0:
401,174,51231,2,0,P|420:138|442:69,1,86.3999973632813,8|8,0:0|0:1,0:0:0:0:
435,95,51468,1,8,0:1:0:0:
435,95,51547,1,14,0:0:0:0:
210,42,51863,5,14,0:0:0:0:
210,42,52021,1,8,0:1:0:0:
187,135,52179,2,0,P|195:107|210:34,1,96,8|8,0:0|0:1,0:0:0:0:
401,174,52495,5,8,0:0:0:0:
401,174,52653,1,8,0:1:0:0:
378,81,52811,2,0,P|386:109|401:181,1,96,8|8,0:0|0:1,0:0:0:0:
267,248,53126,6,0,P|221:256|156:262,1,96,10|8,0:0|0:1,0:0:0:0:
91,130,53442,2,0,P|138:133|214:135,1,96,8|8,0:0|0:1,0:0:0:0:
378,81,53758,1,8,0:0:0:0:
378,81,53916,1,8,0:1:0:0:
402,173,54074,2,0,P|387:121|374:60,1,96,8|8,0:0|0:1,0:0:0:0:
267,248,54389,6,0,P|300:175|417:187,1,192,14|8,0:0|0:1,0:0:0:0:
459,308,54863,1,8,0:1:0:0:
512,132,55021,5,8,0:1:0:0:
357,249,55179,1,8,0:1:0:0:
512,243,55337,1,8,0:1:0:0:
377,80,55495,1,8,0:1:0:0:
310,333,55652,1,10,0:0:0:0:
267,248,55968,5,0,0:0:0:0:
372,263,56284,5,8,0:3:0:0:
372,263,56363,1,8,0:3:0:0:
372,263,56442,1,8,0:3:0:0:
372,263,56521,1,8,0:3:0:0:
372,263,56600,2,0,P|363:310|356:363,1,96,12|0,0:0|0:0,0:0:0:0:
153,311,56916,6,0,P|145:228|145:144,1,144,6|0,0:0|0:0,0:0:0:0:
145,123,57231,2,0,P|197:127|261:119,1,96,8|0,0:0|0:0,0:0:0:0:
115,246,57547,2,0,P|67:231|5:220,1,96,8|8,0:1|0:1,0:0:0:0:
37,77,57863,2,0,P|70:30|180:12,1,144,8|0,0:0|0:0,0:0:0:0:
198,3,58179,6,0,P|189:82|185:153,1,144,10|0,0:1|0:0,0:0:0:0:
158,261,58495,2,0,P|152:214|144:167,1,96,8|0,0:0|0:0,0:0:0:0:
289,243,58810,2,0,P|278:296|266:362,1,96,8|8,0:1|0:1,0:0:0:0:
411,338,59126,2,0,P|477:316|502:239,1,144,8|0,0:0|0:0,0:0:0:0:
512,203,59442,6,0,P|450:197|363:184,1,144,10|0,0:1|0:0,0:0:0:0:
323,169,59758,2,0,P|331:224|339:265,1,96,8|0,0:0|0:0,0:0:0:0:
247,330,60074,1,8,0:1:0:0:
413,245,60231,1,8,0:1:0:0:
355,74,60389,2,0,P|285:72|236:122,1,144,8|0,0:0|0:0,0:0:0:0:
196,150,60705,6,0,B|139:154|91:145|91:145|100:127|118:101,1,144,10|0,0:1|0:0,0:0:0:0:
187,54,61021,2,0,P|192:100|196:154,1,96,8|0,0:0|0:0,0:0:0:0:
154,306,61337,2,0,P|208:315|259:335,1,96,8|8,0:1|0:1,0:0:0:0:
413,245,61652,2,0,P|467:226|502:125,1,144,8|0,0:0|0:0,0:0:0:0:
510,103,61968,6,0,B|454:104|410:75|410:75|379:98,1,144,10|0,0:1|0:0,0:0:0:0:
340,184,62284,2,0,P|359:158|379:81,1,96,8|0,0:0|0:0,0:0:0:0:
195,149,62600,2,0,P|210:214|216:261,1,96,8|8,0:1|0:1,0:0:0:0:
378,304,62916,2,0,P|364:199|302:177,1,144,8|0,0:0|0:0,0:0:0:0:
312,143,63231,6,0,P|378:137|487:113,1,144,10|0,0:1|0:0,0:0:0:0:
498,141,63547,2,0,P|486:192|478:235,1,96,8|0,0:0|0:0,0:0:0:0:
339,183,63863,2,0,P|328:136|314:90,1,96,8|8,0:1|0:1,0:0:0:0:
245,308,64179,2,0,P|308:330|397:278,1,144,8|0,0:0|0:0,0:0:0:0:
410,267,64495,6,0,B|406:212|432:166|432:166|453:212,1,144,10|0,0:1|0:0,0:0:0:0:
505,266,64810,2,0,P|458:270|409:266,1,96,8|0,0:0|0:0,0:0:0:0:
245,308,65126,1,8,0:1:0:0:
420,356,65284,1,8,0:1:0:0:
307,371,65442,2,0,L|329:190,1,144,8|0,0:0|0:0,0:0:0:0:
331,179,65758,5,14,0:0:0:0:
505,266,65916,1,8,0:1:0:0:
505,266,66074,1,0,0:0:0:0:
497,111,66231,1,8,0:0:0:0:
409,266,66389,5,10,0:1:0:0:
409,266,66547,1,8,0:1:0:0:
331,179,66705,1,10,0:0:0:0:
331,179,66863,1,8,0:1:0:0:
216,192,67021,6,0,P|219:238|230:310,1,96,6|0,0:0|0:0,0:0:0:0:
0,136,67337,2,0,P|48:106|146:144,1,144,2|0,0:3|0:0,0:0:0:0:
115,220,67652,2,0,P|122:173|131:98,1,96,8|8,0:1|0:1,0:0:0:0:
312,191,67968,2,0,P|288:257|225:287,1,144,4|0,0:3|0:0,0:0:0:0:
216,192,68284,6,0,P|222:243|226:288,1,96,8|8,0:1|0:1,0:0:0:0:
409,266,68600,2,0,P|435:178|445:98,1,144,2|0,0:3|0:0,0:0:0:0:
347,118,68916,2,0,P|382:123|475:125,1,96,8|8,0:1|0:1,0:0:0:0:
287,267,69231,2,0,P|240:221|150:218,1,144,4|0,0:3|0:0,0:0:0:0:
115,220,69547,5,6,0:0:0:0:
115,220,69863,2,0,P|146:166|168:75,1,144,2|0,0:3|0:0,0:0:0:0:
71,84,70178,2,0,P|113:88|170:86,1,96,8|8,0:1|0:1,0:0:0:0:
347,118,70494,2,0,P|277:139|246:218,1,144,4|0,0:3|0:0,0:0:0:0:
341,208,70810,6,0,P|299:202|229:197,1,96,8|8,0:1|0:1,0:0:0:0:
115,220,71126,2,0,P|141:274|241:276,1,144,2|0,0:3|0:0,0:0:0:0:
245,197,71442,2,0,P|229:250|215:305,1,96,8|8,0:1|0:1,0:0:0:0:
409,266,71757,2,0,P|406:200|395:115,1,144,4|0,0:3|0:0,0:0:0:0:
347,118,72073,5,6,0:0:0:0:
347,118,72389,2,0,B|299:116|248:104|248:104|240:134|220:165,1,144,8|0,0:0|0:0,0:0:0:0:
140,172,72705,2,0,P|185:155|231:144,1,96,8|8,0:1|0:1,0:0:0:0:
218,289,73021,2,0,P|149:271|71:257,1,144,8|0,0:0|0:0,0:0:0:0:
77,257,73337,6,0,B|66:187|42:125|42:125|114:90,1,192,10|8,0:1|0:0,0:0:0:0:
231,144,73810,1,8,0:1:0:0:
325,130,73968,2,0,L|202:148,1,96,10|8,0:1|0:1,0:0:0:0:
218,289,74284,2,0,L|336:273,1,96,8|8,0:0|0:1,0:0:0:0:
433,175,74600,5,14,0:0:0:0:
231,144,74758,1,8,0:1:0:0:
313,276,74916,1,8,0:1:0:0:
344,77,75074,5,14,0:0:0:0:
313,276,75231,1,8,0:1:0:0:
433,175,75389,1,8,0:1:0:0:
203,165,75547,5,14,0:0:0:0:
222,326,75705,1,8,0:1:0:0:
343,170,75863,5,8,0:0:0:0:
158,263,76021,1,8,0:1:0:0:
203,75,76179,5,10,0:0:0:0:
313,276,76337,1,8,0:1:0:0:
344,77,76495,5,8,0:0:0:0:
193,246,76653,1,8,0:1:0:0:
193,246,76731,1,8,0:1:0:0:
193,246,76810,6,0,P|149:233|116:190,1,96,6|0,0:1|0:0,0:0:0:0:
280,58,77126,6,0,P|288:141|288:225,1,144,6|0,0:0|0:0,0:0:0:0:
288,246,77441,2,0,P|236:242|172:250,1,96,8|0,0:0|0:0,0:0:0:0:
318,123,77757,2,0,P|366:138|428:149,1,96,8|8,0:1|0:1,0:0:0:0:
396,292,78073,2,0,P|363:339|253:357,1,144,8|0,0:0|0:0,0:0:0:0:
236,349,78389,6,0,P|227:270|223:199,1,144,10|0,0:1|0:0,0:0:0:0:
196,91,78705,2,0,P|190:138|182:185,1,96,8|0,0:0|0:0,0:0:0:0:
104,309,79020,2,0,P|93:256|81:190,1,96,8|8,0:1|0:1,0:0:0:0:
196,91,79336,2,0,P|262:113|287:190,1,144,8|0,0:0|0:0,0:0:0:0:
299,225,79652,6,0,P|237:231|150:244,1,144,10|0,0:1|0:0,0:0:0:0:
110,259,79968,2,0,P|118:204|126:163,1,96,8|0,0:0|0:0,0:0:0:0:
34,98,80284,1,8,0:1:0:0:
200,183,80441,1,8,0:1:0:0:
142,354,80599,2,0,P|72:356|23:306,1,144,8|0,0:0|0:0,0:0:0:0:
56,271,80915,6,0,B|60:214|51:166|51:166|38:187|26:226,1,144,10|0,0:1|0:0,0:0:0:0:
110,259,81231,2,0,P|157:255|205:250,1,96,8|0,0:0|0:0,0:0:0:0:
387,214,81547,2,0,P|334:199|283:166,1,96,8|8,0:1|0:1,0:0:0:0:
113,157,81862,2,0,P|167:176|202:277,1,144,8|0,0:0|0:0,0:0:0:0:
218,296,82178,6,0,B|274:295|318:324|318:324|349:301,1,144,10|0,0:1|0:0,0:0:0:0:
387,214,82494,2,0,P|368:240|348:317,1,96,8|0,0:0|0:0,0:0:0:0:
512,236,82810,2,0,P|497:171|491:124,1,96,8|8,0:1|0:1,0:0:0:0:
299,178,83126,2,0,P|299:248|347:299,1,144,8|0,0:0|0:0,0:0:0:0:
336,346,83441,6,0,P|265:331|193:325,1,144,10|0,0:1|0:0,0:0:0:0:
145,327,83757,2,0,P|157:276|165:233,1,96,8|0,0:0|0:0,0:0:0:0:
18,165,84073,2,0,P|29:212|51:256,1,96,8|8,0:1|0:1,0:0:0:0:
262,176,84389,2,0,P|210:127|129:125,1,144,8|0,0:0|0:0,0:0:0:0:
114,165,84705,6,0,B|118:220|92:266|92:266|71:220,1,144,10|0,0:1|0:0,0:0:0:0:
18,165,85020,2,0,P|66:168|114:165,1,96,8|0,0:0|0:0,0:0:0:0:
262,176,85336,1,8,0:1:0:0:
102,282,85494,1,8,0:1:0:0:
245,318,85652,2,0,L|262:175,1,144,8|0,0:0|0:0,0:0:0:0:
297,142,85968,5,14,0:0:0:0:
297,142,86126,2,0,P|349:160|415:172,1,96,8|0,0:1|0:0,0:0:0:0:
448,298,86442,1,8,0:0:0:0:
480,207,86600,5,10,0:1:0:0:
298,257,86758,1,8,0:1:0:0:
388,168,86916,1,10,0:0:0:0:
360,334,87074,1,8,0:1:0:0:
207,176,87231,6,0,P|262:151|321:137,1,96,6|0,0:1|0:0,0:0:0:0:
480,207,87547,1,8,0:1:0:0:
298,257,87705,1,8,0:1:0:0:
448,298,87863,1,8,0:1:0:0:
388,168,88021,1,8,0:1:0:0:
207,176,88179,6,0,P|218:260|235:370,1,192,6|0,0:0|0:0,0:0:0:0:
234,366,88652,1,8,0:1:0:0:
393,264,88810,2,0,P|342:257|275:259,1,96,8|0,0:0|0:0,0:0:0:0:
185,287,89126,1,8,0:1:0:0:
296,141,89284,1,8,0:1:0:0:
481,168,89442,2,0,P|456:234|393:264,1,144,8|0,0:0|0:0,0:0:0:0:
388,168,89758,5,10,0:1:0:0:
508,294,89916,1,8,0:1:0:0:
297,256,90074,1,8,0:1:0:0:
481,168,90231,1,8,0:1:0:0:
360,334,90389,1,8,0:1:0:0:
296,141,90547,1,8,0:1:0:0:
202,284,90705,6,0,P|290:276|415:260,1,192,6|0,0:0|0:0,0:0:0:0:
392,263,91179,1,8,0:1:0:0:
357,70,91337,2,0,P|313:108|291:153,1,96,8|0,0:0|0:0,0:0:0:0:
392,263,91652,1,8,0:1:0:0:
203,169,91810,1,8,0:1:0:0:
457,147,91968,2,0,P|454:197|360:269,1,144,8|0,0:0|0:0,0:0:0:0:
296,249,92284,6,0,P|348:254|393:262,1,96,6|0,0:1|0:0,0:0:0:0:
295,140,92600,2,0,P|249:157|199:170,1,96,8|8,0:0|0:1,0:0:0:0:
202,284,92916,1,8,0:1:0:0:
295,140,93074,1,8,0:1:0:0:
56,97,93231,2,0,P|67:148|87:225,1,96,8|0,0:0|0:0,0:0:0:0:
202,284,93547,5,10,0:1:0:0:
96,107,93705,1,8,0:1:0:0:
295,140,93863,2,0,L|279:304,1,144,8|0,0:0|0:0,0:0:0:0:
276,331,94179,1,8,0:1:0:0:
202,165,94337,1,8,0:1:0:0:
391,261,94495,2,0,P|302:270|232:275,1,144,8|0,0:0|0:0,0:0:0:0:
202,284,94810,6,0,P|185:214|171:107,1,144,6|0,0:0|0:0,0:0:0:0:
206,105,95126,1,8,0:1:0:0:
390,261,95284,2,0,P|469:235|496:178,1,144,8|0,0:0|0:0,0:0:0:0:
471,141,95600,1,8,0:1:0:0:
295,140,95758,2,0,L|315:295,1,144,8|0,0:0|0:0,0:0:0:0:
292,322,96074,5,10,0:1:0:0:
401,163,96231,1,8,0:1:0:0:
203,219,96389,1,8,0:1:0:0:
390,261,96547,1,8,0:0:0:0:
247,349,96705,1,8,0:1:0:0:
295,140,96863,1,8,0:3:0:0:
421,296,97021,2,0,P|348:284|276:264,1,144,8|0,0:0|0:0,0:0:0:0:
203,219,97337,6,0,P|114:264|147:354,1,192,6|8,0:1|0:1,0:0:0:0:
129,340,97810,1,8,0:0:0:0:
280,265,97968,2,0,P|278:226|280:137,1,96,10|0,0:1|0:0,0:0:0:0:
383,160,98284,2,0,P|406:131|442:76,1,96,8|0,0:0|0:0,0:0:0:0:
328,44,98600,5,14,0:1:0:0:
328,44,98758,1,0,0:0:0:0:
443,202,98916,2,0,P|431:261|408:328,1,96,8|8,0:0|0:1,0:0:0:0:
280,265,99231,2,0,P|266:212|243:148,1,96,8|0,0:1|0:0,0:0:0:0:
120,196,99547,2,0,P|122:267|128:339,1,144,8|0,0:0|0:0,0:0:0:0:
176,345,99863,6,0,B|243:353|289:302|289:302|277:328|275:379,1,192,14|8,0:0|0:0,0:0:0:0:
420,295,100337,2,0,B|436:217|460:174|460:174|431:155|398:122,1,192,8|8,0:1|0:1,0:0:0:0:
222,55,100810,2,0,P|224:155|284:176,1,144,8|0,0:0|0:0,0:0:0:0:
225,213,101126,6,0,B|155:198|97:227|97:227|134:233|175:252,1,192,14|8,0:1|0:0,0:0:0:0:
386,226,101600,2,0,P|397:180|419:102,1,96,8|0,0:1|0:0,0:0:0:0:
222,55,101916,1,8,0:1:0:0:
222,55,101995,1,8,0:1:0:0:
222,55,102074,1,8,0:0:0:0:
270,259,102389,5,10,0:1:0:0:
409,132,102547,1,8,0:1:0:0:
159,155,102705,1,8,0:1:0:0:
420,295,102863,5,10,0:1:0:0:
151,285,103021,1,8,0:1:0:0:
409,132,103179,1,8,0:1:0:0:
178,82,103337,6,0,B|40:136|40:136|90:29|90:29|140:192|140:192|168:176|196:169|196:169|267:228|267:228|202:250|148:286,1,720.000027465821,14|0,0:0|0:0,0:0:0:0:
151,285,106495,6,0,P|187:307|231:325,1,72.0000027465821,0|0,0:0|0:0,0:0:0:0:
285,258,106810,2,0,P|321:248|372:238,1,72.0000027465821,0|0,0:0|0:0,0:0:0:0:
440,279,107126,2,0,P|480:279|516:215,1,108.000004119873,0|0,0:0|0:0,0:0:0:0:
511,154,107442,6,0,P|449:147|400:136,1,96,14|8,0:0|0:1,0:0:0:0:
309,41,107758,2,0,P|267:89|232:139,1,96,8|8,0:1|0:3,0:0:0:0:
354,240,108074,2,0,P|344:300|319:352,2,96,8|8|8,0:0|0:1|0:1,0:0:0:0:
215,279,108547,6,0,P|172:251|147:210,2,96,8|8|8,0:0|0:1|0:1,0:0:0:0:
247,114,109021,2,0,P|188:119|130:120,1,96,8|8,0:0|0:1,0:0:0:0:
21,56,109337,1,8,0:0:0:0:
163,33,109495,1,8,0:1:0:0:
149,213,109652,2,0,P|90:191|57:134,1,96,8|8,0:0|0:1,0:0:0:0:
247,114,109968,6,0,P|246:168|251:213,1,96,10|8,0:0|0:1,0:0:0:0:
390,245,110284,1,8,0:1:0:0:
435,151,110442,2,0,P|388:123|347:104,1,96,8|8,0:0|0:1,0:0:0:0:
250,209,110758,1,8,0:1:0:0:
309,296,110916,2,0,P|356:269|392:243,1,96,8|8,0:0|0:1,0:0:0:0:
350,106,111232,1,8,0:1:0:0:
250,209,111389,5,8,0:0:0:0:
221,209,111468,1,8,0:3:0:0:
192,204,111547,1,8,0:3:0:0:
163,197,111626,1,8,0:3:0:0:
136,186,111705,1,8,0:3:0:0:
266,93,111863,6,0,L|277:15,1,48,8|0,0:0|0:0,0:0:0:0:
250,209,112021,2,0,L|257:260,1,47.9999985351563,8|0,0:1|0:0,0:0:0:0:
367,182,112179,6,0,P|330:121|266:93,1,144,8|0,0:0|0:0,0:0:0:0:
219,92,112495,5,8,0:0:0:0:
136,186,112652,1,8,0:1:0:0:
136,186,112810,1,8,0:1:0:0:
250,209,112968,5,8,0:0:0:0:
150,302,113125,1,8,0:1:0:0:
150,302,113283,1,8,0:1:0:0:
233,384,113442,6,0,P|257:356|287:285,1,96,8|8,0:0|0:1,0:0:0:0:
265,92,113758,5,8,0:1:0:0:
242,292,113916,1,8,0:0:0:0:
367,182,114074,1,8,0:1:0:0:
136,186,114231,1,8,0:1:0:0:
343,336,114389,5,8,0:0:0:0:
343,336,114468,1,8,0:3:0:0:
343,336,114547,2,0,P|392:313|416:303,1,48,8|0,0:3|0:0,0:0:0:0:
242,292,114705,6,0,P|171:287|124:207,1,144,8|0,0:0|0:0,0:0:0:0:
136,186,115021,6,0,P|180:173|242:159,1,96,14|0,0:0|0:0,0:0:0:0:
229,162,115258,1,8,0:1:0:0:
229,162,115337,1,8,0:1:0:0:
114,80,115495,2,0,L|93:33,2,48,0|8|8,0:0|0:1|0:1,0:0:0:0:
13,188,115802,6,0,P|23:246|31:321,1,96,8|8,0:1|0:1,0:0:0:0:
167,345,116102,1,14,0:0:0:0:
167,345,116891,6,0,P|107:351|36:374,2,96,10|8|8,0:1|0:1|0:1,0:0:0:0:
256,192,117365,1,14,0:1:0:0:
256,192,117444,12,0,124944,0:0:0:0:
