osu file format v14

[General]
AudioFilename: 1.mp3
AudioLeadIn: 1500
PreviewTime: 63141
Countdown: 0
SampleSet: Soft
StackLeniency: 0.7
Mode: 0
LetterboxInBreaks: 1
EpilepsyWarning: 1
WidescreenStoryboard: 1

[Editor]
Bookmarks: 70504
DistanceSpacing: 1
BeatDivisor: 2
GridSize: 4
TimelineZoom: 0.9999999

[Metadata]
Title:Kuai Dian Gao Su Ni
TitleUnicode:快点告诉你
Artist:Li Meng Di
ArtistUnicode:李梦迪
Creator:moonlightleaf
Version:Normal
Source:动画城
Tags:Animation City CCTV Cartoon liangv587 Dong Hua Cheng
BeatmapID:745061
BeatmapSetID:336686

[Difficulty]
HPDrainRate:3
CircleSize:3.5
OverallDifficulty:4
ApproachRate:5
SliderMultiplier:1.2
SliderTickRate:1

[Events]
//Background and Video events
0,0,"bg.jpg",0,0
//Break Periods
2,63341,69304
//Storyboard Layer 0 (Background)
//Storyboard Layer 1 (Fail)
//Storyboard Layer 2 (Pass)
//Storyboard Layer 3 (Foreground)
//Storyboard Sound Samples

[TimingPoints]
550,460.22858019483,4,2,1,60,1,0
4231,-100,4,2,1,60,0,0
44731,-100,4,2,1,70,0,1
63141,-100,4,2,1,60,0,0
99959,-100,4,2,1,70,0,1
118368,-100,4,2,1,60,0,0
118828,-100,4,2,1,50,0,0
119058,-100,4,2,1,45,0,0
119288,-100,4,2,1,40,0,0
119749,-100,4,2,1,30,0,0
120209,-100,4,2,1,70,0,1
122050,-100,4,2,1,70,0,0

[Colours]
Combo1 : 255,188,155
Combo2 : 128,255,255
Combo3 : 128,64,64
Combo4 : 255,0,0

[HitObjects]
92,96,550,6,0,L|95:155,1,60,6|0,1:2|0:0,0:0:0:0:
100,216,1010,2,0,L|103:275,1,60,0|0,0:0|0:0,0:0:0:0:
108,336,1470,1,2,0:0:0:0:
219,292,1930,2,0,L|275:269,1,60,0|0,0:0|0:0,0:0:0:0:
332,248,2390,1,2,1:2:0:0:
252,156,2851,2,0,L|244:88,1,60,0|2,0:0|0:0,0:0:0:0:
296,64,3311,2,0,P|350:87|378:139,1,120,2|0,2:0|0:0,0:0:0:0:
392,256,4231,6,0,L|388:320,1,60,0|0,1:0|0:0,0:0:0:0:
336,348,4692,2,0,L|308:292,1,60,2|0,0:0|0:0,0:0:0:0:
255,268,5152,2,0,P|198:283|138:279,1,120,2|2,0:0|0:0,0:0:0:0:
56,192,6072,1,0,1:0:0:0:
56,192,6302,1,2,0:0:0:0:
24,76,6763,2,0,P|83:74|135:103,1,120,2|0,0:0|0:0,0:0:0:0:
164,156,7453,2,0,L|167:215,1,60,0|0,3:0|3:0,0:0:0:0:
204,264,7913,6,0,L|257:235,1,60,4|2,1:2|0:0,0:0:0:0:
312,216,8373,2,0,P|334:271|327:330,1,120,8|0,0:0|0:0,0:0:0:0:
448,316,9294,2,0,L|472:236,1,60,8|2,0:0|0:0,0:0:0:0:
476,200,9754,2,0,P|456:132|388:88,1,120,0|8,1:0|0:0,0:0:0:0:
367,76,10444,2,0,P|311:94|251:90,1,120,2|0,0:2|0:0,0:0:0:0:
196,72,11135,2,0,L|166:124,1,60,8|0,0:0|3:0,0:0:0:0:
148,180,11595,6,0,P|180:229|190:288,1,120,0|8,1:0|0:0,0:0:0:0:
176,348,12285,1,2,0:0:0:0:
120,324,12515,2,0,P|61:314|2:327,1,120,0|8,0:0|0:0,0:0:0:0:
24,208,13436,2,0,P|27:148|31:88,1,120,0|8,1:0|0:0,0:0:0:0:
68,40,14126,2,0,P|127:47|186:42,1,120,0|0,1:0|0:0,0:0:0:0:
248,40,14817,2,0,L|308:40,1,60,8|8,0:0|0:0,0:0:0:0:
368,40,15277,5,4,0:1:0:0:
448,128,15737,1,8,0:0:0:0:
412,244,16197,2,0,P|412:303|383:355,1,120,2|8,0:0|0:0,0:0:0:0:
296,273,17118,1,0,0:0:0:0:
220,180,17578,2,0,P|190:180|160:186,1,60,8|0,0:0|0:0,0:0:0:0:
104,212,18038,1,2,0:0:0:0:
8,280,18498,1,8,0:0:0:0:
11,160,18959,6,0,P|20:131|26:101,1,60,0|2,0:0|0:0,0:0:0:0:
72,64,19419,2,0,P|102:60|132:55,1,60,8|0,0:0|0:0,0:0:0:0:
188,36,19879,1,2,0:0:0:0:
288,100,20339,2,0,P|267:121|248:145,1,60,8|2,0:0|0:0,0:0:0:0:
216,196,20800,1,0,0:0:0:0:
180,312,21260,1,8,0:0:0:0:
99,223,21720,1,2,0:0:0:0:
216,196,22180,2,0,L|255:241,1,60,8|2,0:0|0:0,0:0:0:0:
300,284,22640,6,0,P|358:296|415:280,1,120,0|8,0:0|0:0,0:0:0:0:
472,176,23561,2,0,P|413:163|356:179,1,120,2|8,0:0|0:0,0:0:0:0:
244,224,24481,1,0,0:0:0:0:
149,150,24942,2,0,P|146:120|142:90,1,60,8|0,0:0|0:0,0:0:0:0:
187,51,25402,2,0,P|217:54|247:55,1,60,2|0,0:0|0:0,0:0:0:0:
304,76,25862,2,0,P|300:105|301:135,1,60,8|2,0:0|0:0,0:0:0:0:
328,188,26322,6,0,P|337:247|330:306,1,120,0|8,0:0|0:0,0:0:0:0:
236,348,27243,1,2,0:0:0:0:
180,240,27703,2,0,L|222:197,1,60,8|2,0:0|0:0,0:0:0:0:
259,151,28163,2,0,P|159:96|57:150,1,240,0|0,0:0|0:0,0:0:0:0:
36,268,29544,1,8,0:0:0:0:
116,359,30004,6,0,P|148:310|155:251,1,120,4|8,0:1|0:0,0:0:0:0:
160,132,30925,1,2,0:0:0:0:
240,44,31385,1,8,0:0:0:0:
352,84,31845,1,0,0:0:0:0:
472,95,32305,2,0,P|481:124|486:153,1,60,8|0,0:0|0:0,0:0:0:0:
504,212,32766,2,0,P|501:241|498:271,1,60,2|0,0:0|0:0,0:0:0:0:
441,289,33226,2,0,P|429:261|412:236,1,60,8|2,0:0|0:0,0:0:0:0:
375,190,33686,6,0,P|318:175|261:192,1,120,0|8,0:0|0:0,0:0:0:0:
208,224,34376,1,0,0:0:0:0:
176,272,34606,2,0,P|119:287|62:270,1,120,2|8,0:0|0:0,0:0:0:0:
16,232,35297,2,0,P|12:172|33:117,1,120,2|2,0:0|0:0,0:0:0:0:
80,76,35987,1,8,0:0:0:0:
196,44,36447,2,0,P|225:48|255:48,1,60,2|0,0:0|0:0,0:0:0:0:
284,99,36908,2,0,L|283:129|282:159,1,60,8|2,0:0|0:0,0:0:0:0:
264,216,37368,5,0,0:0:0:0:
236,332,37828,1,8,0:0:0:0:
352,304,38288,2,0,P|409:287|468:276,1,120,2|8,0:0|0:0,0:0:0:0:
508,164,39209,1,0,0:0:0:0:
495,46,39669,2,0,P|473:67|454:90,1,60,8|0,0:0|0:0,0:0:0:0:
408,128,40129,2,0,P|350:111|291:100,1,120,2|8,0:0|0:0,0:0:0:0:
172,92,41050,6,0,P|168:151|157:210,1,120,0|8,0:0|0:0,0:0:0:0:
124,260,41740,2,0,L|164:328,1,60,0|2,0:0|0:0,0:0:0:0:
212,328,42200,2,0,B|247:322|247:322|291:326|291:326|331:322,1,120,0|2,0:0|0:0,0:0:0:0:
392,316,42891,2,0,P|451:316|506:339,2,120,0|8|0,0:0|0:0|0:0,0:0:0:0:
352,271,44041,1,0,3:0:0:0:
320,220,44271,2,0,L|296:148,1,60,0|0,3:0|3:0,0:0:0:0:
275,109,44731,6,0,P|216:119|157:112,2,120,4|8|0,0:0|0:1|0:0,0:0:0:0:
376,48,46112,2,0,P|398:77|424:104,1,60,8|0,0:1|0:0,0:0:0:0:
444,148,46572,2,0,B|452:188|452:188|436:224|437:265,1,120,0|8,0:0|0:1,0:0:0:0:
416,320,47263,1,0,0:0:0:0:
364,352,47493,1,0,0:0:0:0:
248,325,47953,1,8,0:1:0:0:
128,340,48413,6,0,B|96:352|96:352|48:332|48:332|16:344,2,120,0|8|0,0:0|0:1|0:0,0:0:0:0:
232,280,49794,2,0,L|260:227,1,60,8|0,0:1|0:0,0:0:0:0:
284,172,50254,2,0,P|288:112|267:56,1,120,0|8,0:0|0:1,0:0:0:0:
216,28,50945,1,0,0:0:0:0:
180,76,51175,2,0,P|124:96|64:90,1,120,0|8,0:0|3:1,0:0:0:0:
16,128,51865,1,8,3:1:0:0:
20,188,52095,6,0,L|23:247,1,60,4|0,0:0|0:0,0:0:0:0:
47,303,52555,2,0,P|106:304|164:320,1,120,8|0,0:1|0:0,0:0:0:0:
284,308,53476,2,0,L|297:249,1,60,8|0,0:1|0:0,0:0:0:0:
320,192,53936,2,0,B|378:183|378:183|438:195,2,120,0|8|0,0:0|0:1|0:0,0:0:0:0:
204,224,55317,1,8,0:1:0:0:
284,308,55777,6,0,B|340:324|340:324|400:309,1,120,0|8,0:0|0:1,0:0:0:0:
452,280,56467,1,0,0:0:0:0:
496,240,56697,2,0,P|500:210|505:180,1,60,0|0,0:0|0:0,0:0:0:0:
491,122,57158,2,0,P|461:116|432:109,1,60,8|0,0:1|0:0,0:0:0:0:
375,91,57618,2,0,P|317:81|259:94,2,120,0|8|0,0:0|0:1|0:0,0:0:0:0:
438,196,58999,2,0,L|430:255,1,60,8|8,3:1|3:1,0:0:0:0:
400,308,59459,6,0,P|340:301|283:318,1,120,4|8,0:0|0:1,0:0:0:0:
232,348,60149,1,0,0:0:0:0:
180,316,60379,2,0,P|154:261|124:209,2,120,4|8|4,0:0|0:1|0:1,0:0:0:0:
256,224,61760,1,8,0:1:0:0:
216,112,62220,2,0,L|144:96,1,60,0|0,0:0|3:0,0:0:0:0:
100,90,62680,2,0,P|94:120|91:150,1,60,8|8,3:1|3:1,0:0:0:0:
88,210,63141,5,6,1:2:0:0:
169,269,70504,6,0,P|164:209|179:152,1,120,4|8,0:1|0:0,0:0:0:0:
256,60,71425,1,2,0:0:0:0:
304,172,71885,1,8,0:0:0:0:
373,76,72345,1,0,0:0:0:0:
492,73,72805,2,0,P|488:102|485:132,1,60,8|0,0:0|0:0,0:0:0:0:
476,191,73266,1,2,0:0:0:0:
380,264,73726,1,8,0:0:0:0:
303,171,74186,6,0,L|240:172,1,60,0|2,0:0|0:0,0:0:0:0:
184,184,74646,2,0,L|164:248,1,60,8|0,0:0|0:0,0:0:0:0:
148,300,75107,1,2,0:0:0:0:
251,359,75567,2,0,P|274:340|304:324,1,60,8|2,0:0|0:0,0:0:0:0:
360,312,76027,1,0,0:0:0:0:
420,312,76257,1,2,0:0:0:0:
479,324,76487,1,8,0:0:0:0:
500,204,76947,2,0,P|503:174|509:144,1,60,2|0,0:0|0:0,0:0:0:0:
481,92,77408,2,0,P|451:85|423:76,1,60,8|2,0:0|0:0,0:0:0:0:
364,60,77868,5,0,0:0:0:0:
246,38,78328,1,8,0:0:0:0:
263,156,78788,2,0,P|206:168|149:151,1,120,2|8,0:0|0:0,0:0:0:0:
48,216,79709,2,0,P|55:275|52:335,2,120,0|8|2,0:0|0:0|0:0,0:0:0:0:
56,96,81090,1,8,0:0:0:0:
176,75,81550,6,0,P|234:64|292:78,2,120,0|8|2,0:0|0:0|0:0,0:0:0:0:
136,188,82930,2,0,L|147:247,1,60,8|2,0:0|0:0,0:0:0:0:
160,303,83391,2,0,P|265:349|361:286,1,240,0|0,0:0|0:0,0:0:0:0:
416,180,84771,1,8,0:0:0:0:
336,88,85232,6,0,P|303:137|297:197,1,120,4|8,0:1|0:0,0:0:0:0:
292,316,86152,1,2,0:0:0:0:
400,260,86612,1,8,0:0:0:0:
298,196,87072,1,0,0:0:0:0:
180,208,87533,2,0,P|155:225|132:244,1,60,8|0,0:0|0:0,0:0:0:0:
88,284,87993,2,0,P|63:267|44:244,1,60,2|0,0:0|0:0,0:0:0:0:
24,188,88453,2,0,P|20:158|17:128,1,60,8|2,0:0|0:0,0:0:0:0:
68,96,88913,6,0,P|123:74|182:80,1,120,0|8,0:0|0:0,0:0:0:0:
240,100,89604,1,0,0:0:0:0:
280,144,89834,2,0,P|338:152|396:138,1,120,2|8,0:0|0:0,0:0:0:0:
456,119,90524,2,0,P|471:177|460:235,1,120,2|2,0:0|0:0,0:0:0:0:
432,288,91215,1,8,0:0:0:0:
332,224,91675,2,0,L|277:248,1,60,2|0,0:0|0:0,0:0:0:0:
224,276,92135,2,0,L|169:301,1,60,8|2,0:0|0:0,0:0:0:0:
116,328,92595,5,0,0:0:0:0:
24,252,93055,1,8,0:0:0:0:
136,204,93516,2,0,P|178:162|197:105,1,120,2|8,0:0|0:0,0:0:0:0:
296,36,94436,1,0,0:0:0:0:
400,100,94896,2,0,L|400:160,1,60,8|0,0:0|0:0,0:0:0:0:
396,220,95357,2,0,B|342:239|342:239|306:291,1,120,2|8,0:0|0:0,0:0:0:0:
188,296,96277,6,0,B|152:244|152:244|99:224,1,120,0|8,0:0|0:0,0:0:0:0:
48,196,96967,2,0,L|30:138,1,60,0|2,0:0|0:0,0:0:0:0:
20,80,97428,2,0,B|55:86|55:86|99:82|99:82|139:86,1,120,0|2,0:0|0:0,0:0:0:0:
200,88,98118,2,0,P|259:88|314:111,2,120,0|8|0,0:0|0:0|3:0,0:0:0:0:
168,140,99269,1,0,3:0:0:0:
156,200,99499,2,0,L|144:258,1,60,8|0,3:2|3:0,0:0:0:0:
119,312,99959,6,0,P|61:301|2:308,2,120,4|8|0,0:0|0:1|0:0,0:0:0:0:
240,332,101340,2,0,L|298:320,1,60,8|0,0:1|0:0,0:0:0:0:
356,300,101800,2,0,B|364:260|364:260|348:224|349:183,1,120,0|8,0:0|0:1,0:0:0:0:
360,124,102490,1,0,0:0:0:0:
380,68,102720,1,0,0:0:0:0:
464,152,103180,1,8,0:1:0:0:
349,183,103641,6,0,B|317:171|317:171|269:191|269:191|237:179,2,120,0|8|0,0:0|0:1|0:0,0:0:0:0:
428,272,105021,2,0,L|430:331,1,60,8|0,0:1|0:0,0:0:0:0:
372,348,105482,2,0,P|313:335|255:349,1,120,0|8,0:0|0:1,0:0:0:0:
196,352,106172,1,0,0:0:0:0:
139,335,106402,2,0,P|123:278|91:228,1,120,0|8,0:0|3:1,0:0:0:0:
52,180,107092,1,8,3:1:0:0:
52,120,107323,6,0,L|69:62,1,60,4|0,0:0|0:0,0:0:0:0:
132,64,107783,2,0,P|186:89|244:102,1,120,8|0,0:1|0:0,0:0:0:0:
320,196,108703,2,0,L|333:255,1,60,8|0,0:1|0:0,0:0:0:0:
352,312,109163,2,0,B|412:320|412:320|470:311,2,120,0|8|0,0:0|0:1|0:0,0:0:0:0:
236,280,110544,1,8,0:1:0:0:
320,196,111004,6,0,L|374:171,1,60,0|0,0:0|0:0,0:0:0:0:
428,139,111465,2,0,P|435:80|458:25,1,120,8|0,0:1|0:0,0:0:0:0:
340,36,112385,2,0,L|291:70,1,60,8|0,0:1|0:0,0:0:0:0:
243,103,112845,2,0,P|186:87|139:50,2,120,0|8|0,0:0|0:1|0:0,0:0:0:0:
288,144,113996,1,0,0:0:0:0:
328,192,114226,2,0,L|335:251,1,60,8|8,3:1|3:1,0:0:0:0:
316,309,114686,6,0,P|261:285|201:284,1,120,4|8,0:0|0:1,0:0:0:0:
156,324,115377,1,0,0:0:0:0:
95,323,115607,2,0,P|42:298|10:248,2,120,4|8|4,0:0|0:1|0:1,0:0:0:0:
124,208,116987,1,8,0:1:0:0:
87,92,117448,2,0,P|114:78|142:67,1,60,0|0,0:0|0:0,0:0:0:0:
201,84,117908,2,0,P|230:88|260:84,1,60,8|8,3:1|3:1,0:0:0:0:
320,88,118368,6,0,P|379:97|432:123,1,120,4|0,0:0|0:0,0:0:0:0:
472,168,119058,1,0,0:0:0:0:
455,228,119288,2,0,P|444:286|451:346,2,120,0|0|4,0:0|0:0|0:1,0:0:0:0:
340,196,120669,2,0,L|238:259,1,120,8|0,0:1|0:0,0:0:0:0:
188,292,121360,1,0,3:0:0:0:
128,296,121590,2,0,L|93:247,1,60,8|0,3:1|3:0,0:0:0:0:
60,196,122050,6,0,P|71:137|105:88,1,120,0|0,0:0|0:0,0:0:0:0:
152,48,122740,1,8,0:0:0:0:
212,40,122970,2,0,P|270:51|329:42,1,120,0|0,0:0|0:0,0:0:0:0:
388,28,123661,1,8,0:0:0:0:
444,52,123891,6,0,L|457:110,1,60,4|4,0:0|0:0,0:0:0:0:
