osu file format v14

[General]
AudioFilename: 1.mp3
AudioLeadIn: 1500
PreviewTime: 63141
Countdown: 0
SampleSet: Soft
StackLeniency: 0.7
Mode: 0
LetterboxInBreaks: 1
EpilepsyWarning: 1
WidescreenStoryboard: 1

[Editor]
DistanceSpacing: 2
BeatDivisor: 4
GridSize: 4
TimelineZoom: 1.6

[Metadata]
Title:Kuai Dian Gao Su Ni
TitleUnicode:快点告诉你
Artist:Li Meng Di
ArtistUnicode:李梦迪
Creator:moonlightleaf
Version:Insane
Source:动画城
Tags:Animation City CCTV Cartoon liangv587 Dong Hua Cheng
BeatmapID:748977
BeatmapSetID:336686

[Difficulty]
HPDrainRate:6
CircleSize:4
OverallDifficulty:7
ApproachRate:8
SliderMultiplier:1.5
SliderTickRate:1

[Events]
//Background and Video events
0,0,"bg.jpg",0,0
//Break Periods
2,63341,69754
//Storyboard Layer 0 (Background)
//Storyboard Layer 1 (Fail)
//Storyboard Layer 2 (Pass)
//Storyboard Layer 3 (Foreground)
//Storyboard Sound Samples

[TimingPoints]
550,460.22858019483,4,2,1,60,1,0
3311,-100,4,1,1,40,0,0
3426,-100,4,1,2,50,0,0
3541,-100,4,1,1,60,0,0
3656,-100,4,1,2,70,0,0
3771,-100,4,1,1,60,0,0
3886,-100,4,1,2,40,0,0
4001,-100,4,1,1,20,0,0
4231,-100,4,2,1,60,0,0
44731,-100,4,2,1,70,0,1
63141,-100,4,2,1,60,0,0
99959,-100,4,2,1,70,0,1
118368,-100,4,2,1,60,0,0
118828,-100,4,2,1,50,0,0
119288,-100,4,2,1,40,0,0
119749,-100,4,2,1,30,0,0
120209,-100,4,2,1,70,0,1
122050,-100,4,2,1,70,0,0

[Colours]
Combo1 : 255,188,155
Combo2 : 128,255,255
Combo3 : 128,64,64
Combo4 : 255,0,0

[HitObjects]
292,232,550,6,0,P|296:269|289:305,1,75,6|0,1:2|0:0,0:0:0:0:
200,264,1010,2,0,P|195:226|202:190,1,75,0|0,0:0|0:0,0:0:0:0:
287,144,1470,2,0,P|356:165|378:233,1,150,2|0,0:0|0:0,0:0:0:0:
356,328,2160,1,0,0:0:0:0:
292,232,2390,6,0,B|224:264|224:264|149:263,1,150,2|0,1:2|0:0,0:0:0:0:
88,188,3081,1,2,0:0:0:0:
51,96,3311,2,2,P|133:25|234:61,1,225,0|2,2:0|2:1,0:0:0:0:
287,144,4231,5,0,1:0:0:0:
360,206,4461,1,0,0:0:0:0:
423,132,4692,1,2,0:0:0:0:
348,69,4922,1,0,0:0:0:0:
286,214,5152,2,0,P|331:271|402:264,1,150,2|2,0:0|0:0,0:0:0:0:
356,136,6072,5,0,1:0:0:0:
486,231,6302,2,0,P|483:304|432:356,1,150,2|2,0:0|0:0,0:0:0:0:
320,256,6993,1,2,0:0:0:0:
208,356,7223,1,0,0:0:0:0:
199,220,7453,2,0,L|197:182,1,37.5,0|0,3:0|3:0,0:0:0:0:
100,124,7683,2,0,L|101:161,1,37.5,0|0,3:0|3:0,0:0:0:0:
197,182,7913,6,0,P|263:148|335:163,1,150,4|8,1:2|0:0,0:0:0:0:
393,244,8604,1,2,0:0:0:0:
373,340,8834,2,0,B|301:312|301:312|280:242,1,150,0|8,0:0|0:0,0:0:0:0:
261,148,9524,1,2,0:0:0:0:
188,75,9754,6,0,P|153:90|125:115,1,75,0|0,1:0|0:0,0:0:0:0:
120,264,10214,2,0,P|154:249|182:224,1,75,8|2,0:0|0:2,0:0:0:0:
261,148,10675,1,0,0:0:0:0:
356,176,10905,1,0,0:0:0:0:
332,80,11135,1,8,0:0:0:0:
285,244,11365,1,0,3:0:0:0:
421,139,11595,6,0,P|428:175|420:211,1,75,0|2,1:0|0:0,0:0:0:0:
259,78,12055,2,0,P|295:71|331:79,1,75,8|2,0:0|0:0,0:0:0:0:
478,261,12515,2,0,P|411:288|352:248,1,150,0|8,0:0|0:0,0:0:0:0:
443,55,13436,6,0,L|422:203,1,150,0|8,1:0|0:0,0:0:0:0:
347,175,14126,2,0,L|357:101,2,75,0|2|0,1:0|0:0|0:0,0:0:0:0:
252,160,14817,1,8,0:0:0:0:
288,32,15047,1,8,0:0:0:0:
292,220,15277,6,0,P|256:231|220:224,1,75,4|2,0:1|0:0,0:0:0:0:
68,136,15737,2,0,P|103:124|139:131,1,75,8|0,0:0|0:0,0:0:0:0:
250,159,16197,2,0,P|258:123|247:88,1,75,2|0,0:0|0:0,0:0:0:0:
106,196,16658,2,0,P|100:232|112:268,1,75,8|2,0:0|0:0,0:0:0:0:
246,88,17118,6,0,P|318:68|392:79,1,150,0|8,0:0|0:0,0:0:0:0:
440,164,17808,1,0,0:0:0:0:
487,248,18038,1,2,0:0:0:0:
404,297,18268,1,0,0:0:0:0:
355,212,18498,1,8,0:0:0:0:
440,164,18729,1,2,0:0:0:0:
331,283,18959,6,0,P|299:267|281:234,1,75,0|2,0:0|0:0,0:0:0:0:
312,80,19419,2,0,P|344:96|362:129,1,75,8|0,0:0|0:0,0:0:0:0:
331,283,19879,2,0,P|313:315|280:332,1,75,2|0,0:0|0:0,0:0:0:0:
140,292,20339,2,0,P|157:259|190:242,1,75,8|2,0:0|0:0,0:0:0:0:
331,283,20800,5,0,0:0:0:0:
400,353,21030,1,2,0:0:0:0:
469,284,21260,1,8,0:0:0:0:
400,215,21490,1,0,0:0:0:0:
424,368,21720,1,2,0:0:0:0:
420,192,21950,1,0,0:0:0:0:
304,284,22180,1,8,0:0:0:0:
488,304,22410,1,2,0:0:0:0:
400,215,22640,6,0,L|325:215,1,75,0|2,0:0|0:0,0:0:0:0:
141,312,23101,2,0,L|216:312,1,75,8|0,0:0|0:0,0:0:0:0:
268,164,23561,2,0,L|262:89,1,75,2|0,0:0|0:0,0:0:0:0:
210,237,24021,2,0,L|215:311,1,75,8|2,0:0|0:0,0:0:0:0:
388,263,24481,2,0,P|403:193|353:142,1,150,0|8,0:0|0:0,0:0:0:0:
196,164,25172,1,0,0:0:0:0:
68,180,25402,1,2,0:0:0:0:
140,244,25632,1,0,0:0:0:0:
124,100,25862,1,8,0:0:0:0:
210,237,26092,1,2,0:0:0:0:
68,180,26322,6,0,L|50:107,1,75,0|2,0:0|0:0,0:0:0:0:
264,68,26783,2,0,L|192:91,1,75,8|0,0:0|0:0,0:0:0:0:
0,276,27243,2,0,L|71:252,1,75,2|0,0:0|0:0,0:0:0:0:
210,237,27703,2,0,L|227:309,1,75,8|2,0:0|0:0,0:0:0:0:
364,184,28163,6,0,L|380:217,1,37.5,0|0,0:0|0:0,0:0:0:0:
443,291,28393,2,0,L|444:253,1,37.5,2|0,0:0|0:0,0:0:0:0:
428,151,28623,2,0,L|444:185,1,37.5,8|0,0:0|0:0,0:0:0:0:
512,243,28854,2,0,L|512:205,1,37.5,0|0,0:0|0:0,0:0:0:0:
512,130,29084,5,0,0:0:0:0:
512,316,29314,1,2,0:0:0:0:
364,184,29544,1,8,0:0:0:0:
410,341,29774,1,2,0:0:0:0:
278,137,30004,6,0,P|267:174|267:211,1,75,4|2,0:1|0:0,0:0:0:0:
410,340,30464,2,0,P|419:304|419:267,1,75,8|0,0:0|0:0,0:0:0:0:
251,283,30925,2,0,P|288:293|325:293,1,75,2|0,0:0|0:0,0:0:0:0:
436,194,31385,2,0,P|400:185|363:183,1,75,8|2,0:0|0:0,0:0:0:0:
192,226,31845,6,0,P|180:299|190:373,2,150,0|8|2,0:0|0:0|0:0,0:0:0:0:
279,145,32996,1,0,0:0:0:0:
308,256,33226,1,8,0:0:0:0:
344,104,33456,1,2,0:0:0:0:
364,303,33686,6,0,P|333:325|296:327,1,75,0|2,0:0|0:0,0:0:0:0:
124,249,34146,2,0,P|155:228|192:226,1,75,8|0,0:0|0:0,0:0:0:0:
309,212,34606,2,0,P|299:176|279:145,1,75,2|0,0:0|0:0,0:0:0:0:
128,56,35067,2,0,P|138:91|158:123,1,75,8|2,0:0|0:0,0:0:0:0:
309,212,35527,5,0,0:0:0:0:
436,252,35757,1,2,0:0:0:0:
400,140,35987,1,8,0:0:0:0:
356,284,36217,1,0,0:0:0:0:
468,180,36447,1,2,0:0:0:0:
320,136,36677,1,0,0:0:0:0:
380,212,36908,1,8,0:0:0:0:
420,68,37138,1,2,0:0:0:0:
248,79,37368,6,0,P|236:115|233:152,1,75,0|2,0:0|0:0,0:0:0:0:
268,352,37828,2,0,P|279:316|282:279,1,75,8|0,0:0|0:0,0:0:0:0:
127,226,38288,2,0,P|164:237|201:237,1,75,2|0,0:0|0:0,0:0:0:0:
380,212,38748,2,0,P|343:201|306:201,1,75,8|2,0:0|0:0,0:0:0:0:
196,348,39209,6,0,L|196:198,1,150,0|8,0:0|0:0,0:0:0:0:
200,84,39899,1,0,0:0:0:0:
304,44,40129,1,2,0:0:0:0:
392,112,40359,1,0,0:0:0:0:
351,235,40589,2,0,P|314:236|281:220,1,75,8|2,0:0|0:0,0:0:0:0:
427,195,41050,6,0,P|440:230|433:267,1,75,0|2,0:0|0:0,0:0:0:0:
331,148,41510,2,0,P|356:121|392:112,1,75,8|0,0:0|0:0,0:0:0:0:
370,311,41970,1,2,0:0:0:0:
370,311,42200,2,0,P|322:254|252:227,1,150,0|2,0:0|0:0,0:0:0:0:
112,266,42891,6,0,L|42:291,1,75,0|0,0:0|0:0,0:0:0:0:
164,104,43351,2,0,L|173:178,1,75,8|0,0:0|0:0,0:0:0:0:
192,320,43811,1,0,0:0:0:0:
41,291,44041,1,0,3:0:0:0:
56,141,44271,1,0,3:0:0:0:
79,132,44386,1,0,3:0:0:0:
108,123,44501,1,0,3:0:0:0:
136,114,44616,1,0,3:0:0:0:
164,103,44731,6,0,P|169:67|167:29,1,75,4|0,0:0|0:0,0:0:0:0:
120,200,45192,2,0,P|115:236|117:274,1,75,8|0,0:1|0:0,0:0:0:0:
264,360,45652,2,0,P|269:324|267:286,1,75,0|0,0:0|0:0,0:0:0:0:
228,140,46112,2,0,P|261:123|298:114,1,75,8|0,0:1|0:0,0:0:0:0:
440,168,46572,5,0,0:0:0:0:
508,237,46802,1,0,0:0:0:0:
440,306,47033,1,8,0:1:0:0:
371,237,47263,1,0,0:0:0:0:
512,164,47493,1,0,0:0:0:0:
364,160,47723,1,0,0:0:0:0:
440,236,47953,1,8,0:1:0:0:
444,96,48183,1,8,0:1:0:0:
371,237,48413,6,0,P|305:208|292:137,1,150,0|8,0:0|0:1,0:0:0:0:
444,96,49104,1,0,0:0:0:0:
440,272,49334,2,0,P|436:309|438:346,1,75,0|0,0:0|0:0,0:0:0:0:
292,252,49794,2,0,P|296:214|293:177,1,75,8|0,0:1|0:0,0:0:0:0:
192,32,50254,5,0,0:0:0:0:
64,88,50484,1,0,0:0:0:0:
208,108,50714,1,8,0:1:0:0:
112,16,50945,1,0,0:0:0:0:
84,164,51175,1,0,0:0:0:0:
136,88,51405,1,0,0:0:0:0:
153,165,51635,1,8,3:1:0:0:
160,200,51750,1,0,3:0:0:0:
168,236,51865,1,8,3:1:0:0:
176,268,51980,1,0,3:0:0:0:
184,299,52095,6,0,P|152:319|128:348,1,75,4|0,0:0|0:0,0:0:0:0:
312,356,52555,2,0,P|343:336|367:307,1,75,8|0,0:1|0:0,0:0:0:0:
265,169,53016,2,0,P|260:206|264:244,1,75,0|0,0:0|0:0,0:0:0:0:
372,272,53476,1,8,0:1:0:0:
456,140,53706,1,0,0:0:0:0:
312,32,53936,6,0,P|307:69|310:106,1,75
372,272,54396,1,8,0:1:0:0:
456,140,54626,1,0,0:0:0:0:
264,92,54856,1,0,0:0:0:0:
280,268,55087,1,0,3:0:0:0:
387,164,55317,1,8,0:1:0:0:
336,340,55547,1,8,0:1:0:0:
247,193,55777,6,0,P|314:160|389:165,1,150,0|8,0:0|0:1,0:0:0:0:
458,252,56467,1,0,0:0:0:0:
394,369,56697,2,0,P|331:334|323:263,1,150,0|8,0:0|0:1,0:0:0:0:
387,164,57388,1,0,0:0:0:0:
452,324,57618,5,0,0:0:0:0:
484,182,57848,1,0,0:0:0:0:
434,22,58078,2,0,P|417:56|407:92,1,75,8|0,0:1|0:0,0:0:0:0:
457,252,58538,2,0,P|474:218|484:182,1,75,0|0,0:0|0:0,0:0:0:0:
362,238,58999,1,8,3:1:0:0:
362,238,59114,1,0,3:0:0:0:
362,238,59229,1,8,3:1:0:0:
362,238,59344,1,0,3:0:0:0:
362,238,59459,6,0,P|305:190|232:184,1,150,4|8,0:0|0:1,0:0:0:0:
124,203,60149,1,0,0:0:0:0:
129,311,60379,2,0,P|198:339|270:324,2,150,4|8|4,0:0|0:1|0:1,0:0:0:0:
12,193,61530,5,0,0:0:0:0:
73,107,61760,1,8,0:1:0:0:
158,167,61990,1,0,0:0:0:0:
99,254,62220,1,0,0:0:0:0:
12,193,62450,1,0,3:0:0:0:
73,107,62680,2,0,L|109:97,1,37.5,8|0,3:1|3:0,0:0:0:0:
194,159,62910,2,0,L|158:167,1,37.5,8|0,3:1|3:0,0:0:0:0:
99,254,63141,5,6,1:2:0:0:
296,140,70504,6,0,P|259:131|222:136,1,75,4|2,0:1|0:0,0:0:0:0:
36,239,70964,2,0,P|72:247|109:242,1,75,8|0,0:0|0:0,0:0:0:0:
191,304,71425,2,0,P|205:269|207:231,1,75,2|0,0:0|0:0,0:0:0:0:
124,96,71885,2,0,P|111:130|108:168,1,75,8|2,0:0|0:0,0:0:0:0:
192,304,72345,6,0,P|264:320|340:308,1,150,0|8,0:0|0:0,0:0:0:0:
448,272,73036,1,0,0:0:0:0:
416,160,73266,1,2,0:0:0:0:
308,196,73496,1,0,0:0:0:0:
338,309,73726,1,8,0:0:0:0:
448,272,73956,1,2,0:0:0:0:
314,123,74186,6,0,P|303:158|307:195,1,75,0|2,0:0|0:0,0:0:0:0:
443,345,74646,2,0,P|452:308|447:271,1,75,8|0,0:0|0:0,0:0:0:0:
476,119,75107,2,0,P|442:133|416:160,1,75,2|0,0:0|0:0,0:0:0:0:
277,350,75567,2,0,P|311:335|337:308,1,75,8|2,0:0|0:0,0:0:0:0:
408,224,76027,5,0,0:0:0:0:
501,83,76257,1,2,0:0:0:0:
344,172,76487,1,8,0:0:0:0:
423,38,76717,1,0,0:0:0:0:
500,173,76947,1,2,0:0:0:0:
344,172,77178,1,0,0:0:0:0:
501,83,77408,1,8,0:0:0:0:
344,83,77638,1,2,0:0:0:0:
336,272,77868,6,0,L|337:347,1,75,0|2,0:0|0:0,0:0:0:0:
236,144,78328,2,0,L|236:69,1,75,8|0,0:0|0:0,0:0:0:0:
344,172,78788,2,0,L|418:176,1,75,2|0,0:0|0:0,0:0:0:0:
240,244,79249,2,0,L|166:240,1,75,8|2,0:0|0:0,0:0:0:0:
344,172,79709,6,0,P|372:239|351:309,1,150,0|8,0:0|0:0,0:0:0:0:
240,244,80399,1,0,0:0:0:0:
164,160,80629,1,2,0:0:0:0:
96,248,80859,1,0,0:0:0:0:
164,336,81090,1,8,0:0:0:0:
240,244,81320,1,2,0:0:0:0:
316,108,81550,6,0,L|297:186,1,75,0|2,0:0|0:0,0:0:0:0:
452,188,82010,2,0,L|380:165,1,75,8|0,0:0|0:0,0:0:0:0:
240,244,82470,2,0,L|312:267,1,75,2|0,0:0|0:0,0:0:0:0:
376,324,82930,2,0,L|393:251,1,75,8|2,0:0|0:0,0:0:0:0:
404,40,83391,6,0,L|407:78,1,37.5,0|0,0:0|0:0,0:0:0:0:
384,181,83621,2,0,L|381:143,1,37.5,2|0,0:0|0:0,0:0:0:0:
324,77,83851,2,0,L|313:113,1,37.5,8|0,0:0|0:0,0:0:0:0:
252,155,84081,2,0,L|241:118,1,37.5,0|0,0:0|0:0,0:0:0:0:
225,48,84311,1,0,0:0:0:0:
139,202,84541,1,2,0:0:0:0:
143,67,84771,1,8,0:0:0:0:
252,155,85001,1,2,0:0:0:0:
412,65,85232,6,0,P|421:101|422:138,1,75,4|2,0:1|0:0,0:0:0:0:
261,228,85692,2,0,P|251:192|252:155,1,75,8|0,0:0|0:0,0:0:0:0:
448,204,86152,2,0,L|375:217,1,75,2|0,0:0|0:0,0:0:0:0:
220,88,86612,2,0,L|293:75,1,75,8|2,0:0|0:0,0:0:0:0:
374,217,87072,6,0,P|395:289|369:358,2,150,0|8|2,0:0|0:0|0:0,0:0:0:0:
299,121,88223,1,0,0:0:0:0:
196,176,88453,1,8,0:0:0:0:
277,266,88683,1,2,0:0:0:0:
352,69,88913,6,0,P|321:47|284:45,1,75,0|2,0:0|0:0,0:0:0:0:
128,152,89374,2,0,P|159:173|196:176,1,75,8|0,0:0|0:0,0:0:0:0:
298,120,89834,2,0,P|311:156|309:193,1,75,2|0,0:0|0:0,0:0:0:0:
216,316,90294,2,0,P|203:280|205:243,1,75,8|2,0:0|0:0,0:0:0:0:
298,120,90754,5,0,0:0:0:0:
440,124,90984,1,2,0:0:0:0:
376,240,91215,1,8,0:0:0:0:
368,88,91445,1,0,0:0:0:0:
452,228,91675,1,2,0:0:0:0:
300,240,91905,1,0,0:0:0:0:
372,162,92135,1,8,0:0:0:0:
384,316,92365,1,2,0:0:0:0:
234,296,92595,6,0,P|223:261|220:224,1,75,0|2,0:0|0:0,0:0:0:0:
264,24,93055,2,0,P|272:60|274:97,1,75,8|0,0:0|0:0,0:0:0:0:
132,160,93516,2,0,P|175:149|205:149,1,75,2|0,0:0|0:0,0:0:0:0:
372,162,93976,2,0,P|329:173|299:173,1,75,8|2,0:0|0:0,0:0:0:0:
208,76,94436,6,0,L|210:225,1,150,0|8,0:0|0:0,0:0:0:0:
216,340,95126,1,0,0:0:0:0:
300,264,95357,1,2,0:0:0:0:
368,352,95587,1,0,0:0:0:0:
372,232,95817,2,0,P|348:203|314:188,1,75,8|2,0:0|0:0,0:0:0:0:
158,296,96277,6,0,P|181:324|215:339,1,75,0|2,0:0|0:0,0:0:0:0:
367,352,96737,2,0,P|388:320|415:295,1,75,8|0,0:0|0:0,0:0:0:0:
440,132,97198,1,2,0:0:0:0:
440,132,97428,2,0,B|396:124|396:124|313:189,1,150,0|2,0:0|0:0,0:0:0:0:
158,296,98118,6,0,L|167:221,1,75
60,116,98578,2,0,L|130:140,1,75,8|0,0:0|0:0,0:0:0:0:
232,252,99038,1,0,3:0:0:0:
223,139,99269,1,0,3:0:0:0:
158,296,99499,1,8,3:2:0:0:
132,316,99614,1,0,3:0:0:0:
100,316,99729,1,0,3:0:0:0:
72,300,99844,1,0,3:0:0:0:
56,272,99959,6,0,P|53:234|59:197,1,75,4|0,0:0|0:0,0:0:0:0:
223,139,100419,2,0,P|259:147|292:166,1,75,8|0,0:1|0:0,0:0:0:0:
128,223,100879,2,0,P|91:215|59:197,1,75,0|0,0:0|0:0,0:0:0:0:
227,64,101340,2,0,P|228:102|223:139,1,75,8|0,0:1|0:0,0:0:0:0:
188,268,101800,5,0,0:0:0:0:
188,268,102030,1,0,0:0:0:0:
304,102,102260,1,8,0:1:0:0:
490,217,102490,1,0,0:0:0:0:
349,168,102720,5,0,0:0:0:0:
444,123,102950,1,0,3:0:0:0:
396,264,103180,1,8,0:1:0:0:
396,264,103411,1,8,0:1:0:0:
304,102,103641,6,0,P|247:149|231:221,1,150,0|8,0:0|0:1,0:0:0:0:
308,324,104331,1,0,0:0:0:0:
432,268,104561,2,0,P|435:230|430:193,1,75,0|0,0:0|0:0,0:0:0:0:
230,220,105021,2,0,P|259:242|296:246,1,75,8|0,0:1|0:0,0:0:0:0:
432,268,105482,5,0,0:0:0:0:
466,138,105712,1,0,0:0:0:0:
362,222,105942,1,8,0:1:0:0:
495,215,106172,1,0,0:0:0:0:
383,143,106402,1,0,0:0:0:0:
432,268,106632,1,0,0:0:0:0:
448,112,106862,1,8,3:1:0:0:
420,96,106977,1,0,3:0:0:0:
388,88,107092,1,8,3:1:0:0:
356,96,107207,1,0,3:0:0:0:
324,108,107323,6,0,B|303:178|229:219,1,150,4|8,0:0|0:1,0:0:0:0:
76,224,108013,1,0,0:0:0:0:
136,84,108243,2,0,P|172:93|204:111,1,75,0|0,0:0|0:0,0:0:0:0:
304,255,108703,6,0,P|327:226|346:194,1,75,8|0,0:1|0:0,0:0:0:0:
344,44,109163,1,0,0:0:0:0:
456,208,109394,1,0,0:0:0:0:
484,36,109624,2,0,L|419:74,1,75,8|0,0:1|0:0,0:0:0:0:
321,128,110084,1,0,0:0:0:0:
160,172,110314,1,0,3:0:0:0:
232,268,110544,1,8,0:1:0:0:
236,64,110774,1,8,0:1:0:0:
239,183,111004,6,0,P|302:223|375:215,1,150,0|8,0:0|0:1,0:0:0:0:
458,132,111695,1,0,0:0:0:0:
392,22,111925,2,0,P|328:56|321:128,1,150,0|8,0:0|0:1,0:0:0:0:
375,215,112615,1,0,0:0:0:0:
458,132,112845,6,0,L|456:57,1,75,0|0,0:0|0:0,0:0:0:0:
300,136,113306,2,0,L|299:210,1,75,8|0,0:1|0:0,0:0:0:0:
472,276,113766,2,0,L|472:192,1,75,0|0,0:0|0:0,0:0:0:0:
404,344,114226,1,8,3:1:0:0:
372,344,114341,1,0,3:0:0:0:
340,336,114456,1,8,3:1:0:0:
312,316,114571,1,0,3:0:0:0:
292,288,114686,6,0,P|261:220|273:147,1,150,4|8,0:0|0:1,0:0:0:0:
336,40,115377,1,0,0:0:0:0:
458,132,115607,2,0,P|485:199|463:270,2,150,4|8|4,0:0|0:1|0:1,0:0:0:0:
312,104,116757,5,0,0:0:0:0:
136,149,116987,1,8,0:1:0:0:
304,217,117217,1,0,0:0:0:0:
207,62,117448,1,0,0:0:0:0:
196,245,117678,1,0,0:0:0:0:
352,164,117908,1,8,3:1:0:0:
388,172,118023,1,0,3:0:0:0:
420,192,118138,1,8,3:1:0:0:
440,224,118253,1,0,3:0:0:0:
444,261,118368,5,4,0:0:0:0:
444,261,118828,2,0,P|379:295|306:284,2,150,0|0|0,0:0|0:0|0:0,0:0:0:0:
306,285,120209,6,0,L|295:360,1,75,4|0,0:1|0:0,0:0:0:0:
120,344,120669,2,0,L|129:269,1,75,8|0,0:1|0:0,0:0:0:0:
144,132,121129,1,0,0:0:0:0:
279,132,121360,1,0,3:0:0:0:
390,224,121590,1,8,3:1:0:0:
390,224,121705,1,0,3:0:0:0:
390,224,121820,1,0,3:0:0:0:
390,224,121935,1,0,3:0:0:0:
390,224,122050,5,0,0:0:0:0:
410,85,122280,1,8,0:0:0:0:
279,132,122510,1,0,0:0:0:0:
424,253,122740,1,8,0:0:0:0:
444,56,122970,1,0,0:0:0:0:
240,160,123200,1,8,0:0:0:0:
339,171,123431,2,0,L|351:135,1,37.5,0|0,0:0|0:0,0:0:0:0:
292,24,123661,2,0,L|280:60,1,37.5,8|0,0:0|0:0,0:0:0:0:
240,160,123891,5,4,0:0:0:0:
436,160,124121,1,4,0:0:0:0:
