osu file format v13

[General]
AudioFilename: Highlander.mp3
AudioLeadIn: 1500
PreviewTime: 35121
Countdown: 0
SampleSet: Soft
StackLeniency: 0.7
Mode: 0
LetterboxInBreaks: 0
WidescreenStoryboard: 0

[Editor]
Bookmarks: 14365,24743,35121,45500,55878,66257,76635,87014,97392,107770,118149,128527
DistanceSpacing: 1
BeatDivisor: 4
GridSize: 4
TimelineZoom: 3.000005

[Metadata]
Title:Highlander
TitleUnicode:Highlander
Artist:LhoU
ArtistUnicode:LhoU
Creator:Cherry Blossom
Version:Normal
Source:BMS
Tags:bof2013 konzertsaal be-music phase ethcore sylith skzy kin kinzo kloyd
BeatmapID:419752
BeatmapSetID:167225

[Difficulty]
HPDrainRate:4
CircleSize:3
OverallDifficulty:4
ApproachRate:5
SliderMultiplier:1.1
SliderTickRate:1

[Events]
//Background and Video events
0,0,"bghl.jpg",0,0
//Break Periods
2,66905,75435
//Storyboard Layer 0 (Background)
//Storyboard Layer 1 (Fail)
//Storyboard Layer 2 (Pass)
//Storyboard Layer 3 (Foreground)
//Storyboard Sound Samples
//Background Colour Transformations
3,100,163,162,255

[TimingPoints]
727,324.324324324324,4,2,3,25,1,0
4002,324.324324324324,4,2,2,70,1,0
4002,-111.111111111111,4,2,2,70,0,0
4083,-111.111111111111,4,2,0,70,0,0
14365,324.324324324324,4,2,2,70,1,0
14365,-100,4,2,2,70,0,0
23932,-100,4,2,2,40,0,0
24743,-90.9090909090909,4,2,3,90,0,1
24824,-90.9090909090909,4,2,1,90,0,1
35122,-90.9090909090909,4,2,3,90,0,1
35203,-90.9090909090909,4,2,1,90,0,1
44203,-90.9090909090909,4,1,1,60,0,1
44527,-90.9090909090909,4,2,1,60,0,1
44689,-90.9090909090909,4,1,1,60,0,1
45176,-90.9090909090909,4,2,2,60,0,1
45257,-90.9090909090909,4,1,2,60,0,1
45500,-100,4,2,1,70,0,0
55878,-100,4,2,3,90,0,1
55959,-100,4,2,1,70,0,0
76635,-111.111111111111,4,2,2,50,0,0
87014,-100,4,2,2,70,0,0
97392,-100,4,2,3,90,0,0
97716,-100,4,2,2,70,0,0
106473,-100,4,1,2,50,0,0
106797,-100,4,2,1,50,0,0
106959,-100,4,2,2,35,0,0
107770,-100,4,2,1,35,0,0
108095,-90.9090909090909,4,2,3,90,0,1
108176,-90.9090909090909,4,2,1,90,0,1
118149,-90.9090909090909,4,2,1,35,0,0
118473,-90.9090909090909,4,2,3,90,0,1
118554,-90.9090909090909,4,2,1,90,0,1
122041,-90.9090909090909,4,1,1,60,0,1
122365,-90.9090909090909,4,2,1,60,0,1
122446,-90.9090909090909,4,1,2,60,0,1
123338,-90.9090909090909,4,2,1,90,0,1
127149,-90.9090909090909,4,2,1,45,0,1
128527,-90.9090909090909,4,2,3,90,0,0

[Colours]
Combo1 : 255,214,70
Combo2 : 255,149,43
Combo3 : 36,123,255
Combo4 : 200,200,200

[HitObjects]
256,192,727,12,0,3321,0:0:0:0:
96,72,4002,5,2,0:0:0:0:
168,140,4326,2,0,L|432:132,1,247.499992446899,2|0,0:0|0:0,0:0:0:0:
476,212,5461,2,0,P|448:312|316:340,1,247.499992446899,0|0,0:0|0:0,0:0:0:0:
256,264,6596,5,2,0:0:0:0:
192,341,6920,2,0,P|75:323|36:212,1,247.499992446899,2|0,0:0|0:0,0:0:0:0:
52,112,8056,2,0,B|156:112|156:112|192:84,1,148.49999546814,2|2,0:0|0:0,0:0:0:0:
256,12,8866,1,0,0:0:0:0:
321,84,9191,5,2,0:0:0:0:
396,20,9515,2,0,P|412:132|299:182,1,247.4999924469,2|0,0:0|0:0,0:0:0:0:
206,183,10650,2,0,P|101:134|115:19,1,247.4999924469,0|0,0:0|0:0,0:0:0:0:
256,192,11785,12,0,14056,0:0:0:0:
256,280,14365,5,4,0:0:0:0:
178,74,15013,2,0,P|256:44|334:75,1,165,8|2,0:0|0:0,0:0:0:0:
400,160,15823,2,0,L|392:288,1,110,2|0,0:0|0:0,0:0:0:0:
348,304,16310,1,8,0:0:0:0:
256,244,16634,1,0,0:0:0:0:
164,304,16958,6,0,P|112:316|56:304,1,110,2|2,0:0|0:0,0:0:0:0:
28,200,17607,2,0,L|36:80,1,110,8|0,0:0|0:0,0:0:0:0:
40,36,18094,1,2,0:0:0:0:
144,76,18418,2,0,P|224:92|312:76,1,165,2|8,0:0|0:0,0:0:0:0:
408,32,19229,1,0,0:0:0:0:
496,96,19553,6,0,L|488:212,1,110,2|2,0:0|0:0,0:0:0:0:
404,276,20202,2,0,P|352:288|296:276,1,110,8|0,0:0|0:0,0:0:0:0:
256,240,20688,1,2,0:0:0:0:
152,276,21013,2,0,L|144:156,1,110,2|0,0:0|0:0,0:0:0:0:
104,128,21499,1,8,0:0:0:0:
152,28,21823,2,0,P|180:24|208:28,1,55
256,56,22148,6,0,P|336:68|420:56,2,165,2|2|2,0:0|0:0|0:0,0:0:0:0:
152,312,23932,2,0,B|200:304|256:336|256:336|308:304|364:316,1,220,2|2,0:0|0:0,0:0:0:0:
416,328,24742,6,0,L|424:192,1,110,4|0,0:0|0:0,0:0:0:0:
460,168,25229,1,2,0:0:0:0:
428,52,25553,2,0,P|368:64|304:52,1,121.000003692627,2|0,0:0|0:0,0:0:0:0:
256,28,26040,5,2,0:0:0:0:
140,56,26364,2,0,B|116:140|116:140|140:232,1,181.500005538941,8|2,0:0|0:0,0:0:0:0:
188,268,27013,2,0,L|328:264,1,121.000003692627,8|2,0:0|0:0,0:0:0:0:
416,204,27661,5,8,0:0:0:0:
416,204,27823,2,0,P|436:264|420:324,1,121.000003692627,2|2,0:0|0:0,0:0:0:0:
376,360,28310,2,0,L|232:352,1,121.000003692627,8|2,0:0|0:0,0:0:0:0:
136,344,28958,1,8,0:0:0:0:
36,276,29283,1,0,0:0:0:0:
68,160,29607,2,0,P|72:128|68:100,1,60.5000018463135,8|0,0:0|0:0,0:0:0:0:
40,45,29931,6,0,L|180:37,1,121.000003692627,4|0,0:0|0:0,0:0:0:0:
220,20,30418,1,2,0:0:0:0:
308,104,30742,1,2,0:0:0:0:
308,104,30904,2,0,P|368:116|432:104,1,121.000003692627,8|2,0:0|0:0,0:0:0:0:
512,200,31553,1,8,0:0:0:0:
512,200,31715,2,0,L|504:324,1,121.000003692627,2|2,0:0|0:0,0:0:0:0:
448,348,32202,2,0,P|388:360|324:348,1,121.000003692627,8|2,0:0|0:0,0:0:0:0:
212,320,32850,5,8,0:0:0:0:
92,348,33175,1,0,0:0:0:0:
56,232,33499,1,8,0:0:0:0:
176,204,33823,2,0,L|196:72,1,121.000003692627,2|8,0:0|0:0,0:0:0:0:
317,84,34472,2,0,L|336:204,1,121.000003692627,0|8,0:0|0:0,0:0:0:0:
256,300,35121,6,0,P|204:324|140:320,1,121.000003692627,4|0,0:0|0:0,0:0:0:0:
88,292,35607,1,2,0:0:0:0:
24,188,35931,1,2,0:0:0:0:
24,188,36094,2,0,L|32:56,1,121.000003692627,8|2,0:0|0:0,0:0:0:0:
148,40,36742,2,0,P|204:52|268:40,1,121.000003692627,8|0,0:0|0:0,0:0:0:0:
328,32,37229,1,2,0:0:0:0:
388,24,37391,2,0,P|448:44|480:100,1,121.000003692627,8|2,0:0|0:0,0:0:0:0:
472,212,38040,5,8,0:0:0:0:
472,212,38202,2,0,L|340:204,1,121.000003692627,2|2,0:0|0:0,0:0:0:0:
292,200,38688,2,0,P|272:260|296:316,2,121.000003692627,8|2|8,0:0|0:0|0:0,0:0:0:0:
356,96,39661,2,0,P|296:108|236:96,1,121.000003692627,0|8,0:0|0:0,0:0:0:0:
128,48,40310,6,0,L|120:192,1,121.000003692627,4|8,0:0|0:0,0:0:0:0:
72,200,40796,1,2,0:0:0:0:
92,320,41121,2,0,B|152:328|152:328|212:320,1,121.000003692627,2|0,0:0|0:0,0:0:0:0:
256,276,41607,1,2,0:0:0:0:
352,352,41932,2,0,L|496:344,2,121.000003692627,8|0|8,0:0|0:0|0:0,0:0:0:0:
256,276,42904,5,6,0:0:0:0:
200,168,43229,1,0,0:0:0:0:
200,168,43391,2,0,P|256:152|317:171,2,121.000003692627,6|6|6,0:0|0:0|0:0,0:0:0:0:
144,192,44202,2,0,L|24:188,1,121.000003692627,0|8,0:0|0:0,0:0:0:0:
40,308,44850,2,0,L|160:312,1,121.000003692627,0|2,0:0|0:0,0:0:0:0:
256,256,45499,5,4,0:0:0:0:
352,312,45823,2,0,P|428:280|448:200,1,165,8|2,0:0|0:0,0:0:0:0:
460,96,46634,1,0,0:0:0:0:
460,96,46796,2,0,B|404:104|404:104|344:92,1,110,2|8,0:0|0:0,0:0:0:0:
256,40,47445,1,0,0:0:0:0:
161,93,47769,1,8,0:0:0:0:
52,68,48094,6,0,L|56:192,1,110,2|8,0:0|0:0,0:0:0:0:
36,228,48580,1,2,0:0:0:0:
128,288,48904,1,2,0:0:0:0:
128,288,49067,2,0,P|180:296|240:288,1,110,8|2,0:0|0:0,0:0:0:0:
328,228,49715,2,0,L|336:108,2,110,8|0|8,0:0|0:0|0:0,0:0:0:0:
256,312,50688,6,0,B|220:312|220:312|184:304|184:304|144:304,1,110,4|8,0:0|0:0,0:0:0:0:
92,304,51175,1,2,0:0:0:0:
12,228,51499,2,0,P|0:176|12:120,1,110,2|0,0:0|0:0,0:0:0:0:
48,80,51985,2,0,L|164:72,1,110,2|8,0:0|0:0,0:0:0:0:
256,120,52634,2,0,L|256:192,2,55,0|2|8,0:0|0:0|0:0,0:0:0:0:
354,72,53283,6,0,P|432:88|464:160,1,165,2|2,0:0|0:0,0:0:0:0:
444,268,54094,1,0,0:0:0:0:
444,268,54256,2,0,L|324:260,1,110,8|2,0:0|0:0,0:0:0:0:
256,184,54904,1,8,0:0:0:0:
176,260,55229,2,0,P|144:264|116:260,2,55,0|0|8,0:0|0:0|0:0,0:0:0:0:
256,336,55877,6,0,P|206:367|141:361,1,110,4|8,0:0|0:0,0:0:0:0:
104,348,56364,1,2,0:0:0:0:
20,276,56688,2,0,L|16:140,1,110,2|0,0:0|0:0,0:0:0:0:
16,112,57175,2,0,P|68:112|124:92,1,110,2|8,0:0|0:0,0:0:0:0:
228,68,57823,2,0,P|256:64|284:68,1,55,0|2,0:0|0:0,0:0:0:0:
336,88,58148,2,0,P|392:96|448:88,1,110,8|2,0:0|0:0,0:0:0:0:
512,176,58796,6,0,B|500:224|500:224|512:292|512:292|504:344,1,165,8|2,0:0|0:0,0:0:0:0:
396,360,59607,2,0,P|340:368|284:360,1,110,2|2,0:0|0:0,0:0:0:0:
256,316,60094,1,8,0:0:0:0:
256,208,60418,2,0,L|256:152,2,55,0|2|8,0:0|0:0|0:0,0:0:0:0:
160,260,61067,6,0,P|104:268|52:260,1,110,4|8,0:0|0:0,0:0:0:0:
16,220,61553,2,0,L|24:100,1,110,2|2,0:0|0:0,0:0:0:0:
92,24,62202,1,0,0:0:0:0:
92,24,62364,2,0,P|144:32|200:24,1,110,2|8,0:0|0:0,0:0:0:0:
312,24,63013,2,0,P|366:15|420:23,1,110,0|8,0:0|0:0,0:0:0:0:
480,116,63661,6,0,P|472:204|408:248,1,165,6|6,0:0|0:0,0:0:0:0:
328,180,64472,1,6,0:0:0:0:
256,260,64796,1,6,0:0:0:0:
256,192,64958,12,4,66256,0:0:0:0:
160,92,76635,6,0,P|256:72|352:92,1,197.99999395752,2|8,0:0|0:0,0:0:0:0:
408,284,77932,2,0,P|456:292|508:284,2,98.9999969787599,2|2|8,0:0|0:0|0:0,0:0:0:0:
324,232,78904,1,0,0:0:0:0:
256,304,79229,2,0,L|56:296,1,197.99999395752,2|8,0:0|0:0,0:0:0:0:
120,108,80526,2,0,L|12:104,2,98.9999969787599,2|2|8,0:0|0:0|0:0,0:0:0:0:
192,40,81499,1,2,0:0:0:0:
256,116,81824,6,0,P|352:136|452:116,1,197.99999395752,2|8,0:0|0:0,0:0:0:0:
500,32,82796,2,0,P|452:20|404:32,1,98.9999969787599,2|2,0:0|0:0,0:0:0:0:
450,119,83445,1,2,0:0:0:0:
404,208,83770,2,0,P|452:220|500:208,2,98.9999969787599,8|2|2,0:0|0:0|0:0,0:0:0:0:
316,164,84742,1,2,0:0:0:0:
256,244,85067,2,0,L|156:240,1,98.9999969787599,8|2,0:0|0:0,0:0:0:0:
72,292,85715,6,0,L|8:292,2,49.4999984893799,2|2|2,0:0|0:0|0:0,0:0:0:0:
156,344,86364,2,0,L|264:340,1,98.9999969787599,2|2,0:0|0:0,0:0:0:0:
304,332,86850,1,2,0:0:0:0:
352,304,87013,6,0,P|368:252|356:208,1,98.9999969787599,4|2,0:0|0:0,0:0:0:0:
288,112,87661,2,0,L|416:100,1,110,8|0,0:0|0:0,0:0:0:0:
448,84,88148,1,2,0:0:0:0:
508,176,88472,2,0,L|500:348,1,165,2|8,0:0|0:0,0:0:0:0:
392,356,89283,1,0,0:0:0:0:
296,300,89607,6,0,B|240:308|240:308|184:300,1,110,2|2,0:0|0:0,0:0:0:0:
84,260,90256,2,0,L|80:132,1,110,8|0,0:0|0:0,0:0:0:0:
52,104,90742,1,2,0:0:0:0:
152,56,91067,2,0,P|208:68|260:56,1,110,2|0,0:0|0:0,0:0:0:0:
308,36,91553,2,0,P|361:24|414:36,2,110,8|0|2,0:0|0:0|0:0,0:0:0:0:
264,136,92526,5,2,0:0:0:0:
348,208,92850,2,0,B|400:216|400:216|460:208,1,110,8|0,0:0|0:0,0:0:0:0:
492,164,93337,1,2,0:0:0:0:
396,108,93661,1,2,0:0:0:0:
348,208,93985,1,0,0:0:0:0:
348,208,94148,2,0,L|344:332,1,110,8|0,0:0|0:0,0:0:0:0:
240,356,94796,1,2,0:0:0:0:
144,300,95121,5,2,0:0:0:0:
156,196,95445,2,0,P|100:204|44:196,1,110,8|0,0:0|0:0,0:0:0:0:
0,168,95931,2,0,L|8:52,1,110,2|2,0:0|0:0,0:0:0:0:
112,28,96580,1,0,0:0:0:0:
112,28,96742,2,0,P|164:16|220:28,1,110,8|0,0:0|0:0,0:0:0:0:
320,72,97391,6,0,L|452:68,1,110,4|0,0:0|0:0,0:0:0:0:
416,180,98040,2,0,L|284:184,1,110,8|0,0:0|0:0,0:0:0:0:
256,160,98526,1,2,0:0:0:0:
148,188,98850,2,0,P|132:236|148:296,1,110,2|0,0:0|0:0,0:0:0:0:
192,324,99337,2,0,L|320:320,1,110,8|0,0:0|0:0,0:0:0:0:
404,284,99985,6,0,P|412:224|404:168,1,110,2|2,0:0|0:0,0:0:0:0:
348,80,100634,2,0,B|292:88|292:88|240:80,1,110,8|0,0:0|0:0,0:0:0:0:
188,60,101121,1,2,0:0:0:0:
84,96,101445,2,0,L|88:216,1,110,2|0,0:0|0:0,0:0:0:0:
104,260,101931,2,0,P|156:268|212:256,1,110,8|0,0:0|0:0,0:0:0:0:
304,192,102580,6,0,P|357:180|411:188,1,110,4|2,0:0|0:0,0:0:0:0:
512,236,103229,2,0,L|512:348,1,110,8|0,0:0|0:0,0:0:0:0:
460,368,103715,1,2,0:0:0:0:
360,320,104040,2,0,B|280:332|280:332|196:320,1,165,2|8,0:0|0:0,0:0:0:0:
92,288,104850,2,0,P|84:256|92:228,1,55
104,180,105175,6,0,P|132:100|100:24,2,165,4|4|4,0:0|0:0|0:0,0:0:0:0:
24,104,106472,1,0,0:0:0:0:
104,28,106796,1,8,0:0:0:0:
204,72,107121,1,2,0:0:0:0:
188,180,107445,2,0,L|200:312,1,110,2|2,0:0|0:0,0:0:0:0:
308,344,108094,5,4,0:0:0:0:
428,340,108418,2,0,P|448:252|420:168,1,181.500005538941,2|0,0:0|0:0,0:0:0:0:
376,124,109067,2,0,P|288:100|200:124,2,181.500005538941,2|0|8,0:0|0:0|0:0,0:0:0:0:
468,204,110364,6,0,L|464:336,1,121.000003692627,2|8,0:0|0:0,0:0:0:0:
420,364,110850,1,2,0:0:0:0:
324,288,111175,1,2,0:0:0:0:
324,288,111337,2,0,L|196:284,2,121.000003692627,8|2|8,0:0|0:0|0:0,0:0:0:0:
432,232,112310,1,0,0:0:0:0:
332,164,112634,1,8,0:0:0:0:
424,84,112958,6,0,P|356:84|300:56,1,121.000003692627,4|0,0:0|0:0,0:0:0:0:
256,32,113445,1,2,0:0:0:0:
136,56,113769,2,0,P|120:112|136:176,1,121.000003692627,2|0,0:0|0:0,0:0:0:0:
170,223,114256,1,2,0:0:0:0:
256,140,114580,1,8,0:0:0:0:
344,222,114904,2,0,L|472:218,1,121.000003692627,0|8,0:0|0:0,0:0:0:0:
404,324,115553,6,0,B|344:336|344:336|284:324,1,121.000003692627,2|8,0:0|0:0,0:0:0:0:
228,312,116040,2,0,B|168:300|168:300|108:312,1,121.000003692627,2|2,0:0|0:0,0:0:0:0:
52,328,116526,1,8,0:0:0:0:
16,212,116850,2,0,L|12:84,1,121.000003692627,2|8,0:0|0:0,0:0:0:0:
108,16,117499,1,0,0:0:0:0:
164,124,117823,1,8,0:0:0:0:
256,40,118148,2,0,B|316:24|316:52|376:40,1,121.000003692627,2|4,0:0|0:0,0:0:0:0:
496,24,118796,6,0,L|488:220,1,181.500005538941,2|0,0:0|0:0,0:0:0:0:
436,240,119445,1,2,0:0:0:0:
316,216,119769,1,8,0:0:0:0:
316,216,119931,2,0,P|256:200|200:216,1,121.000003692627,2|2,0:0|0:0,0:0:0:0:
148,248,120418,1,8,0:0:0:0:
44,312,120742,6,0,L|40:184,1,121.000003692627,4|0,0:0|0:0,0:0:0:0:
36,132,121229,2,0,P|92:140|156:120,1,121.000003692627,6|6,0:0|0:0,0:0:0:0:
256,60,121877,2,0,P|313:42|372:49,1,121.000003692627,6|0,0:0|0:0,0:0:0:0:
428,76,122364,2,0,L|424:204,1,121.000003692627,8|0,0:0|0:0,0:0:0:0:
348,288,123013,1,0,0:0:0:0:
256,212,123337,6,0,P|148:164|40:208,1,242.000007385254,6|0,0:0|0:0,0:0:0:0:
8,324,124310,2,0,P|36:328|72:324,1,60.5000018463135,8|0,0:0|0:0,0:0:0:0:
128,308,124634,2,0,P|184:296|252:308,1,121.000003692627,6|8,0:0|0:0,0:0:0:0:
360,344,125283,1,6,0:0:0:0:
456,272,125607,1,8,0:0:0:0:
424,156,125931,6,0,B|384:152|384:152|344:164|344:164|300:160,1,121.000003692627,6|0,0:0|0:0,0:0:0:0:
256,124,126418,1,6,0:0:0:0:
136,140,126742,1,6,0:0:0:0:
80,248,127067,6,0,B|64:324|140:376|220:368|256:280|256:280|292:368|376:372|436:328|432:248,1,544.500016616822,6|4,0:0|0:0,0:0:0:0:
