osu file format v7

[General]
AudioFilename: L70ETC - I Am Murloc.mp3
AudioLeadIn: 0
PreviewTime: 56454
Countdown: 2
SampleSet: Normal
StackLeniency: 0.7
Mode: 0
LetterboxInBreaks: 1

[Editor]
Bookmarks: 28006,86276,114652
DistanceSpacing: 1
BeatDivisor: 6
GridSize: 8

[Metadata]
Title:I Am Murloc
Artist:Level 70 Elite Tauren Chieftain
Creator:CheeseWarlock
Version:Northrend
Source:
Tags:world of warcraft wow alliance horde metal

[Difficulty]
HPDrainRate:6
CircleSize:6
OverallDifficulty:6
SliderMultiplier:2.6
SliderTickRate:2

[Events]
//Background and Video events
0,0,"ss01.jpg"
//Break Periods
2,74566,85226
2,136476,152577
//Storyboard Layer 0 (Background)
//Storyboard Layer 1 (Fail)
//Storyboard Layer 2 (Pass)
//Storyboard Layer 3 (Foreground)
//Storyboard Sound Samples
//Background Colour Transformations
3,100,163,162,255

[TimingPoints]
2098.08219178082,414.960717052119,4,1,0,86,1,0
8737,411.460547791143,4,1,0,86,1,0
15320,401.961572473672,4,1,0,86,1,0
21749,390.960982093987,4,1,0,86,1,0
28006,378.960133393967,4,1,0,86,1,0
40132,374.95781724556,4,1,0,86,1,0
52130,369.458128078818,4,1,0,86,1,0
54900,-100,4,2,0,86,0,0
55085,684.915869500696,4,2,0,86,1,0
55427,-100,4,1,0,86,0,0
56454,603.817808219177,4,1,0,86,1,0
57663,591.917808219179,4,1,0,86,1,0
58842,572.697808219179,4,1,0,86,1,0
63425,569.21780821918,4,2,0,86,1,0
64278,-100,4,1,0,86,0,0
65703,568.127808219177,4,1,0,86,1,0
72804,-100,4,2,0,86,0,0
73372,-100,4,1,0,86,0,0
74793,351.999999999999,4,1,0,86,1,0
76201,357.999999999999,4,1,0,86,1,0
80496,361.3,4,1,0,86,1,0
86276,363.3,4,1,0,86,1,0
92088,361.3,4,1,0,86,1,0
97868,366.6,4,1,0,86,1,0
103733,363.6,4,1,0,86,1,0
109550,372.7,4,1,0,86,1,0
113277,687.655172413793,4,2,0,86,1,0
113620,-100,4,1,0,86,0,0
114652,610.955172413792,4,1,0,86,1,0
115873,598.955172413793,4,1,0,86,1,0
117070,583.055172413794,4,1,0,86,1,0
119404,577.855172413792,4,1,0,86,1,0
121716,544.655172413793,4,1,0,86,1,0
121988,-100,4,2,0,86,0,0
122532,-100,4,1,0,86,0,0
123894,573.655172413793,4,1,0,86,1,0
128483,556.655172413793,4,1,0,86,1,0
136276,543.955172413793,4,1,0,86,1,0
144979,540.555172413793,4,1,0,86,1,0
153627,542.455172413793,4,1,0,86,1,0
170985,565.755172413793,4,1,0,86,1,0
177774,584.000000000001,4,2,0,86,1,0
178358,-100,4,2,0,86,0,0
178942,569.999999999999,4,1,0,86,1,1
183502,566.1,4,1,0,86,1,1
188030,562.100000000001,4,1,0,86,1,1
194775,548.100000000002,4,2,0,86,1,1
195597,-100,4,1,0,86,0,1
198063,574.099999999999,4,1,0,86,1,0
198637,592.1,4,1,0,86,1,0
199229,-100,4,1,0,86,0,1

[Colours]
Combo1 : 216,68,61
Combo2 : 54,99,216
SliderBorder : 33,22,11

[HitObjects]
176,32,28004,1,4
272,64,28195,1,0
192,136,28384,2,0,B|328:136,1,130,8|0
424,136,28763,1,0
320,216,28953,2,0,B|184:216,1,130,8|0
88,216,29332,1,0
192,296,29521,2,2,B|272:256|368:336|448:296,1,260,2|0
424,216,30090,1,0
88,216,30469,1,0
120,272,30564,1,0
56,272,30658,1,12
336,32,31037,5,0
240,64,31226,1,0
320,136,31415,2,0,B|184:136,2,130,4|0|0
192,216,31984,2,0,B|328:216,1,130,8|0
424,216,32363,1,0
320,296,32552,2,2,B|240:256|144:336|64:296,1,260,2|0
88,216,33121,1,0
424,216,33500,1,0
392,272,33595,1,0
456,272,33689,1,12
88,328,34069,5,4
192,328,34258,1,0
320,208,34448,2,0,B|372:155|352:88,1,130,8|0
256,120,34827,1,0
192,32,35016,2,0,B|140:85|160:152,1,130,8|0
216,240,35395,1,0
352,328,35585,2,2,B|392:360|432:328|480:352,3,130,2|0|0|2
424,112,36532,1,0
392,56,36627,1,0
456,56,36722,1,12
88,56,37101,5,0
192,56,37290,1,0
320,176,37480,2,0,B|372:229|352:296,1,130,4|0
256,264,37859,1,0
160,232,38048,2,0,B|135:300|192:350,2,130,8|0|0
64,272,38616,1,0
128,160,38806,1,0
64,160,38900,1,0
96,216,38995,1,0
192,160,39185,1,0
288,128,39374,1,2
336,352,40132,5,4
240,320,40319,1,0
320,248,40506,2,0,B|184:248,1,130,8|0
88,248,40881,1,0
192,168,41069,2,0,B|328:168,1,130,8|0
424,168,41444,1,0
320,88,41631,2,2,B|240:128|144:48|64:88,1,260,2|0
88,168,42194,1,0
424,168,42569,1,0
392,112,42662,1,0
456,112,42756,1,12
176,352,43131,5,0
272,320,43319,1,0
192,248,43506,2,0,B|328:248,2,130,4|0|0
320,168,44069,2,0,B|184:168,1,130,8|0
88,168,44444,1,0
192,88,44631,2,2,B|272:128|368:48|448:88,1,260,2|0
424,168,45193,1,0
88,168,45568,1,0
120,112,45662,1,0
56,112,45756,1,12
424,56,46131,5,4
320,56,46318,1,0
192,176,46506,2,0,B|140:229|160:296,1,130,8|0
256,264,46880,1,0
320,352,47068,2,0,B|372:299|352:232,1,130,8|0
296,144,47443,1,0
160,56,47630,2,2,B|120:24|80:56|32:32,3,130,2|0|0|2
88,272,48568,1,0
120,328,48662,1,0
56,328,48755,1,12
344,328,49130,5,0
240,328,49318,1,0
400,280,49505,2,0,B|452:227|432:160,1,130,4|0
336,192,49880,1,0
240,224,50068,2,0,B|220:159|272:103,1,130,8|0
176,144,50443,1,8
80,96,50630,2,4,B|144:24|256:0|368:24|432:96,2,390,4|4|4
256,208,52868,12,4,55085
72,344,56454,6,0,B|72:208,1,130,4|0
184,344,57057,2,0,B|184:208,1,130,8|0
304,272,57663,2,0,B|318:237|352:232,1,65
416,248,57958,1,8
368,296,58106,1,8
432,312,58254,1,4
440,168,58842,2,0,B|440:32,1,130,0|0
328,168,59414,2,0,B|328:32,1,130,8|0
208,112,59987,2,0,B|193:147|160:152,1,65
144,88,60273,1,8
96,136,60416,1,8
80,72,60560,1,6
432,72,61132,5,0
256,72,61419,1,0
80,72,61705,1,0
80,312,62278,1,8
256,312,62565,1,8
432,312,62851,1,2
256,208,63137,12,4,63994
368,336,64563,5,4
464,240,64705,1,4
144,48,65132,1,6
48,144,65274,1,6
440,168,65703,6,0,B|440:32,1,130,0|0
328,168,66271,2,0,B|328:32,1,130,8|0
208,112,66839,2,0,B|196:145|160:152,1,65
144,88,67123,1,8
96,136,67265,1,8
80,72,67407,1,4
72,344,67975,2,0,B|72:208,1,130,0|0
184,344,68543,2,0,B|184:208,1,130,8|0
304,272,69111,2,0,B|320:236|352:232,1,65
416,248,69395,1,8
368,296,69537,1,8
432,312,69679,1,6
152,72,70248,5,0
360,72,70532,1,0
152,72,70816,1,0
360,312,71384,1,8
152,312,71668,1,8
360,312,71952,1,2
256,208,72236,12,4,73088
368,48,73656,5,4
464,144,73798,1,4
144,336,74224,1,6
48,240,74366,1,6
296,32,86276,5,4
392,64,86457,1,0
224,136,86639,2,0,B|360:136,1,130,8|0
456,136,87002,1,0
288,216,87184,2,0,B|144:216,1,130,8|0
56,216,87547,1,0
224,296,87729,2,2,B|304:256|400:336|480:296,1,260,2|0
456,216,88273,1,0
56,216,88637,1,0
88,272,88728,1,0
24,272,88818,1,12
456,48,89182,5,0
352,128,89364,1,0
472,168,89545,2,0,B|400:16|255:57|112:16|40:168,1,520,4|0
256,192,90453,1,0
152,240,90635,1,0
256,296,90817,2,2,B|229:362|152:360,1,130,2|0
48,312,91180,1,2
400,256,91543,1,0
464,256,91634,1,0
432,312,91724,1,12
48,184,92088,5,4
136,128,92268,1,0
152,232,92449,2,0,B|160:336|352:240|352:352,2,260,8|8|8
248,192,93352,1,0
344,144,93533,1,0
256,88,93713,2,2,B|283:22|360:24,1,130,2|0
440,88,94075,1,0
112,128,94436,1,0
48,128,94526,1,0
80,72,94617,1,12
248,192,94978,5,0
280,296,95159,1,0
376,336,95340,1,4
432,248,95520,1,0
336,208,95700,1,0
280,296,95881,2,0,B|208:242|176:320,1,130,8|0
152,216,96242,1,0
104,328,96423,2,2,B|32:272|112:192|48:80,1,260,2|0
152,104,96965,1,12
296,352,97868,5,4
392,320,98051,1,0
224,248,98234,2,0,B|360:248,1,130,8|0
456,248,98601,1,0
288,168,98784,2,0,B|144:168,1,130,8|0
56,168,99151,1,0
224,88,99334,2,2,B|304:128|401:50|480:88,1,260,2|0
456,168,99884,1,0
56,168,100250,1,0
88,112,100342,1,0
24,112,100434,1,12
296,32,100800,5,0
392,64,100984,1,0
224,136,101167,2,0,B|360:136,1,130,4|0
456,136,101533,1,0
288,216,101717,2,0,B|144:216,1,130,8|0
56,216,102083,1,0
224,296,102267,2,2,B|304:256|400:334|480:296,1,260,2|0
456,216,102817,1,0
56,216,103183,1,0
88,272,103275,1,0
24,272,103366,1,12
216,32,103733,5,4
120,64,103914,1,0
288,136,104096,1,8
224,136,104187,1,0
160,136,104278,1,0
56,136,104460,1,0
224,216,104641,2,0,B|368:216,1,130,8|0
456,216,105005,1,0
288,296,105187,2,2,B|208:256|112:336|32:296,1,260,2|0
56,216,105732,1,0
456,216,106096,1,0
424,272,106187,1,0
488,272,106278,1,12
192,48,106641,5,0
120,128,106823,1,0
224,144,107005,2,0,B|336:64|392:160|472:96,2,260,4|0|0
304,224,107914,1,0
368,224,108005,1,0
432,224,108096,1,8
376,312,108277,1,0
272,312,108459,1,0
168,312,108641,2,2,B|168:176,1,130,2|0
168,80,109005,1,0
80,144,109186,1,12
328,168,109550,1,4
256,208,109922,12,4,113277
160,224,114652,6,0,B|296:224,1,130,4|0
160,328,115262,2,0,B|24:328,1,130,8|0
360,256,115873,2,0,B|375:220|408:216,1,65,0|0
320,304,116172,1,8
384,312,116322,1,8
280,352,116471,1,4
480,144,117070,2,0,B|344:144,1,130,0|0
216,40,117653,2,0,B|352:40,1,130,8|0
96,96,118236,2,0,B|81:131|48:136,1,65
152,56,118527,1,8
152,120,118673,1,8
88,32,118819,1,6
40,248,119404,5,0
256,328,119692,1,0
472,248,119981,1,0
472,136,120559,1,8
256,56,120847,1,8
40,136,121136,1,2
256,208,121426,12,4,122260
144,336,122805,5,4
48,240,122941,1,4
368,48,123349,1,6
464,144,123486,1,6
352,224,123894,6,0,B|216:224,1,130,4|0
352,328,124467,2,0,B|488:328,1,130,8|0
152,256,125041,2,0,B|137:220|104:216,1,65,0|0
192,304,125328,1,8
128,312,125471,1,8
232,352,125615,1,4
32,144,126189,2,0,B|168:144,1,130,0|0
296,40,126762,2,0,B|160:40,1,130,8|0
416,96,127336,2,0,B|431:131|464:136,1,65
360,56,127623,1,8
360,120,127766,1,8
424,32,127910,1,6
472,248,128483,5,0
256,328,128761,1,0
40,248,129039,1,0
40,136,129596,1,8
256,56,129874,1,8
472,136,130152,1,2
256,208,130431,12,4,131266
368,336,131822,5,4
464,240,131962,1,4
144,48,132379,1,6
48,144,132518,1,6
48,240,132936,5,0
144,336,133076,1,0
368,48,133493,1,2
464,144,133632,1,2
64,48,134049,5,0
208,48,134188,1,0
448,336,134606,1,2
304,336,134745,1,2
304,48,135162,5,4
448,48,135301,1,0
208,336,135719,1,6
64,336,135858,1,2
256,104,136276,5,4
176,40,153627,6,0,B|312:40,2,130,4|0|0
432,152,154440,2,0,B|168:152,1,260,8|0
48,344,155254,1,8
80,288,155389,1,0
112,344,155525,1,2
144,288,155661,1,0
176,344,155796,2,0,B|312:344,2,130,4|0|0
432,232,156610,2,0,B|168:232,2,260,8|2|2
368,120,157966,5,4
232,120,158237,1,0
312,120,158509,1,0
176,120,158780,2,2,B|32:120,2,130,2|0|2
200,248,159594,1,8
232,248,159684,1,0
264,248,159774,1,0
296,248,159865,1,2
440,320,160136,1,0
440,192,160407,1,0
328,248,160678,1,0
328,120,160950,2,0,B|192:120,1,130,8|0
64,248,161492,2,0,B|200:248,2,130,8|0|0
336,344,162306,6,0,B|200:344,2,130,4|0|0
416,248,163119,1,0
384,248,163210,1,0
352,248,163300,1,0
320,248,163391,1,8
192,128,163662,2,2,B|328:128,2,130,2|0|2
80,64,164476,1,0
80,192,164747,1,0
192,248,165018,2,2,B|336:248,1,130,2|0
192,352,165561,1,0
320,352,165832,1,4
416,80,167188,5,0
288,80,167459,2,2,B|299:152|360:184,1,130,0|2
464,256,168002,1,0
360,336,168273,1,8
256,256,168544,1,0
152,336,168815,2,2,B|92:304|81:232,1,130,2|0
128,104,169358,2,0,B|200:64|256:168|312:64|384:104,2,260,0|12|0
256,296,170985,1,4
256,208,174945,12,4,177774
328,336,178942,6,0,B|328:200,1,130,4|0
440,336,179512,2,0,B|440:200,1,130,8|0
208,272,180082,2,0,B|194:237|160:232,1,65
112,272,180367,1,8
128,336,180510,1,8
192,336,180652,1,4
184,168,181222,2,0,B|184:32,1,130,0|0
72,168,181792,2,0,B|72:32,1,130,8|0
304,112,182362,2,0,B|319:147|352:152,1,65
408,128,182647,1,8
360,88,182790,1,8
304,112,182932,1,6
80,72,183502,5,0
256,72,183785,1,0
80,192,184068,1,0
432,312,184634,1,8
256,312,184917,1,8
432,192,185200,1,2
256,208,185483,12,4,186332
144,336,186898,5,4
48,240,187040,1,4
368,48,187464,1,6
464,144,187606,1,6
160,224,188030,6,0,B|296:224,1,130,4|0
160,328,188592,2,0,B|24:328,1,130,8|0
360,256,189154,2,0,B|375:220|408:216,1,65,0|0
320,304,189435,1,8
384,312,189575,1,8
280,352,189716,1,4
480,144,190278,2,0,B|344:144,1,130,0|0
216,40,190840,2,0,B|352:40,1,130,8|0
96,96,191402,2,0,B|81:131|48:136,1,65
152,56,191683,1,8
152,120,191823,1,8
88,32,191964,1,6
40,248,192527,5,0
256,328,192808,1,0
472,248,193089,1,0
472,136,193651,1,8
256,56,193932,1,8
40,136,194213,1,2
256,208,194494,12,4,195323
144,336,195871,5,4
48,240,196008,1,4
368,48,196419,1,6
464,144,196556,1,6
64,48,196967,5,0
208,48,197104,1,0
448,336,197515,1,2
304,336,197652,1,2
208,112,198063,5,0
304,112,198206,1,0
256,296,198637,5,8
256,40,199229,5,6
