osu file format v9

[General]
AudioFilename: 25. NNRT.mp3
AudioLeadIn: 1500
PreviewTime: 31281
Countdown: 0
SampleSet: Normal
StackLeniency: 0.7
Mode: 1
LetterboxInBreaks: 0

[Editor]
Bookmarks: 9894,91281,107320
DistanceSpacing: 0
BeatDivisor: 4
GridSize: 8

[Metadata]
Title:NNRT
Artist:Levaslater
Creator:Reisen Udongein
Version:Taiko DS
Source:Beatmania IIDX
Tags:19th Lincle Kingdom ryu* starving trancer another infinity Electro Gothic dksslqj nakagawa-kanon ra-s kds niva nivalis shitto ryutaro nakahara

[Difficulty]
HPDrainRate:5
CircleSize:5
OverallDifficulty:5
ApproachRate:5
SliderMultiplier:1.4
SliderTickRate:1

[Events]
//Background and Video events
0,0,"taiko bg.jpg"
//Break Periods
//Storyboard Layer 0 (Background)
//Storyboard Layer 1 (Fail)
//Storyboard Layer 2 (Pass)
//Storyboard Layer 3 (Foreground)
//Storyboard Sound Samples
//Background Colour Transformations
3,100,163,162,255

[TimingPoints]
415,297.029702970297,4,1,0,80,1,0
415,-200,4,1,0,80,0,0
12296,-100,4,1,0,80,0,0
50315,-50,4,1,0,80,0,0
52692,-200,4,1,0,80,0,0
57444,-133.333333333333,4,1,0,80,0,0
64573,-100,4,1,0,80,0,0
116850,-80,4,1,0,80,0,0
119226,-100,4,1,0,80,0,0
121603,-80,4,1,0,80,0,0
123979,-100,4,1,0,80,0,0
126350,631.578947368421,4,1,0,80,1,0

[Colours]
Combo1 : 0,128,192
Combo2 : 255,0,0

[HitObjects]
256,176,12296,5,0
256,176,12444,5,8
256,176,12593,1,8
256,176,12741,5,0
256,176,12890,5,8
256,176,13038,1,8
256,176,13113,1,8
256,176,13187,5,0
256,176,13335,5,8
256,176,13484,5,0
256,176,13632,5,8
256,176,13781,5,0
256,176,13855,5,8
256,176,13929,5,0
256,176,14004,1,0
256,176,14078,5,8
256,176,14226,1,8
256,176,14301,5,0
256,176,14375,1,0
256,176,14672,1,4
256,176,14820,5,8
256,176,14969,5,0
256,176,15043,5,8
256,176,15117,5,0
256,176,15192,5,8
256,176,15266,1,8
256,176,15415,5,0
256,176,15489,1,0
256,176,15563,5,8
256,176,15712,5,0
256,176,15860,1,4
256,176,16009,5,8
256,176,16157,5,4
256,176,16306,1,0
256,176,16454,1,4
256,176,16603,1,0
256,176,16677,5,8
256,176,16751,1,8
256,176,16900,5,0
256,176,17048,1,4
256,176,17197,5,8
256,176,17271,1,8
256,176,17345,1,8
256,176,17494,5,0
256,176,17642,1,0
256,176,17716,1,0
256,176,17791,5,8
256,176,17939,1,8
256,176,18014,1,8
256,176,18088,5,0
256,176,18236,1,4
256,176,18385,5,8
256,176,18533,1,8
256,176,18608,1,8
256,176,18682,5,0
256,176,18756,1,0
256,176,18830,5,8
256,208,18979,1,8
280,192,19053,1,8
256,208,19127,5,0
256,208,19202,5,8
256,208,19276,5,0
256,208,19424,1,4
256,208,19573,5,8
256,208,19721,5,0
256,208,19796,5,8
256,208,19870,5,0
256,208,19944,5,8
256,208,20018,1,8
256,208,20093,1,8
256,208,20167,5,0
256,208,20315,5,8
256,208,20390,5,0
256,208,20464,1,0
256,208,20613,1,4
256,208,20761,5,8
256,208,20910,5,4
256,208,21058,1,0
256,208,21207,5,12
256,208,21801,5,0
256,208,21949,5,8
256,208,22098,5,0
256,208,22172,1,0
256,208,22246,5,8
256,208,22395,5,0
256,208,22543,5,8
256,208,22617,1,8
256,208,22692,5,0
256,208,22840,5,8
256,208,22989,5,0
256,208,23063,1,0
256,208,23137,1,0
256,208,23286,1,0
256,208,23360,1,0
256,208,23434,5,8
256,208,23509,5,0
256,208,23583,5,8
256,208,23731,5,0
256,208,23806,1,0
256,208,23880,5,8
256,208,23954,5,0
256,208,24028,1,0
256,208,24177,5,8
256,208,24325,5,0
256,208,24400,1,0
256,208,24474,5,8
256,208,24548,5,0
256,208,24622,5,8
256,208,24697,5,0
256,208,24771,5,8
256,208,24919,5,0
288,216,24994,1,0
256,208,25068,5,8
256,208,25216,5,0
264,192,25365,1,4
264,192,25514,5,8
264,192,25662,5,4
264,192,25811,1,0
264,192,25959,1,4
264,192,26108,5,8
264,192,26256,1,12
264,192,26405,5,0
256,208,26553,1,4
256,208,26702,5,8
256,208,26850,5,0
256,208,26924,1,0
256,208,26999,5,8
256,208,27147,5,0
256,208,27296,5,8
256,208,27370,1,8
256,208,27444,5,0
256,208,27593,5,8
264,192,27741,5,0
264,192,27815,1,0
264,192,27890,5,8
264,192,28038,5,0
264,192,28113,1,0
264,192,28187,5,8
256,208,28261,5,0
256,208,28335,5,8
256,208,28410,1,8
256,208,28484,1,8
256,208,28632,5,0
256,208,28707,1,0
256,208,28781,1,0
152,16,28929,1,4
256,208,29078,1,0
256,208,29152,1,0
264,192,29226,1,0
264,192,29301,5,8
264,192,29375,5,0
264,192,29449,5,8
264,192,29523,1,8
265,206,29672,1,8
265,206,29746,5,0
265,206,29820,5,8
265,206,29969,5,0
265,206,30117,1,4
265,206,30266,5,8
265,206,30414,5,4
265,206,30563,5,8
265,206,30712,1,12
265,206,31306,5,0
265,206,31380,1,0
265,206,31454,1,0
265,206,31528,1,0
265,206,31603,5,8
265,206,31677,1,8
265,206,31751,5,0
265,206,31825,1,0
265,206,31900,1,0
265,206,31974,1,0
265,206,32048,5,8
265,206,32122,1,8
265,206,32197,5,0
265,206,32271,1,0
265,206,32345,5,8
265,206,32494,5,0
265,206,32568,1,0
265,206,32642,5,8
265,206,32716,1,8
265,206,32791,5,0
265,206,32865,1,0
265,206,32939,5,8
265,206,33014,1,8
265,206,33088,5,0
265,206,33162,1,0
265,206,33236,1,0
265,206,33311,1,0
265,206,33385,1,0
265,206,33459,1,0
265,206,33533,5,8
265,206,33682,5,0
265,206,33756,1,0
265,206,33830,1,0
265,206,33905,1,0
265,206,33979,5,8
265,206,34053,1,8
265,206,34127,5,0
265,206,34202,1,0
265,206,34276,5,8
265,206,34350,1,8
265,206,34424,5,0
265,206,34499,5,8
265,206,34573,5,0
265,206,34647,1,0
265,206,34721,5,8
265,206,34870,5,0
265,206,34944,1,0
265,206,35018,5,8
265,206,35093,5,0
265,206,35167,1,0
265,206,35241,1,0
265,206,35315,5,8
265,206,35390,5,0
265,206,35464,1,0
265,206,35538,1,0
265,206,35613,5,8
265,206,35687,1,8
265,206,35761,5,0
265,206,35835,5,8
265,206,35910,5,0
265,206,36058,1,0
265,206,36132,1,0
265,206,36207,1,0
265,206,36281,1,0
265,206,36355,5,8
265,206,36429,1,8
265,206,36504,1,8
265,206,36578,1,8
265,206,36652,5,0
265,206,36726,1,0
265,206,36801,1,0
265,206,36875,1,0
265,206,36949,5,8
265,206,37023,5,0
265,206,37098,5,8
265,206,37246,5,0
265,206,37320,1,0
265,206,37395,1,0
265,206,37469,1,0
265,206,37543,5,8
265,206,37617,1,8
265,206,37692,1,8
265,206,37766,1,8
265,206,37840,5,0
265,206,37914,1,0
265,206,37989,1,0
265,206,38063,5,8
265,206,38137,5,0
265,206,38212,1,0
265,206,38286,5,8
265,206,38434,5,0
265,206,38509,1,0
265,206,38583,5,8
265,206,38657,5,0
265,206,38731,1,0
265,206,38806,1,0
265,206,38880,5,8
265,206,39028,5,0
265,206,39103,1,0
265,206,39177,5,8
265,206,39251,1,8
265,206,39325,5,0
265,206,39400,1,0
265,206,39474,5,8
265,206,39622,5,0
265,206,39697,5,8
265,206,39771,1,8
265,206,39845,1,8
265,206,39919,5,0
265,206,39994,5,8
265,206,40068,1,8
265,206,40216,5,0
265,206,40291,5,8
265,206,40365,1,8
265,206,40514,5,0
265,206,40588,5,8
265,206,40662,1,8
265,206,40736,1,8
265,206,40811,5,0
265,206,41108,5,8
265,206,41256,5,0
265,206,41553,1,0
296,208,41702,5,8
265,206,41850,5,0
265,206,41999,1,0
265,206,42296,5,8
265,206,42444,5,0
265,206,42741,5,8
265,206,42890,1,8
265,206,42964,1,8
265,206,43038,1,8
265,206,43187,5,4
265,206,43335,5,8
265,206,43484,5,0
265,206,43558,1,0
265,206,43632,5,8
265,206,43781,5,0
265,206,43929,5,8
296,216,44004,1,8
265,206,44078,5,0
265,206,44152,1,0
265,206,44226,5,8
265,206,44375,5,0
265,206,44523,5,8
265,206,44598,1,8
265,206,44672,5,0
265,206,44820,5,8
265,206,44895,1,8
265,206,44969,5,0
265,206,45117,5,8
265,206,45192,1,8
265,206,45266,5,0
265,206,45340,5,8
265,206,45414,1,8
256,192,45563,5,4
256,192,45712,1,0
256,192,45786,5,8
256,192,45860,5,0
256,192,46009,1,4
256,192,46157,1,0
265,206,46231,5,8
256,192,46306,5,0
256,192,46454,5,8
256,192,46528,5,0
256,192,46603,5,8
256,192,46751,5,4
265,206,46900,1,0
265,206,46974,5,8
256,192,47048,5,0
256,192,47122,5,8
256,192,47197,5,0
256,192,47271,1,0
256,192,47345,5,8
256,192,47494,5,0
256,192,47568,1,0
256,192,47642,5,8
256,192,47716,1,8
265,206,47791,1,8
264,186,47939,5,4
264,186,48088,5,8
264,186,48236,5,4
264,186,48385,5,8
264,186,48533,5,4
264,186,48682,5,8
264,186,48830,5,0
264,186,48905,1,0
264,186,48979,1,0
264,186,49053,1,0
264,186,49127,5,8
264,186,49276,5,0
264,186,49350,1,0
264,186,49424,5,8
264,186,49573,5,0
264,224,49647,1,0
264,186,49721,5,8
264,186,49870,1,8
264,224,49944,5,0
264,224,50018,5,8
264,224,50093,5,0
264,224,50167,1,0
264,224,50241,5,8
256,192,50315,12,0,52543
264,208,52692,5,0
264,208,52840,1,0
264,208,52989,1,0
264,208,53137,5,8
264,208,53286,5,0
264,208,53583,5,8
264,208,53731,5,0
264,208,53880,1,0
264,208,54028,5,8
264,208,54177,5,0
264,208,54325,5,8
264,208,54474,1,8
264,208,54771,5,0
264,208,55068,1,0
264,208,55365,5,8
264,208,55662,1,8
264,208,55959,5,0
264,208,56256,5,8
264,208,56999,1,8
264,208,57147,5,0
264,208,57296,1,0
264,208,57444,1,0
264,208,57593,5,8
264,208,57741,1,8
264,208,57890,5,0
264,208,58038,5,8
264,208,58335,1,8
264,208,58484,5,0
264,208,58632,1,0
264,208,58781,5,8
264,208,58929,1,8
264,208,59078,5,0
264,208,59226,5,8
264,208,59375,1,8
264,208,59523,5,0
264,208,59672,5,8
264,208,59820,1,8
264,208,59969,5,0
264,208,60117,5,8
264,208,60266,5,0
264,208,60414,1,0
264,208,60563,1,0
264,208,60712,5,8
264,208,60860,5,0
264,208,61009,1,0
264,208,61306,5,8
264,208,61454,5,0
264,208,61603,1,0
264,208,61751,5,8
264,208,61900,5,0
264,208,62048,1,0
264,208,62197,5,8
264,208,62494,1,8
264,208,63088,1,8
264,208,63385,5,0
264,208,63682,5,8
264,208,63979,5,0
264,208,64127,5,8
264,208,64276,1,8
264,208,64573,5,4
264,208,64721,1,0
264,208,64870,1,0
264,208,65018,5,8
264,208,65167,5,0
264,208,65315,5,8
264,208,65390,5,0
264,208,65464,1,0
264,208,65613,5,8
264,208,65761,5,4
264,208,65910,1,0
264,208,66058,1,0
264,208,66207,5,8
264,208,66355,5,0
264,208,66504,5,8
264,208,66578,5,0
264,208,66652,1,0
264,208,66801,5,8
264,208,66949,5,4
264,208,67098,1,0
264,208,67246,1,0
264,208,67395,5,8
256,192,67543,5,0
256,192,67692,5,8
256,192,67766,5,0
256,192,67840,1,0
256,192,67914,1,0
256,192,67989,5,8
256,192,68137,5,0
256,192,68212,1,0
256,192,68286,5,8
256,192,68434,5,0
256,192,68509,5,8
256,192,68583,1,8
256,192,68731,1,8
256,192,68806,1,8
256,192,68880,1,8
256,192,69028,1,8
256,192,69103,1,8
256,192,69177,1,8
256,192,69251,1,8
256,192,69325,5,0
256,192,69474,5,8
256,192,69622,5,0
256,192,69771,5,8
256,192,69919,5,0
256,192,70068,5,8
256,192,70216,5,0
256,192,70291,1,0
256,192,70365,5,8
256,192,70439,5,0
256,192,70514,1,0
256,192,70662,5,8
256,192,70811,5,0
256,192,70959,5,8
256,192,71108,5,0
256,192,71256,5,8
256,192,71405,5,0
256,192,71479,1,0
256,192,71553,5,8
256,192,71627,1,8
256,192,71702,5,0
256,192,71850,5,8
256,192,71999,5,0
256,192,72073,5,8
256,192,72147,1,8
256,192,72221,1,8
256,192,72296,5,0
296,208,72444,5,8
296,208,72518,1,8
296,208,72593,5,0
296,208,72741,5,8
296,208,72815,1,8
296,208,72890,5,0
296,208,72964,1,0
296,208,73038,1,0
296,208,73113,1,0
296,208,73187,1,0
296,208,73261,1,0
296,208,73335,1,0
296,208,73410,1,0
296,208,73484,5,8
296,208,73558,1,8
296,208,73632,1,8
296,208,73707,1,8
256,192,73781,1,8
296,208,73855,1,8
256,192,73929,1,8
256,192,74004,1,8
296,208,75266,5,0
296,208,75414,1,0
296,208,75489,1,0
296,208,75563,5,8
296,208,75712,1,8
296,208,75786,1,8
296,208,75860,5,0
296,208,75934,1,0
296,208,76009,1,0
296,208,76083,1,0
296,208,76157,5,8
296,208,76306,5,0
296,208,76454,1,0
296,208,76528,1,0
296,208,76603,1,0
296,208,76677,1,0
296,208,76751,5,8
296,208,76900,5,0
296,208,76974,1,0
296,208,77048,5,8
296,208,77197,1,8
296,208,77345,5,0
296,208,77419,1,0
296,208,77494,1,0
296,208,77642,1,0
296,208,77791,1,0
296,208,77865,1,0
296,208,77939,5,8
296,208,78088,5,0
296,208,78162,1,0
296,208,78236,1,0
296,208,78385,1,0
296,208,78459,5,8
296,208,78533,1,8
296,208,78682,5,0
296,208,78830,1,0
296,208,78905,5,8
296,208,78979,5,0
296,208,79053,1,0
296,208,79127,5,8
296,208,79276,5,0
296,208,79350,1,0
296,208,79424,1,0
296,208,79573,5,12
296,208,79721,5,4
296,208,79870,1,4
296,208,80018,1,4
296,208,80167,1,0
296,208,80241,1,0
296,208,80315,5,8
296,208,80464,1,8
296,208,80538,1,8
296,208,80613,5,0
296,208,80687,1,0
296,208,80761,5,8
296,208,80835,5,0
296,208,80910,5,8
296,208,81058,5,0
312,240,81207,1,0
312,240,81281,1,0
312,240,81355,1,0
312,240,81429,1,0
312,240,81504,5,8
312,240,81578,1,8
312,240,81652,5,0
312,240,81801,1,0
296,208,81875,1,0
312,240,81949,1,0
312,240,82023,1,0
296,208,82098,5,8
296,208,82172,1,8
296,208,82246,1,8
336,272,82395,1,12
336,272,82543,5,0
336,272,82692,5,12
336,272,82840,5,0
336,272,82989,1,4
336,272,83137,1,0
336,272,83286,5,12
336,272,83434,5,0
336,312,83583,5,8
336,312,83657,5,0
336,312,83731,1,0
336,312,83806,5,8
336,312,83880,5,0
336,312,84028,5,8
336,312,84177,5,0
304,288,84325,1,0
304,288,84400,1,0
304,288,84474,5,8
304,288,84548,1,8
304,288,84622,1,8
304,288,84697,1,8
296,208,84771,5,0
296,208,84919,1,0
296,208,84994,1,0
296,208,85068,5,8
296,208,85216,1,8
296,208,85291,1,8
296,208,85365,5,0
296,208,85439,5,8
296,208,85514,5,0
296,208,85588,1,0
296,208,85662,5,8
296,208,85811,5,0
296,208,85959,1,0
296,208,86033,5,8
296,208,86108,5,0
296,208,86182,1,0
296,208,86256,5,8
296,208,86405,5,0
296,208,86479,1,0
296,208,86553,5,8
296,208,86702,1,8
296,208,86850,5,0
296,208,86924,1,0
296,208,86999,1,0
296,208,87147,1,0
296,208,87296,1,0
296,208,87370,1,0
296,208,87444,5,8
296,208,87593,1,8
296,208,87667,1,8
296,208,87741,5,0
296,208,87890,1,0
296,208,87964,5,8
296,208,88038,1,8
296,208,88187,5,0
272,224,88261,1,0
296,208,88335,1,0
296,208,88410,5,8
296,208,88484,5,0
296,208,88558,1,0
296,208,88632,5,8
296,208,88781,5,0
296,208,88855,5,8
296,208,88929,5,0
296,208,89078,5,12
296,208,89226,5,4
296,208,89375,1,4
296,208,89523,1,4
296,208,89672,1,0
296,208,89746,1,0
296,208,89820,5,8
296,208,89969,1,8
296,208,90043,1,8
296,208,90117,5,0
296,208,90192,5,8
296,208,90266,1,8
296,208,90340,5,0
296,208,90414,5,8
296,208,90563,5,0
296,208,90712,1,0
296,208,90786,1,0
296,208,90860,5,8
296,208,90934,1,8
296,208,91009,1,8
296,208,91083,1,8
296,208,91157,5,0
296,208,91306,1,0
296,208,91380,1,0
296,208,91454,5,8
296,208,91528,1,8
296,208,91603,5,0
296,208,91677,5,8
296,208,91751,1,8
296,240,91900,5,4
296,240,92048,5,8
296,240,92122,5,0
296,240,92197,5,8
296,240,92345,5,0
296,240,92419,5,8
296,240,92494,5,0
296,240,92642,5,8
296,240,92716,5,0
296,240,92791,5,8
296,240,92939,5,0
296,240,93088,5,8
296,240,93162,1,8
296,240,93236,5,0
296,240,93311,5,8
296,240,93385,5,0
296,240,93533,5,8
296,240,93682,5,0
296,240,93756,1,0
296,240,93830,5,8
296,240,93905,1,8
320,224,93979,5,0
296,240,94053,1,0
320,224,94127,1,0
256,193,94276,1,0
256,193,94424,1,0
256,193,94499,1,0
256,193,94573,5,8
256,193,94721,5,0
256,193,94796,1,0
256,193,94870,1,0
256,193,95018,1,0
256,193,95093,1,0
256,193,95167,5,8
256,193,95315,5,0
256,193,95464,1,0
256,193,95538,1,0
256,193,95613,1,0
256,193,95687,1,0
256,193,95761,1,0
256,193,95835,1,0
256,193,95910,1,0
256,193,95984,5,8
256,193,96058,5,0
256,193,96207,5,12
256,193,96355,1,12
256,193,96652,5,0
256,193,96801,5,8
256,193,96949,5,0
256,193,97023,1,0
256,193,97098,5,8
256,193,97246,5,0
256,193,97395,5,8
256,193,97469,1,8
256,193,97543,5,0
256,193,97692,5,8
256,193,97840,5,0
256,193,97914,1,0
256,193,97989,5,8
256,193,98137,5,0
256,193,98286,5,8
256,193,98434,5,0
256,193,98583,5,8
256,193,98657,1,8
256,193,98731,5,0
256,193,98806,1,0
256,193,98880,5,8
256,193,99028,5,0
256,193,99177,1,0
256,193,99251,1,0
256,193,99325,5,8
256,193,99474,5,0
256,193,99622,1,0
256,193,99697,1,0
256,193,99771,5,8
256,193,99919,5,0
256,193,100068,5,8
256,193,100216,5,0
256,193,100291,1,0
256,193,100365,1,0
256,193,100439,5,8
256,193,100514,1,8
256,193,100662,5,0
256,193,100811,5,8
256,193,100959,5,0
256,193,101108,5,8
256,193,101182,1,8
256,193,101256,1,8
256,193,101405,5,4
256,193,101553,5,8
256,193,101702,5,0
256,193,101776,1,0
256,193,101850,5,8
256,193,101999,5,0
256,193,102147,5,8
256,193,102221,1,8
256,193,102296,5,0
256,193,102444,5,8
256,193,102593,5,0
256,193,102667,5,8
256,193,102741,1,8
256,193,102890,5,0
256,193,103038,5,8
256,193,103187,5,0
256,193,103261,5,8
256,193,103335,1,8
256,193,103484,5,0
256,193,103632,5,8
256,193,103781,5,0
256,193,103855,1,0
256,193,103929,5,8
256,193,104004,1,8
256,193,104078,5,0
256,193,104152,5,8
256,193,104226,1,8
256,193,104375,5,0
256,193,104449,5,8
256,193,104523,1,8
256,193,104598,1,8
256,193,104672,5,0
256,193,104746,5,8
256,193,104820,1,8
336,224,104969,5,0
336,224,105043,5,8
336,224,105117,1,8
336,224,105192,1,8
336,224,105266,1,8
336,224,105340,1,8
336,224,105414,1,8
336,224,105563,5,0
336,224,105637,5,8
336,224,105712,1,8
336,224,105786,1,8
336,224,105860,1,8
336,224,105934,1,8
336,224,106009,1,8
304,208,106157,1,8
304,208,106231,1,8
304,208,106306,1,8
304,208,106603,1,12
304,208,106900,1,12
304,208,107197,1,12
304,208,107345,5,4
304,208,107494,1,0
304,208,107568,1,0
304,208,107642,5,8
304,208,107716,1,8
304,208,107791,5,0
304,208,107865,1,0
304,208,107939,1,0
304,208,108014,1,0
304,208,108088,5,8
304,208,108162,1,8
304,208,108236,5,0
304,208,108311,1,0
304,208,108385,5,8
304,208,108533,5,4
304,208,108682,5,8
304,208,108756,1,8
304,208,108830,5,0
304,208,108905,1,0
304,208,108979,5,8
304,208,109053,1,8
304,208,109127,5,0
304,208,109202,1,0
304,208,109276,1,0
304,208,109350,1,0
304,208,109424,1,0
304,208,109499,1,0
304,208,109573,5,8
304,208,109721,5,4
304,208,109870,1,0
304,208,109944,1,0
304,208,110018,5,8
304,208,110093,1,8
304,208,110167,5,0
304,208,110241,1,0
304,208,110315,5,8
304,208,110390,1,8
304,208,110464,5,0
304,208,110538,5,8
304,208,110613,5,0
304,208,110687,1,0
304,208,110761,5,8
304,208,110910,5,4
304,208,111058,5,8
304,208,111132,5,0
304,208,111207,1,0
304,208,111281,1,0
304,208,111355,5,8
304,208,111429,5,0
304,208,111504,1,0
304,208,111578,1,0
304,208,111652,5,8
304,208,111726,1,8
304,208,111801,5,0
304,208,111875,5,8
304,208,111949,5,0
304,208,112098,1,12
304,208,112246,1,0
304,208,112320,5,8
304,208,112395,5,0
304,208,112469,5,8
304,208,112543,5,0
304,208,112617,5,8
304,208,112692,5,0
304,208,112766,5,8
304,208,112840,1,8
304,208,112914,1,8
304,208,112989,5,0
304,208,113063,5,8
304,208,113137,5,0
304,208,113286,1,12
304,208,113434,1,0
304,208,113509,5,8
304,208,113583,5,0
304,208,113657,5,8
304,208,113731,5,0
304,208,113806,5,8
304,208,113880,1,8
304,208,113954,1,8
304,208,114028,1,8
304,208,114103,1,8
304,208,114177,5,0
304,208,114251,5,8
304,208,114325,5,0
304,208,114474,1,4
304,208,114622,1,0
304,208,114697,5,8
304,208,114771,5,0
304,208,114845,5,8
304,208,114919,5,0
304,208,115068,5,12
304,208,115216,5,0
304,208,115291,5,8
304,208,115365,5,0
304,208,115439,5,8
304,208,115514,5,0
264,208,115662,5,8
264,208,115736,1,8
264,208,115811,1,8
264,208,115885,1,8
264,208,115959,5,0
264,208,116033,5,8
264,208,116108,1,8
264,208,116182,1,8
264,208,116256,5,0
264,208,116330,5,8
264,208,116405,1,8
264,208,116479,1,8
264,208,116553,5,0
264,208,116627,5,8
264,208,116702,1,8
264,208,116850,5,0
264,208,116924,1,0
264,208,116999,5,8
264,208,117073,1,8
264,208,117147,5,0
264,208,117221,5,8
264,208,117296,5,0
264,208,117444,1,4
264,208,117593,1,4
264,208,118038,1,0
264,208,118113,5,8
264,208,118187,1,8
264,208,118261,1,8
264,208,118335,5,0
264,208,118410,5,8
264,208,118484,5,0
264,208,118632,1,4
264,208,118781,1,4
264,208,119226,1,0
264,208,119375,5,8
264,208,119449,1,8
264,208,119523,5,0
264,208,119598,5,8
264,208,119672,1,8
264,208,119746,1,8
264,208,119820,5,0
264,208,119969,5,8
264,208,120043,5,0
264,208,120117,1,0
264,208,120266,5,8
264,208,120414,5,0
264,208,120489,1,0
264,208,120563,1,0
272,192,120712,1,0
272,192,120786,1,0
272,192,120860,5,8
272,192,121009,5,0
272,192,121083,1,0
264,208,121157,5,8
264,208,121231,1,8
272,192,121306,1,8
264,208,121380,1,8
264,208,121454,5,0
272,192,121603,1,0
272,192,121677,1,0
272,192,121751,5,8
272,192,121825,1,8
272,192,121900,5,0
272,192,121974,1,0
272,192,122048,5,8
272,192,122122,1,8
272,192,122197,5,0
272,192,122271,5,8
272,192,122345,1,8
272,192,122419,1,8
272,192,122494,5,0
272,192,122568,5,8
272,192,122642,5,0
272,192,122791,1,0
272,192,122865,5,8
272,192,122939,1,8
272,192,123014,1,8
272,192,123088,5,0
272,192,123162,5,8
272,192,123236,5,0
272,192,123311,5,8
272,192,123385,5,0
256,192,123533,5,12
256,192,123682,1,12
256,192,123979,1,8
256,192,124127,5,0
256,192,124276,5,8
256,192,124350,5,0
256,192,124424,5,8
256,192,124499,5,0
256,192,124573,5,8
256,192,124721,1,12
256,192,124870,5,4
256,192,125018,5,12
256,192,125167,5,0
256,192,125241,5,8
256,192,125315,5,0
256,192,125390,5,8
256,192,125464,5,0
256,192,125538,1,0
256,192,125613,1,0
256,192,125687,5,8
256,192,125761,5,0
256,192,125835,5,8
256,192,125910,1,8
256,192,125984,1,8
256,192,126058,5,0
256,192,126132,5,8
256,192,126207,5,0
256,192,126281,5,8
256,192,127613,1,8
256,192,128244,5,0
256,192,128876,1,0
256,192,129507,5,8
256,192,130139,12,0,131086
