osu file format v9

[General]
AudioFilename: 25. NNRT.mp3
AudioLeadIn: 0
PreviewTime: 31281
Countdown: 0
SampleSet: Soft
StackLeniency: 0.7
Mode: 0
LetterboxInBreaks: 0

[Editor]
Bookmarks: 9894
DistanceSpacing: 1.2
BeatDivisor: 4
GridSize: 4

[Metadata]
Title:NNRT
Artist:Levaslater
Creator:Reisen Udongein
Version:Another
Source:Beatmania IIDX
Tags:19th Lincle Kingdom ryu* starving trancer another infinity Electro Gothic dksslqj nakagawa-kanon ra-s kds niva nivalis shitto ryutaro nakahara

[Difficulty]
HPDrainRate:6
CircleSize:4
OverallDifficulty:7
ApproachRate:9
SliderMultiplier:1.8
SliderTickRate:2

[Events]
//Background and Video events
0,0,"24048441_big_p0.jpg"
//Break Periods
2,50515,52092
//Storyboard Layer 0 (Background)
//Storyboard Layer 1 (Fail)
//Storyboard Layer 2 (Pass)
//Storyboard Layer 3 (Foreground)
//Storyboard Sound Samples
//Background Colour Transformations
3,100,163,162,255

[TimingPoints]
415,297.029702970297,4,2,1,20,1,0
12296,-100,4,2,1,80,0,0
21207,-200,4,2,1,80,0,0
21504,-100,4,2,1,80,0,0
30712,-200,4,2,1,80,0,0
31083,-100,4,1,1,80,0,0
40811,-200,4,1,1,80,0,0
43187,-100,4,1,1,80,0,0
52395,-200,4,2,1,80,0,0
57444,-100,4,2,1,80,0,0
62197,-100,4,2,1,80,0,0
68880,-100,4,1,1,60,0,0
74078,-200,4,2,1,20,0,0
75192,-100,4,1,1,80,0,0
106157,-200,4,1,1,80,0,0
107048,-100,4,1,1,80,0,0
126350,631.578947368421,4,2,1,80,1,0

[Colours]
Combo1 : 0,128,128
Combo2 : 0,128,192
Combo3 : 0,0,160
Combo4 : 0,255,255

[HitObjects]
256,192,9919,12,0,11702
97,132,12296,6,0,B|128:48,1,90
384,48,12593,2,0,B|414:132,1,90,10|0
193,208,12890,2,0,B|208:120,1,90
256,96,13113,1,0
304,120,13187,2,0,B|318:208,1,90,10|0
416,160,13484,6,0,B|430:248,1,90
336,304,13781,1,10
304,344,13855,1,0
256,360,13929,1,0
208,344,14004,1,0
176,304,14078,2,0,B|148:260|176:216,1,90
337,219,14375,2,0,B|364:260|336:304,1,90,10|0
256,80,14672,6,0,B|364:96,1,90,4|0
256,192,14969,1,10
256,192,15043,1,0
256,192,15117,1,0
256,192,15192,1,0
256,192,15266,2,0,B|148:208,1,90
256,304,15563,2,0,B|364:320,1,90,10|0
376,216,15860,6,0,B|384:152|384:152|408:136,1,90,6|0
333,17,16157,2,0,B|325:81|325:81|304:96,1,90,6|0
200,128,16454,2,0,B|104:112,1,90,4|0
200,256,16751,2,0,B|104:272,1,90,0|0
40,192,17048,6,0,B|224:192,1,180,4|0
312,120,17494,2,0,B|360:144|376:192|360:240|312:264,2,180,4|4|4
200,120,18236,6,0,B|152:144|136:192|152:240|197:262,1,180,4|0
288,320,18682,2,0,B|320:232,1,90,4|0
454,115,18979,2,0,B|424:200,1,90,4|4
424,200,19202,1,4
424,200,19276,1,4
344,128,19424,6,0,B|304:160|256:144|256:144|208:128|168:160,1,180,4|0
80,216,19870,1,0
176,264,20018,2,0,B|256:336|336:264,1,180,4|0
432,216,20464,1,0
456,112,20613,6,0,B|368:80,1,90,4|0
187,97,20910,2,0,B|272:128,1,90,4|0
373,263,21207,6,0,B|288:232,1,90,4|2
88,160,21801,5,4
56,264,21949,1,0
160,296,22098,1,10
192,192,22246,1,0
288,136,22395,2,0,B|376:128,1,90
400,136,22617,1,0
424,152,22692,2,0,B|448:192|448:192|424:240,1,90,10|0
352,304,22989,6,0,B|264:320,1,90
192,192,23286,1,10
208,152,23360,1,0
248,128,23434,1,0
296,128,23509,1,0
328,152,23583,2,0,B|368:72,1,90
392,224,23880,2,0,B|352:304,1,90,10|0
160,304,24177,6,0,B|120:224,1,90
32,64,24474,1,10
76,60,24548,1,0
120,56,24622,1,0
164,52,24697,1,0
208,48,24771,2,0,B|208:80|208:80|196:104|196:104|196:144,1,90
276,215,25068,2,0,B|276:184|276:184|288:160|288:160|288:128,1,90,10|0
368,88,25365,6,0,B|432:88|432:88|456:72,1,90
368,296,25662,2,0,B|432:296|432:296|453:310,1,90,10|0
282,73,25959,2,0,B|346:73|346:73|368:88,1,90
282,310,26256,2,0,B|346:310|346:310|368:296,1,90,10|0
112,256,26553,6,0,B|96:168,1,90,4|0
168,16,26850,2,0,B|184:104,1,90,10|0
288,256,27147,2,0,B|272:168,1,90,0|0
271,167,27370,1,0
271,167,27444,1,10
379,167,27593,6,0,B|395:255,2,90
133,167,28038,1,10
128,188,28113,1,0
124,212,28187,1,0
120,236,28261,1,0
116,256,28335,2,0,B|111:290|140:329|188:334|216:313,1,135
208,296,28632,2,0,B|296:288,1,90,10|0
448,192,28929,6,0,B|440:104,1,90,4|0
344,56,29226,1,10
304,32,29301,1,0
256,24,29375,1,0
216,32,29449,1,0
176,56,29523,1,4
71,102,29672,1,0
72,102,29820,2,0,B|64:192,1,90,10|0
16,288,30117,6,0,B|136:280,1,90,14|0
297,186,30414,2,0,B|208:192,1,90,14|0
406,101,30712,6,0,B|496:96,1,90,14|2
440,304,31306,5,4
416,320,31380,1,0
392,328,31454,1,0
364,328,31528,1,0
340,316,31603,2,0,B|252:304,1,90,8|0
172,380,31900,1,0
140,348,31974,1,0
132,304,32048,1,0
144,260,32122,1,0
176,228,32197,2,0,B|144:144,1,90,8|0
204,56,32494,6,0,B|304:36,1,90
376,108,32791,1,8
388,132,32865,1,0
400,156,32939,1,0
412,180,33014,1,0
424,204,33088,2,0,B|408:292,1,90
104,292,33385,2,0,B|88:204,1,90,8|0
36,108,33682,5,0
60,100,33756,1,0
88,92,33830,1,0
116,84,33905,1,0
140,76,33979,2,0,B|224:116,1,90,8|0
304,48,34276,1,0
336,80,34350,1,0
344,124,34424,1,0
328,168,34499,1,0
292,196,34573,2,0,B|336:280,1,90,8|0
212,332,34870,5,0
84,292,35018,1,0
304,248,35167,5,8
432,208,35315,1,0
208,136,35464,5,0
80,96,35613,1,0
300,52,35761,5,8
428,12,35910,1,0
396,144,36058,5,4
436,160,36132,1,0
464,196,36207,1,0
472,240,36281,1,0
464,284,36355,2,0,B|380:320,1,90,8|0
280,288,36652,1,0
252,284,36726,1,0
224,280,36801,1,0
196,276,36875,1,0
168,272,36949,2,0,B|116:200,1,90,8|0
11,76,37246,6,0,B|100:92,1,90
192,152,37543,1,8
220,148,37617,1,0
248,144,37692,1,0
276,140,37766,1,0
304,136,37840,2,0,B|416:124|436:228,1,180,0|8
356,300,38286,1,0
256,344,38434,6,0,B|164:332,1,90
212,256,38731,2,0,B|120:244,1,90,8|0
176,172,39028,2,0,B|84:160,1,90
132,84,39325,2,0,B|42:72,1,90,8|0
240,60,39622,5,4
268,68,39697,1,0
296,72,39771,1,0
324,72,39845,1,0
352,68,39919,1,12
376,56,39994,1,0
400,40,40068,1,0
424,56,40142,1,0
444,76,40216,1,4
460,100,40291,1,0
468,124,40365,1,0
472,152,40439,1,0
472,180,40514,1,12
468,208,40588,1,0
460,236,40662,1,0
452,260,40736,1,0
440,284,40811,6,0,B|344:312,1,90,4|8
300,240,41256,2,0,B|256:252,1,45
156,192,41553,2,0,B|200:180,2,45,0|8|0
256,108,41999,6,0,B|256:20,1,90,0|8
168,36,42444,2,0,B|136:72,1,45
344,36,42741,2,0,B|376:72,1,45,0|8
373,69,42964,1,0
373,69,43038,1,0
464,132,43187,6,0,B|416:208,1,90,4|0
476,296,43484,1,8
436,312,43558,1,0
392,312,43632,1,0
352,292,43707,1,0
324,256,43781,2,0,B|232:272,1,90
52,236,44078,2,0,B|148:220,1,90,8|0
96,124,44375,6,0,B|192:112,1,90
268,44,44672,1,8
296,48,44746,1,0
324,52,44820,1,0
352,56,44895,1,0
380,60,44969,2,0,B|392:152,1,90
358,244,45266,2,0,B|448:244,1,90,8|0
276,316,45563,6,0,B|176:364|112:272,1,180,0|8
64,152,46009,1,0
108,140,46083,1,0
152,124,46157,2,0,B|252:76|316:168,1,180,4|8
392,88,46603,1,0
392,88,46751,6,0,B|424:184,1,90,4|0
488,260,47048,1,8
460,296,47122,1,0
416,308,47197,1,0
372,300,47271,1,0
340,268,47345,2,0,B|264:196|168:252,1,180,4|8
174,248,47716,1,0
174,248,47791,1,0
24,152,47939,6,0,B|52:112|28:56,1,90,4|0
164,28,48236,2,0,B|192:113,1,90
319,113,48533,2,0,B|348:28,1,90
480,65,48830,1,0
476,88,48905,1,0
476,112,48979,1,0
480,136,49053,1,0
488,156,49127,5,4
488,246,49276,1,0
256,348,49573,1,0
24,246,49870,1,0
4,160,50018,1,0
48,164,50093,1,0
88,188,50167,1,0
108,228,50241,1,0
104,272,50315,1,4
56,316,52692,6,0,B|104:304,1,45
164,208,52989,2,0,B|120:216,1,45,2|0
188,120,53286,2,0,B|276:105,1,90,0|2
364,88,53731,1,0
428,152,53880,2,0,B|436:200,1,45
378,312,54177,2,0,B|372:268,1,45,2|0
300,216,54474,2,0,B|208:240,2,90,0|2|0
172,88,55365,6,0,B|84:112,1,90,2|0
340,88,55959,2,0,B|428:112,1,90,2|0
256,360,56999,1,2
228,276,57147,1,0
256,192,57296,1,2
312,120,57444,6,0,B|388:172,1,90
200,120,57741,2,0,B|125:170,1,90,8|0
24,208,58038,2,0,B|68:224|100:276|68:328|24:344,1,180,0|8
132,356,58484,1,0
132,356,58632,2,0,B|164:316|156:268,1,90
256,192,58929,2,0,B|256:284,1,90,8|0
380,356,59226,2,0,B|348:316|355:272,1,90
435,196,59523,2,0,B|467:236|460:280,1,90,8|0
480,100,59820,6,0,B|296:80,1,180,0|8
122,133,60266,1,0
122,133,60414,2,0,B|212:144,1,90
152,232,60712,2,0,B|241:243,1,90,8|0
244,352,61009,2,0,B|289:354|335:332|357:286|355:238,1,180,0|8
432,316,61454,2,0,B|466:285|482:237|466:189|430:157,1,180
488,68,61900,2,0,B|396:56,1,90,8|0
256,192,62197,12,0,64276
64,56,64573,6,0,B|28:96|64:136,1,90,12|0
96,320,64870,2,0,B|132:280|96:240,1,90,8|0
156,148,65167,1,8
256,108,65315,1,0
356,148,65464,1,8
416,239,65613,1,0
416,320,65761,6,0,B|380:280|416:240,1,90,12|0
448,56,66058,2,0,B|484:96|448:136,1,90,8|0
352,232,66355,1,8
256,328,66504,1,0
160,232,66652,1,8
64,136,66801,1,0
64,56,66949,6,0,B|28:96|64:136,1,90,12|0
160,312,67246,2,0,B|196:272|160:232,1,90,8|0
352,232,67543,2,0,B|316:272|352:312,1,90,8|0
448,136,67840,2,0,B|484:96|448:56,1,90,8|0
340,76,68137,5,12
284,120,68286,1,0
212,132,68434,1,12
144,104,68583,1,0
100,48,68731,1,12
56,316,69028,1,0
84,312,69103,1,0
112,308,69177,1,0
140,304,69251,1,0
168,300,69325,6,0,B|256:300,1,90,4|0
342,192,69622,2,0,B|252:192,1,90
168,84,69919,2,0,B|256:84,1,90
348,24,70216,1,0
360,68,70291,1,0
392,100,70365,1,0
432,120,70439,1,0
476,124,70514,6,0,B|492:216,1,90,4|0
363,333,70811,2,0,B|360:244,1,90
152,244,71108,2,0,B|148:333,1,90
20,212,71405,1,0
24,192,71479,1,0
28,168,71553,1,0
32,144,71627,1,0
36,123,71702,6,0,B|132:104,1,90,4|0
220,156,71999,1,0
260,136,72073,1,0
304,132,72147,1,0
344,152,72221,1,0
368,192,72296,1,0
456,216,72444,1,0
439,257,72518,1,0
402,280,72593,1,0
336,344,72741,1,0
308,307,72815,1,0
308,260,72890,6,0,B|220:260,1,90,4|0
34,204,73187,2,0,B|124:204,1,90,4|0
306,144,73484,2,0,B|216:144,1,90,4|0
32,88,73781,2,0,B|122:88,1,90,4|0
194,88,74078,6,0,B|262:32|322:92|390:160|446:84,1,270,4|0
364,292,75266,6,0,B|328:208,1,90,4|0
148,292,75563,2,0,B|184:208,1,90,8|0
184,100,75860,2,0,B|208:56|256:36|304:56|328:100,1,180,0|8
328,100,76306,1,0
428,60,76454,6,0,B|456:104|428:144,1,90
512,216,76751,2,0,B|487:262|439:258,1,90,8|0
428,364,77048,2,0,B|375:366|355:321,1,90
68,296,77345,2,0,B|248:296,1,180,8|0
364,112,77939,5,8
148,112,78236,1,0
364,112,78533,1,8
168,24,78830,6,0,B|108:14|80:35|43:74|29:120|52:183|92:209|141:217|180:213|225:166,1,360
236,272,79573,2,0,B|188:268|148:296,2,90,0|8|0
324,280,80018,1,4
344,192,80167,6,0,B|344:104,1,90,0|8
436,164,80464,2,0,B|436:72,1,90
256,164,80761,2,0,B|256:76,2,90,0|8|0
184,244,81207,6,0,B|96:272,1,90
328,244,81504,2,0,B|416:272,1,90,8|0
116,164,81801,2,0,B|32:192,1,90
396,164,82098,2,0,B|480:192,1,90,8|0
256,44,82395,6,0,B|216:88|256:136|292:176|248:224,1,180,0|8
72,324,82989,2,0,B|72:188|72:188|36:152,1,180,0|8
440,324,83583,2,0,B|440:188|440:188|476:152,1,180,4|12
372,30,84028,1,0
372,30,84177,2,0,B|372:120,1,90,4|0
336,224,84474,1,12
312,232,84548,1,0
288,240,84622,1,0
264,248,84697,1,0
240,256,84771,6,0,B|180:188,1,90,4|0
196,80,85068,2,0,B|108:88,1,90,8|0
24,20,85365,2,0,B|-16:48|-24:96|-12:148|36:168,1,180,0|8
112,228,85811,1,0
116,336,85959,6,0,B|208:320,1,90
304,364,86256,2,0,B|340:280,1,90,8|0
436,236,86553,2,0,B|432:187|391:147|334:152|300:186,1,180,0|8
132,52,87147,6,0,B|132:140,1,90
240,232,87444,2,0,B|240:142,1,90,8|0
348,52,87741,2,0,B|348:142,1,90
456,234,88038,2,0,B|456:144,1,90,8|0
400,328,88335,6,0,B|380:368|328:396|276:368|256:328,1,180,0|8
148,312,88781,1,0
140,288,88855,1,0
132,264,88929,2,0,B|104:172,1,90
169,29,89226,2,0,B|196:116,1,90,8|0
296,156,89523,5,4
388,96,89672,1,0
480,148,89820,1,8
476,256,89969,1,0
396,328,90117,2,0,B|336:328|336:328|312:340|312:340|220:340,1,180,0|8
256,236,90563,1,0
188,152,90712,6,0,B|96:152,1,90,4|0
324,152,91009,2,0,B|416:152,1,90,8|0
140,252,91306,2,0,B|48:252,1,90
372,252,91603,2,0,B|464:252,1,90,8|0
256,336,91900,6,0,B|256:156,1,180,4|8
196,68,92345,1,0
196,68,92419,1,0
196,68,92494,2,0,B|104:96,1,90,4|0
316,68,92791,2,0,B|408:96,1,90,12|0
332,176,93088,6,0,B|384:272|488:232,1,180,4|12
420,320,93533,2,0,B|372:324|332:292,1,90,4|4
176,294,93830,1,0
176,294,93905,1,0
176,294,93979,2,0,B|140:324|92:320,1,90,12|0
28,233,94276,6,0,B|128:272|180:176,1,180,4|12
360,56,94870,1,4
456,104,95018,1,0
488,208,95167,1,12
280,264,95464,5,0
256,272,95538,1,0
232,280,95613,1,0
208,288,95687,1,0
184,296,95761,1,0
160,304,95835,1,0
136,312,95910,1,0
112,320,95984,1,0
88,328,96058,5,0
20,192,96207,1,0
88,56,96355,1,0
256,192,96652,6,0,B|256:104,1,90,4|0
356,54,96949,2,0,B|356:144,1,90,8|0
376,252,97246,1,0
308,336,97395,1,0
204,336,97543,1,8
136,252,97692,1,0
156,144,97840,6,0,B|156:54,1,90
256,102,98137,2,0,B|256:192,1,90,8|0
136,252,98434,2,0,B|48:224,1,90
376,252,98731,2,0,B|464:224,1,90,8|0
392,144,99028,6,0,B|344:40|256:8|168:40|120:144,2,360
484,200,100365,1,0
392,256,100514,1,8
332,344,100662,1,0
256,264,100811,1,0
180,344,100959,1,0
120,256,101108,1,8
28,200,101256,1,0
120,144,101405,6,0,B|84:104|120:64,3,90,4|0|8|0
256,24,101999,2,0,B|256:112,3,90,0|0|8|0
392,64,102593,6,0,B|428:104|392:144,1,90
336,316,102890,2,0,B|300:276|336:236,1,90,8|0
120,64,103187,2,0,B|84:104|120:144,1,90
176,316,103484,2,0,B|212:276|176:236,1,90,8|0
304,192,103781,6,0,B|396:192,1,90
256,144,104078,2,0,B|256:52,1,90,8|0
208,192,104375,2,0,B|116:192,1,90
256,240,104672,2,0,B|256:332,1,90,8|0
394,192,104969,5,4
256,330,105266,1,4
118,192,105563,1,4
256,54,105860,1,4
256,160,106157,6,0,B|204:230|136:162|76:102|8:158,1,270,4|0
120,344,107345,5,4
140,328,107419,1,0
168,320,107494,1,0
196,320,107568,1,0
220,328,107642,2,0,B|292:268,1,90,8|0
396,296,107939,1,0
404,272,108014,1,0
412,248,108088,1,0
420,224,108162,1,0
428,200,108236,2,0,B|408:112,1,90,8|0
256,40,108533,6,0,B|256:132,1,90
104,112,108830,1,8
100,136,108905,1,0
96,160,108979,1,0
92,180,109053,1,0
88,204,109127,2,0,B|176:216,1,90
120,308,109424,2,0,B|208:320,1,90,8|0
316,320,109721,5,0
356,300,109796,1,0
376,260,109870,1,0
376,216,109944,1,0
352,180,110018,2,0,B|324:92,1,90,8|0
224,56,110315,1,0
196,60,110390,1,0
168,64,110464,1,0
140,68,110538,1,0
112,72,110613,2,0,B|108:168,1,90,8|0
84,292,110910,5,0
212,332,111058,1,0
432,208,111207,5,8
304,248,111355,1,0
80,96,111504,5,0
208,136,111652,1,0
428,12,111801,5,8
300,52,111949,1,0
392,112,112098,5,4
428,140,112172,1,0
444,184,112246,1,0
436,228,112320,1,0
408,264,112395,2,0,B|440:352,1,90,8|0
332,348,112692,1,0
304,344,112766,1,0
276,340,112840,1,0
248,336,112914,1,0
220,332,112989,2,0,B|176:248,1,90,8|0
92,188,113286,6,0,B|176:152,1,90
104,72,113583,1,8
124,64,113657,1,0
144,56,113731,1,0
164,48,113806,1,0
184,40,113880,2,0,B|252:112|352:76,1,180,0|8
444,28,114325,1,0
440,136,114474,6,0,B|480:224,1,90
344,244,114771,2,0,B|352:336,1,90,8|0
168,244,115068,2,0,B|160:336,1,90
72,136,115365,2,0,B|32:224,1,90,8|0
256,40,115662,5,4
244,64,115736,1,0
236,92,115811,1,0
236,120,115885,1,0
240,148,115959,1,8
252,172,116033,1,0
268,196,116108,1,0
280,220,116182,1,0
284,248,116256,1,0
284,276,116330,1,0
280,304,116405,1,0
272,328,116479,1,0
260,352,116553,2,0,B|168:340,1,90,8|0
92,268,116850,6,0,B|76:176,1,90,4|0
136,15,117147,2,0,B|152:104,1,90,0|0
422,103,117444,5,4
287,103,117593,1,4
422,103,118038,6,0,B|438:195,1,90,4|0
378,356,118335,2,0,B|362:267,1,90,0|0
92,268,118632,5,4
227,268,118781,1,4
452,36,119226,5,4
476,76,119301,1,0
488,120,119375,1,0
480,164,119449,1,0
452,200,119523,2,0,B|364:180,1,90,8|0
360,88,119820,1,0
316,100,119895,1,0
288,136,119969,1,0
276,180,120043,1,0
284,224,120117,2,0,B|264:272|216:280,1,90,8|0
92,112,120414,6,0,B|56:148|92:192,1,90,0|0
48,292,120712,1,8
156,280,120860,1,0
252,324,121009,1,0
356,280,121157,1,0
464,292,121306,1,8
420,192,121454,1,0
420,192,121603,6,0,B|456:148|420:112,1,90,4|0
324,64,121900,2,0,B|288:108|324:144,1,90,8|0
188,144,122197,2,0,B|224:108|188:64,1,90,0|0
92,112,122494,2,0,B|56:148|92:192,1,90,8|0
28,280,122791,6,0,B|128:296,1,90
212,244,123088,1,8
240,248,123162,1,0
268,252,123236,1,0
296,256,123311,1,0
324,260,123385,2,0,B|360:176,1,90
428,260,123682,2,0,B|463:177,1,90,8|0
392,96,123979,5,4
256,44,124127,1,0
120,96,124276,1,8
120,96,124350,1,0
120,96,124424,1,0
120,96,124499,1,0
120,96,124573,1,0
36,200,124721,1,0
144,280,124870,1,8
232,176,125018,1,0
256,192,125167,12,4,126350
256,70,127613,5,2
327,289,128244,1,0
140,154,128876,1,0
371,154,129507,1,2
184,289,130139,1,0
