osu file format v4

[General]
AudioFilename: Leslie Feist - Inside and Out.mp3
AudioLeadIn: 0
AudioHash: f9e6e993ebf25a69db2020ae089be788
PreviewTime: -1
SampleSet: Soft

[Metadata]
Title:Inside and Out
Artist:Leslie Feist
Creator:Fox
Version:Insane!!

[Difficulty]
HPDrainRate:8
CircleSize:5
OverallDifficulty:9
SliderMultiplier: 1.4
SliderTickRate: 1

[Events]
0,0,"feist.jpg"
2,44876,58885
2,82951,92812
2,125618,144220
3,0,0,0,0

[TimingPoints]
2750,592.600098716683,4,2,0

[HitObjects]
256,304,12527,1,0,
224,240,12824,1,0,
192,176,13120,1,0,
160,112,13416,2,2,B|160:112|288:112,1,105
416,208,14305,5,0,
352,208,14602,1,0,
288,208,14898,1,0,
224,208,15194,1,0,
160,208,15490,1,0,
128,144,15787,2,2,B|128:144|224:80,2,105
256,48,17268,5,0,
224,112,17565,1,0,
288,112,17861,1,0,
256,176,18157,1,0,
256,176,18305,1,0,
256,176,18453,1,0,
256,256,18750,1,0,
256,336,19046,1,0,
80,224,19639,5,0,
128,160,19935,1,4,
176,224,20231,1,0,
224,160,20528,2,6,B|224:160|368:224,1,140
384,144,21416,2,2,B|384:144|240:80,1,140
256,256,22898,5,0,
192,208,23194,1,0,
192,128,23491,1,0,
256,80,23787,1,0,
256,80,23935,1,2,
368,80,24379,1,0,
352,160,24676,1,0,
336,240,24972,1,0,
336,240,25120,1,2,
256,80,25861,5,0,
256,160,26157,1,0,
256,240,26454,1,0,
176,240,26750,1,0,
176,160,27046,1,0,
176,80,27342,1,0,
176,80,27491,1,0,
256,80,27787,1,0,
336,80,28083,1,0,
336,160,28379,1,0,
256,288,28824,5,2,
208,224,29120,1,2,
304,224,29417,1,2,
256,160,29713,1,2,
256,160,29861,2,2,B|256:160|149:124|368:112|224:32,1,175
192,80,30898,1,0,
256,192,31491,5,0,
304,128,31787,1,0,
352,192,32083,1,0,
352,192,32231,1,0,
352,272,32528,1,0,
256,192,32972,5,0,
208,128,33268,1,0,
160,192,33565,1,0,
160,272,33861,1,0,
240,272,34157,1,0,
320,272,34454,1,0,
400,272,34750,1,0,
352,144,35343,5,0,
352,144,35491,1,2,
256,64,35935,1,0,
256,176,36380,1,0,
256,288,36824,1,0,
144,288,37268,1,0,
64,192,37713,1,0,
192,192,38306,6,2,B|192:192|368:192,4,140
208,112,40972,5,0,
288,112,41269,1,0,
368,112,41565,1,0,
368,192,41861,1,2,
368,192,42009,1,2,
368,192,42157,1,2,
368,192,42306,1,2,
288,272,42750,5,0,
208,272,43046,1,0,
208,192,43343,1,0,
256,112,43639,1,0,
336,112,43935,1,0,
384,192,44232,1,0,
256,192,44676,1,6,
256,320,59935,5,0,
256,240,60232,1,0,
256,160,60528,1,0,
256,80,60824,1,0,
336,112,61121,1,0,
336,112,61269,1,0,
295,214,61713,1,0,
220,213,62010,1,0,
256,96,62602,5,4,
160,192,63195,5,0,
256,288,63787,5,4,
352,192,64380,5,2,
256,96,64973,5,6,
160,192,65565,5,2,
256,288,66158,5,6,
352,192,66750,5,6,
256,96,67343,1,0,
256,192,67639,1,0,
256,192,67787,1,0,
256,320,68528,5,2,
256,320,68676,1,2,
256,320,68824,1,2,
256,320,68973,1,2,
256,320,69121,1,2,
256,224,69417,5,0,
320,176,69713,1,0,
320,96,70010,1,0,
320,96,70158,1,0,
192,96,70602,1,0,
192,176,70899,1,0,
256,224,71195,1,0,
256,304,71491,1,0,
256,176,72084,1,0,
256,96,72380,1,0,
256,96,72528,1,0,
256,288,73269,5,0,
352,192,73862,5,2,
256,96,74454,5,6,
160,192,75047,5,2,
256,288,75639,5,6,
352,192,76232,5,6,
256,96,76825,1,0,
256,192,77121,1,0,
256,192,77269,1,0,
256,304,78010,5,2,
256,304,78158,1,2,
256,304,78306,1,2,
256,304,78454,1,2,
256,304,78602,2,2,B|256:304|112:304,1,140
112,224,79491,1,0,
112,224,79639,1,0,
256,128,80380,5,0,
208,208,80676,1,0,
304,208,80973,1,2,
160,112,81565,1,2,
352,112,82158,1,2,
256,272,82751,1,6,
96,192,93862,5,0,
96,192,94010,1,0,
112,112,94306,1,0,
192,112,94603,1,0,
192,192,94899,1,0,
192,192,95047,1,0,
304,192,95491,1,0,
304,112,95788,1,0,
384,112,96084,1,0,
384,112,96232,1,0,
448,256,96973,5,0,
384,208,97269,1,0,
320,256,97566,1,0,
256,208,97862,1,0,
192,256,98158,1,0,
128,208,98454,1,0,
128,208,98603,1,0,
64,256,98899,1,0,
256,80,99491,5,0,
256,80,99640,1,0,
320,128,99936,1,0,
256,176,100232,1,0,
192,224,100529,1,0,
256,272,100825,1,0,
256,272,100973,2,4,B|256:272|336:336,4,70
256,176,102603,5,0,
208,256,102899,1,0,
304,256,103195,1,0,
352,176,103492,1,0,
352,96,103788,1,0,
352,96,103936,1,0,
432,192,104380,1,0,
352,192,104677,5,0,
256,96,105269,5,0,
160,192,105862,5,0,
256,288,106455,5,4,
352,192,107047,5,2,
256,96,107640,5,6,
160,192,108232,5,2,
256,288,108825,5,6,
352,192,109418,5,4,
256,96,110010,5,0,
256,192,110306,1,0,
256,192,110455,1,0,
256,320,111195,5,2,
256,320,111343,1,2,
256,320,111492,1,2,
256,320,111640,1,2,
256,320,111788,1,2,
256,224,112084,5,0,
320,176,112381,1,0,
320,96,112677,1,0,
320,96,112825,1,0,
192,96,113269,1,0,
192,176,113566,1,0,
256,224,113862,1,0,
256,304,114158,1,0,
256,176,114751,1,0,
256,96,115047,1,0,
256,96,115195,1,0,
256,288,115936,5,0,
352,192,116529,5,0,
256,96,117121,5,4,
160,192,117714,5,0,
256,288,118307,5,4,
352,192,118899,5,4,
256,96,119492,5,0,
256,192,119788,1,0,
256,192,119936,1,0,
256,304,120677,5,2,
256,304,120825,1,2,
256,304,120973,1,2,
256,304,121121,1,2,
256,304,121270,2,2,B|256:304|112:304,1,140
112,224,122158,1,0,
112,224,122307,1,0,
256,128,123047,5,0,
208,208,123344,1,0,
304,208,123640,1,0,
160,112,124233,1,0,
352,112,124825,1,0,
256,272,125418,1,0,
128,112,145270,5,0,
144,192,145566,1,2,
160,272,145862,1,0,
240,272,146159,1,2,
256,192,146455,1,0,
272,112,146751,1,2,
352,112,147048,1,0,
368,192,147344,1,2,
384,272,147640,1,6,
256,320,148233,5,0,
256,240,148529,1,6,
256,144,148974,1,6,
256,48,149418,1,6,
368,112,150011,5,0,
352,176,150307,1,0,
336,240,150603,1,0,
336,240,150751,1,0,
320,304,151048,1,2,
192,304,151492,5,0,
176,240,151788,1,0,
160,176,152085,1,0,
144,112,152381,1,2,
208,80,152677,1,2,
272,80,152974,1,0,
272,80,153122,1,0,
256,176,153714,1,6,
336,304,154455,5,0,
256,304,154751,1,0,
192,256,155048,1,0,
208,176,155344,1,0,
208,176,155492,1,0,
336,208,156085,5,0,
336,208,156233,1,0,
336,128,156529,1,0,
304,64,156826,1,0,
224,64,157122,1,0,
192,128,157418,1,0,
192,208,157714,1,0,
192,208,157863,1,0,
256,320,158751,5,2,
256,320,158900,1,2,
320,272,159196,1,0,
368,224,159492,1,0,
320,176,159789,1,0,
256,144,160085,1,2,
256,144,160233,1,2,
192,176,160529,1,0,
256,272,160974,5,0,
336,272,161270,1,0,
384,224,161566,1,0,
384,144,161863,1,0,
336,80,162159,1,2,
336,80,162307,1,2,
256,80,162603,2,6,B|256:80|112:96|96:208|256:272,1,315
256,192,164233,12,0,169863
256,64,171048,2,0,B|256:64|256:208,1,140
256,272,171937,1,0,
256,272,172085,1,0,
256,192,172529,1,0,
256,128,172826,5,6,
256,128,172974,1,6,
256,128,173122,1,6,
256,128,173270,1,6,
256,128,173418,1,6,
256,64,173715,6,0,B|256:64|352:64,1,70
416,64,174307,1,0,
416,64,174455,1,0,
416,176,174900,2,4,B|416:176|416:272,2,70
336,176,175789,6,2,B|336:176|192:176,1,140
112,176,176678,1,0,
112,176,176826,2,0,B|112:176|176:176,5,35
256,117,178159,6,2,B|256:117|256:293,1,140
320,256,179048,1,0,
326,192,179344,2,6,B|326:192|150:192,1,140
192,128,180233,1,0,
256,96,180530,5,0,
368,144,181122,1,0,
368,224,181418,1,0,
368,224,181567,1,0,
256,192,182307,5,6,
256,192,182455,1,6,
256,192,182604,1,6,
256,192,182752,1,6,
256,192,182900,2,6,B|256:192|256:112,1,70
320,128,183493,2,4,B|320:128|320:256,2,105
384,208,184678,5,4,
320,256,184974,1,4,
256,304,185270,2,6,B|256:304|176:240,1,70
144,192,185863,2,6,B|144:192|208:112,1,70
256,80,186456,2,6,B|256:80|336:144,1,70
368,192,187048,2,6,B|368:192|304:272,1,70
256,192,187641,12,0,196530
