osu file format v9

[General]
AudioFilename: track.mp3
AudioLeadIn: 0
PreviewTime: 98037
Countdown: 0
SampleSet: Soft
StackLeniency: 0.7
Mode: 0
LetterboxInBreaks: 0

[Editor]
DistanceSpacing: 0.9
BeatDivisor: 4
GridSize: 4

[Metadata]
Title:Dreaming (Kristian Remix)
Artist:Lerry Muller feat. Anetta Grant
Creator:h3k1ru
Version:h3k1
Source:
Tags:cRyo[iceeicee] fairlads digital records dance electronic chillout lounge ambient

[Difficulty]
HPDrainRate:7
CircleSize:4
OverallDifficulty:7
ApproachRate:8
SliderMultiplier:1.6
SliderTickRate:1

[Events]
//Background and Video events
0,0,"bg.jpg"
//Break Periods
//Storyboard Layer 0 (Background)
//Storyboard Layer 1 (Fail)
//Storyboard Layer 2 (Pass)
//Storyboard Layer 3 (Foreground)
//Storyboard Sound Samples
//Background Colour Transformations
3,100,163,162,255

[TimingPoints]
325,428.571428571429,4,2,1,40,1,0
1932,-133.333333333333,4,2,1,20,0,0
8789,-133.333333333333,4,2,1,25,0,0
10503,-133.333333333333,4,2,1,30,0,0
12217,-133.333333333333,4,2,1,35,0,0
13932,-133.333333333333,4,2,1,40,0,0
15646,-100,4,1,0,25,0,0
15860,-100,4,2,1,45,0,0
40932,-100,4,2,1,30,0,0
41146,-100,4,2,1,45,0,0
42217,-100,4,2,1,40,0,0
42646,-100,4,2,1,30,0,0
42860,-100,4,2,1,45,0,0
43075,-100,4,2,2,40,0,0
43289,-100,4,2,1,50,0,0
57271,-100,4,1,1,20,0,0
57378,-100,4,2,1,50,0,0
57592,-100,4,1,1,20,0,0
57700,-100,4,2,1,50,0,0
58075,-100,4,2,1,20,0,0
58289,-100,4,2,1,50,0,0
59200,-100,4,1,1,20,0,0
59307,-100,4,2,1,50,0,0
59628,-100,4,1,1,20,0,0
59735,-100,4,2,1,50,0,0
60057,-100,4,1,1,20,0,0
60271,-100,4,2,1,45,0,0
60378,-100,4,2,1,50,0,0
60700,-100,4,1,1,20,0,0
60807,-100,4,2,1,50,0,0
61021,-100,4,1,1,20,0,0
61128,-100,4,2,1,50,0,0
61450,-100,4,1,1,20,0,0
61557,-100,4,2,1,20,0,0
61664,-100,4,2,1,50,0,0
61985,-100,4,2,1,40,0,0
62092,-100,4,2,1,50,0,0
62628,-100,4,1,1,20,0,0
62735,-100,4,2,1,50,0,0
63057,-100,4,1,1,20,0,0
63164,-100,4,2,1,50,0,0
63485,-100,4,1,1,20,0,0
63592,-100,4,2,1,50,0,0
63700,-100,4,2,1,35,0,0
63807,-100,4,2,1,50,0,0
64128,-100,4,1,1,20,0,0
64235,-100,4,2,1,50,0,0
64450,-100,4,1,1,20,0,0
64557,-100,4,2,1,50,0,0
64985,-100,4,2,1,20,0,0
65414,-100,4,2,1,30,0,0
65521,-100,4,2,1,50,0,0
66057,-100,4,1,1,20,0,0
66164,-100,4,2,1,50,0,0
66485,-100,4,1,1,20,0,0
66592,-100,4,2,1,50,0,0
66914,-100,4,1,1,20,0,0
67128,-100,4,2,1,25,0,0
67235,-100,4,2,1,50,0,0
67557,-100,4,1,1,20,0,0
67664,-100,4,2,1,50,0,0
67878,-100,4,1,1,20,0,0
67985,-100,4,2,1,55,0,0
68414,-100,4,2,1,15,0,0
68521,-100,4,2,1,60,0,0
69485,-100,4,1,1,30,0,0
69592,-100,4,2,1,60,0,0
69914,-100,4,1,1,30,0,0
70021,-100,4,2,1,60,0,0
70342,-100,4,1,1,30,0,0
70450,-100,4,2,1,60,0,0
70610,-100,4,1,1,40,0,1
71842,-100,4,2,1,25,0,1
71950,-100,4,1,1,40,0,1
75271,-100,4,2,1,25,0,1
75378,-100,4,1,1,40,0,1
78700,-100,4,2,1,25,0,1
78807,-100,4,1,1,40,0,1
82128,-100,4,2,1,25,0,1
82235,-100,4,1,1,40,0,1
85557,-100,4,2,1,25,0,1
85664,-100,4,1,1,40,0,1
88985,-100,4,2,1,25,0,1
89092,-100,4,1,1,40,0,1
92414,-100,4,2,1,25,0,1
92521,-100,4,1,1,40,0,1
95842,-100,4,2,1,25,0,1
95950,-100,4,1,1,40,0,1
96325,-100,4,2,1,50,0,0
96700,-100,4,2,1,40,0,0
96860,-100,4,1,1,40,0,0
97128,-100,4,2,1,40,0,0
97289,-100,4,1,1,40,0,0
97557,-100,4,2,1,40,0,0
97717,-100,4,1,1,40,0,0
98039,-100,4,1,1,40,0,1
99271,-100,4,2,1,25,0,1
99378,-100,4,1,1,40,0,1
102700,-100,4,2,1,25,0,1
102807,-100,4,1,1,40,0,1
106128,-100,4,2,1,25,0,1
106235,-100,4,1,1,40,0,1
109557,-100,4,2,1,25,0,1
109664,-100,4,1,1,40,0,1
110039,-100,4,1,1,40,0,0
110414,-100,4,1,1,35,0,0
110789,-100,4,1,1,40,0,0
111753,-100,4,1,1,40,0,1
112985,-100,4,2,1,25,0,1
113092,-100,4,1,1,40,0,1
116414,-100,4,2,1,25,0,1
116521,-100,4,1,1,40,0,1
119842,-100,4,2,1,25,0,1
119950,-100,4,1,1,40,0,1
123271,-100,4,2,1,25,0,1
123378,-100,4,1,1,40,0,1
123753,-100,4,2,2,10,0,0
124182,-100,4,2,2,20,0,0
124610,-100,4,2,2,30,0,0
125039,-100,4,2,2,40,0,0
125467,-100,4,2,2,50,0,1
125521,-100,4,2,2,50,0,0

[Colours]
Combo1 : 255,128,0
Combo2 : 255,0,0

[HitObjects]
64,112,2039,2,0,B|56:176|116:216,1,119.999996423721,2|0
232,296,2896,1,0
376,296,3325,1,0
408,120,3753,6,0,B|380:180|312:180,1,119.999996423721,2|0
256,48,4610,1,0
112,48,5039,1,0
48,216,5467,6,0,B|104:248|168:212,1,119.999996423721,2|0
300,332,6325,2,0,B|360:308|372:236,1,119.999996423721,0|0
208,164,7182,2,0,B|152:124|176:52,1,119.999996423721,2|0
356,88,8039,2,0,B|416:116|424:184,1,119.999996423721
252,236,8896,5,2
172,116,9324,1,0
116,248,9753,2,0,B|128:312|196:336,1,119.999996423721
364,280,10610,5,2
424,148,11039,1,0
324,40,11467,2,0,B|256:44|224:100,1,119.999996423721
364,200,12324,5,2
364,200,12753,2,0,B|308:232|248:200,2,119.999996423721,0|0|0
184,320,14039,1,2
184,320,14467,2,0,B|242:351|298:319,2,119.999996423721,0|0|0
84,156,15753,5,4
132,72,15967,2,0,B|168:48|208:52,1,80,0|0
284,112,16396,2,0,B|336:112,2,40,0|0|2
196,160,16824,1,0
144,244,17039,2,0,B|152:288|196:304,1,80,0|0
284,220,17467,5,2
380,200,17682,1,0
344,292,17896,2,0,B|376:320|420:320,2,80,0|0|2
248,304,18539,1,0
152,296,18753,1,0
200,192,18967,5,0
200,192,19075,1,0
200,192,19182,2,0,B|160:172|160:124,1,80,2|0
148,32,19610,1,0
256,68,19825,2,0,B|236:112,2,40,0|0|2
352,40,20253,1,0
444,72,20467,1,0
368,144,20682,6,0,B|400:172|444:168,2,80,0|2|0
216,220,21325,2,0,B|200:260|156:272,2,80,0|0|2
320,216,21967,1,0
428,240,22182,1,2
352,328,22396,1,0
216,328,22610,6,0,B|173:326|144:293,1,80,2|0
72,232,23039,1,0
68,136,23253,2,0,B|20:136,2,40,0|0|2
160,80,23682,2,0,B|184:44|228:36,1,80
264,136,24110,6,0,B|304:148|344:128,2,80,0|2|0
184,224,24753,2,0,B|216:248|264:240,1,80
384,204,25182,2,0,B|400:164|444:144,2,80,2|0|0
372,340,25825,5,0
372,340,25932,1,0
372,340,26039,2,0,B|328:344|296:316,1,80,2|0
216,264,26467,1,0
152,192,26682,1,0
132,96,26896,1,2
240,128,27110,2,0,B|272:84,2,40
312,212,27539,5,0
312,212,27646,1,0
312,212,27753,2,0,B|352:204|376:168,1,80,2|0
448,244,28182,1,0
420,344,28396,2,0,B|472:344,2,40,0|0|2
328,280,28825,2,0,B|296:312|256:308,1,80,0|2
256,308,29253,1,0
104,248,29467,6,0,B|140:172|228:152,1,160,2|0
320,132,30110,1,0
408,184,30325,2,0,B|380:216|340:224,1,80,2|0
244,240,30753,1,0
164,300,30967,1,0
68,256,31182,6,0,B|28:228|36:184,1,80,2|0
80,100,31610,1,0
188,108,31825,1,0
188,108,31932,1,0
188,108,32039,2,0,B|204:152|252:156,1,80,2|0
344,156,32467,1,0
412,84,32682,1,0
488,188,32896,6,0,B|452:264|364:300,1,160,2|0
280,340,33539,1,0
172,308,33753,2,0,B|140:276|140:232,1,80,2|0
116,132,34182,1,0
232,56,34396,2,0,B|180:56,2,40,0|0|2
216,156,34825,5,0
116,232,35039,2,0,B|132:272|172:284,1,80,2|0
339,284,35467,2,0,B|380:272|396:231,1,80,2|0
352,84,35896,1,0
196,96,36110,5,0
196,96,36217,1,0
196,96,36325,2,0,B|159:84|133:49,2,80,2|0|0
56,176,36967,1,0
164,188,37182,2,0,B|208:196|248:180,1,80,2|0
112,304,37610,5,0
220,296,37825,1,0
324,264,38039,2,0,B|367:255|399:226,1,80,2|0
284,88,38467,5,0
184,48,38682,1,0
88,100,38896,2,0,B|108:136|152:148,1,80,2|0
324,192,39325,5,0
424,156,39539,1,0
364,68,39753,2,0,B|336:36|296:32,1,80,2|0
216,112,40182,5,2
104,140,40396,2,0,B|64:124|44:88,2,80,0|2|0
216,144,41039,1,2
160,244,41253,6,0,B|120:260|96:300,2,80,0|2|0
272,196,41896,1,2
260,80,42110,1,0
356,148,42325,1,2
344,32,42539,1,0
464,120,42753,2,0,B|476:160|461:202,1,80,2|0
372,320,43182,6,0,B|296:360|212:328,1,160,2|0
124,296,43825,1,0
204,232,44039,2,0,B|264:172|256:80,1,160,2|0
176,24,44682,5,0
80,40,44896,2,0,B|80:124|148:180,2,160,2|0|2
212,96,45967,2,0,B|168:96,2,40,0|0|2
236,208,46396,5,0
236,208,46503,1,0
236,208,46610,2,0,B|240:296|324:336,1,160,2|0
376,224,47253,1,0
420,56,47467,2,0,B|336:72|288:144,1,160,2|0
392,192,48110,5,0
436,328,48324,2,0,B|352:324|288:272,1,160,2|0
196,216,48967,1,0
196,216,49182,1,2
196,108,49396,2,0,B|144:108,2,40,0|0|2
316,44,49824,5,0
316,44,49932,1,0
316,44,50039,2,0,B|376:104|372:196,1,160,2|0
364,292,50682,1,0
272,340,50896,2,0,B|188:328|136:260,1,160,2|0
76,176,51539,5,0
168,76,51753,1,2
184,180,51967,2,0,B|228:184|260:152,1,80
360,200,52396,2,0,B|380:248,2,40,0|0|2
400,68,52824,2,0,B|356:64|324:96,1,80,0|2
116,120,53253,5,0
116,120,53360,1,0
116,120,53467,2,0,B|176:176|262:174,1,160,2|0
204,272,54110,2,0,B|172:320,2,40,0|0|2
344,264,54539,2,0,B|316:308,2,40,0|0|2
220,88,54967,1,0
312,88,55182,6,0,B|356:92|388:56,2,80,2|0|2
184,28,55824,2,0,B|128:28,2,40,0|0|2
104,144,56253,2,0,B|60:144,2,40,0|0|2
192,256,56682,5,0
192,256,56789,1,0
192,256,56896,2,0,B|232:256|280:256,1,80,2|0
392,184,57324,2,0,B|428:152|424:104,1,80
424,113,57646,1,0
424,113,57753,1,0
192,256,58182,5,4
116,72,58610,6,0,B|144:152|236:176,1,160,2|0
280,284,59253,2,0,B|252:328,2,40,0|0|0
352,188,59682,2,0,B|404:188,2,40
244,136,60110,1,0
228,48,60324,6,0,B|268:36|304:68,1,80,2|0
352,148,60753,1,0
368,292,60967,2,0,B|424:292,2,40,0|0|0
220,268,61396,2,0,B|168:268,2,40,0|0|4
276,176,61824,5,0
276,176,61932,1,0
276,176,62039,2,0,B|236:160|196:176,1,80,2|0
124,104,62467,1,0
204,44,62682,2,0,B|240:24|280:44,1,80,0|0
348,116,63110,2,0,B|388:132|428:116,1,80
384,280,63539,5,0
384,280,63646,1,0
384,280,63753,2,0,B|356:312|312:312,1,80,2|0
212,280,64182,1,0
260,184,64396,2,0,B|220:152,2,40,0|0|0
348,116,64824,1,0
348,116,65039,1,4
104,72,65467,5,2
40,152,65682,1,0
48,260,65896,2,0,B|92:264|124:232,1,80
256,324,66324,2,0,B|280:292|288:252,1,80,0|0
448,216,66753,2,0,B|436:176|412:140,1,80
284,48,67182,6,0,B|200:48|136:104,1,160,2|0
128,204,67824,2,0,B|68:204,2,40,0|0|0
256,304,68253,2,0,B|224:348,2,40,0|0|4
388,204,68682,6,0,B|436:204,2,40,0|0|0
256,88,69110,2,0,B|224:44,2,40,0|0|0
64,112,69539,1,0
60,140,69646,1,0
56,168,69753,1,0
52,196,69860,1,0
52,232,69967,2,0,B|12:224,2,40
52,268,70289,2,0,B|92:260,2,40
28,300,70610,6,0,B|52:336|104:332,1,80,4|0
208,332,71039,1,0
316,328,71253,2,0,B|356:312|372:268,1,80,4|8
340,136,71682,2,0,B|368:100|408:92,2,80,0|4|0
212,192,72324,6,0,B|124:196|64:136,1,160,4|0
152,64,72967,1,0
256,92,73182,1,8
360,48,73396,2,0,B|400:32|440:48,1,80,4|0
400,152,73824,1,4
476,236,74039,6,0,B|460:280|416:288,1,80,4|0
264,236,74467,2,0,B|224:252|204:292,2,80,0|4|8
360,180,75110,1,0
308,80,75324,1,4
168,64,75539,5,0
168,64,75646,1,0
168,64,75753,2,0,B|168:148|244:208,1,160,4|0
64,228,76396,2,0,B|80:188|120:172,2,80,0|8|4
376,312,77253,5,4
376,312,77467,2,0,B|420:312|448:276,1,80,4|0
368,200,77896,2,0,B|376:156|412:132,1,80,0|4
480,56,78324,1,8
344,92,78539,2,0,B|300:92|268:72,1,80,0|4
168,28,78967,1,0
36,120,79182,6,0,B|61:199|149:227,1,160,4|0
232,288,79824,2,0,B|208:324|164:328,2,80,0|8|4
236,172,80467,1,0
280,64,80682,1,4
396,64,80896,6,0,B|424:96|424:140,1,80,4|0
420,248,81324,1,0
328,332,81539,2,0,B|268:332,2,40,4|0|8
356,216,81967,1,0
296,120,82182,2,0,B|256:120|220:144,1,80,4|0
364,280,82610,6,0,B|284:312|208:280,1,160,4|0
116,240,83253,1,0
40,172,83467,2,0,B|56:132|96:116,1,80,8|4
188,80,83896,1,0
264,188,84110,5,4
264,188,84217,1,0
264,188,84324,2,0,B|304:196|344:172,1,80,4|0
308,304,84753,2,0,B|271:326|231:318,1,80,0|4
64,256,85182,2,0,B|92:176|168:136,1,160,8|4
256,80,85824,1,0
232,224,86039,6,0,B|272:232|308:204,1,80,4|0
392,120,86467,1,0
472,208,86682,1,0
388,296,86896,2,0,B|356:324|312:320,1,80,8|4
36,192,87539,5,4
36,192,87753,2,0,B|56:152|96:136,1,80,4|0
196,128,88182,2,0,B|236:112|256:72,1,80,0|4
400,80,88610,2,0,B|380:160|304:208,1,160,8|4
196,224,89253,1,0
96,272,89467,6,0,B|116:312|164:320,1,80,4|0
120,160,89896,1,0
196,76,90110,1,0
308,56,90324,1,8
308,164,90539,2,0,B|256:176,2,40,4|0|0
412,192,90967,1,4
340,320,91182,6,0,B|260:352|168:316,1,160,4|4
180,284,91717,2,0,B|148:260,2,40,0|4|0
216,264,92039,2,0,B|228:184|186:110,1,160,8|4
136,24,92682,1,0
40,68,92896,6,0,B|36:112|68:144,1,80,4|0
132,228,93324,1,0
236,264,93539,1,0
224,156,93753,2,0,B|252:124|300:124,2,80,8|4|0
92,188,94396,1,4
40,308,94610,6,0,B|64:344|112:336,1,80,4|0
224,272,95039,1,0
208,120,95253,1,4
80,36,95467,2,0,B|16:96|24:184,1,160,8|4
23,179,96110,1,0
23,179,96324,1,2
152,80,96753,6,0,B|168:120|208:132,1,80,2|0
152,312,97182,2,0,B|192:299|208:259,1,80,2|0
396,212,97610,2,0,B|360:188|316:197,1,80,2|0
180,48,98039,6,0,B|136:44|108:76,1,80,6|0
184,148,98467,1,0
128,240,98682,2,0,B|64:240,2,40,4|0|8
160,344,99110,2,0,B|200:328|224:292,1,80,0|4
320,336,99539,5,0
320,336,99646,1,0
320,336,99753,2,0,B|360:320|384:284,1,80,4|0
420,188,100182,1,0
408,80,100396,1,0
248,48,100610,2,0,B|212:76|212:120,1,80,8|4
200,260,101039,6,0,B|164:284|120:280,2,80,0|4|6
292,148,101682,2,0,B|328:168|344:212,1,80
368,316,102110,2,0,B|424:316,2,40,4|0|8
256,296,102539,1,0
168,232,102753,1,4
100,136,102967,5,0
100,136,103074,1,0
100,136,103182,2,0,B|132:112|172:104,1,80,4|0
312,68,103610,1,0
272,204,103824,2,0,B|232:220|216:260,2,80,0|8|4
388,140,104467,1,0
408,268,104682,1,4
280,348,104896,6,0,B|236:356|200:336,1,80,6|0
72,240,105324,1,0
148,124,105539,1,4
148,124,105646,1,0
148,124,105753,1,8
284,148,105967,2,0,B|272:188|236:216,2,80,0|4|0
320,44,106610,5,4
400,116,106824,2,0,B|420:152|468:160,1,80
400,280,107253,1,0
400,280,107360,1,0
400,280,107467,1,8
264,300,107682,2,0,B|220:288|200:252,1,80,4|0
136,156,108110,5,4
136,156,108324,2,0,B|160:124|204:112,1,80,6|0
312,72,108753,1,0
312,72,108967,1,4
280,168,109182,2,0,B|304:200|348:220,1,80,8|0
412,80,109610,2,0,B|440:112|440:156,1,80,4|0
440,256,110039,1,4
144,304,110467,6,0,B|172:336|216:344,2,80,8|0|8
56,248,111110,1,4
80,236,111217,1,0
100,216,111324,1,0
128,108,111539,5,4
148,88,111646,1,0
172,76,111753,2,0,B|208:56|260:60,1,80,6|0
376,60,112182,1,0
324,172,112396,2,0,B|352:204|396:208,2,80,4|8|0
176,148,113039,1,4
76,196,113253,1,0
40,304,113467,6,0,B|68:336|116:332,1,80,4|0
180,240,113896,1,0
304,304,114110,1,0
304,304,114217,1,0
304,304,114324,1,8
396,224,114539,2,0,B|412:184|396:140,1,80,4|0
308,64,114967,5,4
308,64,115074,1,0
308,64,115182,2,0,B|272:40|228:48,1,80,6|0
112,56,115610,1,0
60,164,115824,5,4
60,164,115932,1,0
60,164,116039,2,0,B|52:208|84:240,1,80,8|0
164,304,116467,1,4
272,296,116682,1,0
360,236,116896,6,0,B|400:220|404:172,1,80,4|0
292,84,117324,1,0
152,100,117539,2,0,B|116:60,2,40,0|0|8
220,196,117967,1,4
152,292,118182,6,0,B|112:304|68:292,2,80,0|4|6
248,244,118824,2,0,B|276:212|316:204,1,80
352,308,119253,6,0,B|440:308,2,80,4|8|0
264,160,119896,1,4
152,80,120110,2,0,B|60:80,2,80,0|4|0
324,84,120753,5,0
312,224,120967,2,0,B|276:252|276:292,2,80,0|8|4
152,160,121610,1,0
284,112,121824,6,0,B|319:131|360:109,2,80,4|6|0
228,212,122467,1,0
116,192,122682,2,0,B|60:228,2,40,0|0|8
144,296,123110,2,0,B|144:348,2,40,0|0|4
184,140,123539,1,0
256,192,123753,12,2,125467
