osu file format v9

[General]
AudioFilename: i luv u, ryuu.mp3
AudioLeadIn: 2500
PreviewTime: 10763
Countdown: 0
SampleSet: Soft
StackLeniency: 0.7
Mode: 0
LetterboxInBreaks: 0

[Editor]
DistanceSpacing: 1
BeatDivisor: 8
GridSize: 4

[Metadata]
Title:V Lesu Rodilas Yolochka (Jazz Ver.)
Artist:Leonid Beckman
Creator:rockleejkooo
Version:Insane
Source:
Tags:russian [Ryuu] new year

[Difficulty]
HPDrainRate:7
CircleSize:4
OverallDifficulty:7
ApproachRate:8
SliderMultiplier:2
SliderTickRate:1

[Events]
//Background and Video events
0,0,"happy new year ryuedz!.JPG"
//Break Periods
//Storyboard Layer 0 (Background)
//Storyboard Layer 1 (Fail)
//Storyboard Layer 2 (Pass)
//Storyboard Layer 3 (Foreground)
//Storyboard Sound Samples
//Background Colour Transformations
3,100,163,162,255

[TimingPoints]
292,550.711335474988,4,2,0,40,1,0
19016,550.711335474988,4,2,0,40,1,0
35537,550.711335474988,4,2,0,40,1,0
45449,-200,4,2,0,40,0,0
46000,-100,4,2,0,40,0,0
54261,550.711335474988,4,2,0,40,1,0
61970,-200,4,2,0,40,0,0
62797,-100,4,2,0,40,0,0
71883,-100,4,2,0,40,0,1
83999,550.711335474988,4,2,0,40,1,0
86477,-100,4,2,0,35,0,0
86752,-100,4,2,0,30,0,0
87027,-100,4,2,0,25,0,0
87303,-100,4,2,0,20,0,0
88404,-100,4,2,0,15,0,0

[Colours]
Combo1 : 153,193,253
Combo2 : 0,130,65

[HitObjects]
64,64,292,5,8
72,152,475,1,8
216,88,750,1,8
216,88,842,1,8
296,128,1026,1,8
200,232,1301,1,8
200,232,1393,1,8
200,232,2127,1,8
200,232,2219,1,8
72,80,2494,5,4
194,100,2770,2,0,B|251:182,1,100,8|2
320,104,3320,1,8
424,152,3596,1,2
344,256,3871,2,0,B|300:312,1,66.6666666666667,8|2
302,308,4422,1,4
429,342,4697,5,2
461,260,4881,1,2
461,260,4973,1,8
112,248,5248,1,2
240,176,5523,1,8
224,320,5799,1,2
352,240,6074,2,0,B|412:208,1,66.6666666666667,8|2
392,64,6533,1,8
392,64,6625,1,2
80,192,7175,5,8
184,248,7451,1,2
240,136,7726,1,8
136,88,8001,1,2
80,192,8277,2,0,B|152:180,1,66.6666666666667,8|2
80,192,8828,1,4
352,76,9286,5,2
352,76,9378,1,8
416,168,9654,1,2
268,216,9929,1,8
444,312,10204,1,2
236,344,10480,1,2
176,356,10663,1,2
212,72,11030,5,8
188,160,11306,1,2
280,132,11581,2,0,B|300:208|256:252,1,100,8|2
92,140,12132,2,0,B|80:216|112:248,1,100,8|2
280,132,12683,1,8
104,236,12958,1,2
384,76,13233,6,0,B|404:96|404:96|408:100|408:100|404:104|404:104|400:108|400:108|404:112|404:112|408:116|408:116|404:120|404:120|400:124|400:124|404:128|404:128|408:132|408:132|428:152,1,100,8|2
224,320,13784,2,0,B|244:300|244:300|248:296|248:296|244:292|244:292|240:288|240:288|244:284|244:284|248:280|248:280|244:276|244:276|240:272|240:272|244:268|244:268|248:264|248:264|268:244,1,100,8|2
152,44,14335,2,0,B|132:64|132:64|128:68|128:68|132:72|132:72|136:76|136:76|132:80|132:80|128:84|128:84|132:88|132:88|136:92|136:92|132:96|132:96|128:100|128:100|108:120,1,100,8|2
348,208,14885,5,4
100,252,15161,1,4
412,132,15436,1,4
168,176,15711,1,4
332,312,15987,6,0,B|376:272|376:272|412:264|408:216,1,100,8|2
336,160,16537,1,8
228,152,16813,2,0,B|228:168|228:168|224:168|224:168|224:172|224:172|228:172|228:172|232:172|232:172|232:176|232:176|228:176|228:176|224:176|224:176|224:180|224:180|228:180|228:180|232:180|232:180|232:184|232:184|228:184|228:184|224:184|224:184|224:188|224:188|228:188|228:188|232:188|232:188|232:192|232:192|228:192|228:192|228:304,1,200,2|2
228,304,17639,1,8
304,236,17914,1,2
148,172,18190,1,8
353,80,18465,1,2
96,60,18740,1,8
353,80,19016,1,4
344,228,19291,6,0,B|328:344,1,100,8|2
104,144,19842,2,0,B|128:240,1,100,8|2
436,176,20392,1,8
308,144,20668,1,2
436,176,20943,1,8
248,188,21218,1,2
488,124,21494,1,8
448,272,21769,5,2
412,320,21953,1,2
356,344,22136,1,2
296,340,22320,1,2
148,252,22595,2,0,B|148:236|148:236|156:232|156:232|152:232|152:232|148:232|148:232|144:232|144:232|140:232|140:232|140:228|140:228|144:228|144:228|148:228|148:228|152:228|152:228|156:228|156:228|156:224|156:224|152:224|152:224|148:224|148:224|144:224|144:224|140:224|140:224|140:220|140:220|144:220|144:220|148:220|148:220|152:220|152:220|156:220|156:220|148:216|148:216|148:116,1,200,2|4
300,124,23421,5,2
96,236,23697,1,8
224,32,23972,1,2
352,236,24247,1,8
148,125,24523,1,2
224,324,24798,1,8
300,124,25073,1,2
300,124,25349,6,0,B|232:236,1,100,8|2
68,208,25899,2,0,B|128:116,1,100,8|2
444,176,26450,1,4
68,208,26725,1,4
316,224,27001,1,2
196,160,27276,1,2
196,160,27552,6,0,B|204:52,1,100,8|2
352,208,28102,2,0,B|340:184|340:184|352:140|404:120,1,100,8|2
352,324,28653,2,0,B|372:344|372:344|424:360|440:288,1,100,8|2
160,264,29204,2,0,B|124:160,1,100,8|2
312,120,29754,5,8
200,152,30030,1,2
208,264,30305,1,8
100,300,30580,1,2
76,180,30856,2,0,B|64:120|112:88,1,100,8|2
240,72,31407,1,4
107,91,31682,1,4
152,248,31957,6,0,B|80:320,1,100,8|2
361,134,32508,2,0,B|432:64,1,100,8|2
128,152,33059,2,0,B|20:176,1,100,8|2
382,232,33609,2,0,B|480:208,1,100,8|2
212,316,34160,5,2
212,224,34435,1,4
212,136,34711,1,2
212,48,34986,1,4
212,316,35261,1,2
212,48,35537,5,12
156,156,35720,1,8
324,92,35995,5,8
324,92,36087,1,8
380,200,36271,1,8
200,216,36546,5,8
200,216,36638,1,8
144,324,36821,1,8
312,260,37097,5,8
312,260,37189,1,8
368,368,37372,1,8
212,276,37648,1,8
212,276,37739,6,0,B|152:292|100:272,1,100,4|2
288,224,38290,2,0,B|344:236|408:212,1,100,8|2
216,168,38841,2,0,B|152:184|104:160,1,100,8|2
80,180,39300,2,2,B|76:196|76:196|80:204|80:204|76:212|76:212|80:220|80:220|76:228|76:228|80:236|80:236|76:244|76:244|80:252|80:252|76:260|76:260|80:268|80:268|76:276|76:276|80:284|80:284|76:292|76:292|80:300|80:300|76:308,1,133.333333333333
308,140,40126,5,8
308,140,40218,1,8
244,320,40493,1,2
408,216,40768,1,8
208,216,41044,1,2
372,320,41319,1,8
372,320,41594,5,2
388,292,41686,1,2
396,260,41778,1,2
400,232,41870,1,2
400,200,41961,1,2
396,172,42053,1,2
384,140,42145,6,2,B|376:104|356:76,3,66.6666666666667,2|2|2|4
308,48,42879,1,2
248,40,43063,1,2
188,56,43246,1,2
144,96,43430,1,2
128,152,43614,6,4,B|112:228,2,66.6666666666667,4|2|2
284,256,44164,2,2,B|296:336,2,66.6666666666667,2|2|4
368,112,44715,2,0,B|432:128,2,66.6666666666667,2|2|2
228,64,45266,1,2
100,136,45449,2,4,B|60:168|44:232,1,100,4|2
256,208,46551,5,2
256,119,47101,1,2
346,248,47377,1,2
165,248,47652,1,2
256,120,48203,1,2
256,312,48754,5,2
120,72,49029,1,2
392,72,49304,1,2
352,72,49855,1,2
312,72,50406,1,2
200,212,50956,5,2
292,256,51232,1,0
368,192,51507,1,2
320,104,51782,1,0
220,120,52058,1,2
112,196,52333,5,0
140,68,52609,1,2
264,32,52884,1,0
388,68,53159,1,2
416,156,53343,1,0
416,156,53435,1,4
364,276,53710,1,2
284,308,53894,1,0
284,308,53985,1,4
160,272,54261,1,6
168,56,54536,6,0,B|128:96|148:180,1,100,8|2
272,152,55087,2,0,B|300:192|272:252,1,100,8|2
132,244,55637,1,8
380,216,55913,1,2
268,328,56188,1,8
380,216,56463,1,2
328,80,56739,6,0,B|320:136|320:136|280:184,1,100,8|2
176,160,57289,1,8
64,176,57565,1,2
76,288,57840,2,0,B|112:304|112:304|156:344,1,100,8|2
216,232,58391,1,8
328,284,58666,1,4
412,212,58942,6,0,B|424:156|376:124,1,100,8|2
272,92,59492,1,2
260,92,59584,1,2
248,92,59676,1,2
236,92,59768,1,6
184,216,60043,5,2
172,220,60135,1,2
160,224,60227,1,2
148,228,60318,1,6
76,84,60594,1,2
72,96,60685,1,2
68,108,60777,1,2
64,120,60869,5,6
52,184,61053,1,2
48,248,61236,1,2
76,304,61420,1,2
140,320,61603,1,2
204,312,61787,1,2
264,288,61970,6,2,B|336:264|368:176,1,150,6|2
300,120,63072,2,0,B|300:168|248:212,1,100,8|2
152,260,63806,1,2
60,260,64173,1,2
60,260,64655,2,2,B|44:224,3,25
48,136,65275,6,0,B|100:88|168:84,1,100,8|2
152,184,65825,2,0,B|204:172|236:132,1,100,8|2
352,160,66376,1,8
396,60,66652,2,0,B|456:44|496:88|496:88|488:96|488:96|496:104|496:104|488:112|488:112|496:120|496:120|488:128|488:128|496:136|496:136|488:144|488:144|496:160,1,200,2|2
428,256,67478,5,8
312,284,67753,1,2
220,148,68028,1,8
120,172,68304,2,0,B|120:272,1,100,2|8
300,100,68854,1,2
232,332,69130,1,8
404,288,69405,6,0,B|352:200,1,100,2|8
272,140,69956,1,2
180,104,70231,1,8
84,136,70506,1,2
52,228,70782,1,8
92,312,71057,2,2,B|124:324,4,25
92,312,71608,1,2
208,284,71883,5,12
320,328,72159,1,2
216,188,72434,2,0,B|328:224,1,100,8|2
232,84,72985,1,8
348,120,73260,1,2
476,148,73535,2,0,B|472:216|420:240,1,100,8|2
208,284,74086,5,8
320,264,74361,1,2
108,208,74637,2,0,B|184:140,1,100,8|2
144,36,75188,2,0,B|48:108,1,100,8|2
56,140,75555,2,2,B|40:196,3,33.3333333333333
68,212,75922,2,2,B|76:260,3,33.3333333333333
60,288,76289,5,8
60,288,76564,1,2
160,220,76840,1,8
192,336,77115,1,2
240,132,77390,1,8
332,316,77666,1,2
300,28,77941,1,8
476,252,78216,6,0,B|408:176,1,100,2|8
240,132,78767,1,2
332,72,79043,1,8
360,300,79318,2,0,B|288:220,1,100,2|8
293,225,79869,1,4
293,225,80144,1,4
124,108,80419,6,0,B|92:208,1,100,2|8
116,340,80970,1,2
292,224,81245,1,8
256,64,81521,1,2
212,156,81796,1,8
320,196,82071,1,2
176,256,82347,1,8
360,304,82622,6,0,B|452:312|480:272,1,100,2|8
400,216,83173,2,0,B|452:192|460:136,1,100,2|8
372,124,83724,2,0,B|392:76|352:32,1,100,2|8
352,32,84274,1,6
352,32,84825,1,6
172,80,85100,5,8
240,128,85283,1,8
144,212,85559,1,8
144,212,85651,1,8
228,212,85834,1,8
224,304,86110,1,8
256,300,86201,6,0,B|296:284,3,25,2|2|2|2
300,280,86477,2,0,B|332:252,3,25,2|2|2|2
332,244,86752,2,0,B|348:208|344:200,3,25,2|2|2|2
348,196,87027,1,2
348,172,87096,1,2
344,148,87165,1,2
336,124,87234,1,2
324,100,87303,2,2,B|296:60,5,33.3333333333333
276,88,87853,6,0,B|272:104|272:104|276:104|276:104|280:104|280:104|280:108|280:108|276:108|276:108|272:108|272:108|272:112|272:112|276:112|276:112|280:112|280:112|280:116|280:116|276:116|276:116|272:116|272:116|272:120|272:120|276:120|276:120|280:120|280:120|280:124|280:124|276:124|276:124|272:124|272:124|272:128|272:128|276:128|276:128|280:128|280:128|280:132|280:132|276:132|276:132|272:132|272:132|272:136|272:136|276:136|276:136|280:136|280:136|280:140|280:140|276:140|276:140|272:140|272:140|272:144|272:144|276:144|276:144|276:224,1,200,2|4
