osu file format v12

[General]
AudioFilename: short22.mp3
AudioLeadIn: 0
PreviewTime: 77151
Countdown: 0
SampleSet: Soft
StackLeniency: 0.7
Mode: 3
LetterboxInBreaks: 0
SpecialStyle: 0
WidescreenStoryboard: 0

[Editor]
DistanceSpacing: 0.6
BeatDivisor: 4
GridSize: 8

[Metadata]
Title:Zhong Ai Qing You (Speed up Version)
TitleUnicode:重爱轻友(加速版)
Artist:Leon Lai
ArtistUnicode:黎明
Creator:Luyuja
Version:7K ProFever
Source:RockFever
Tags:IGS Remix
BeatmapID:272808
BeatmapSetID:103550

[Difficulty]
HPDrainRate:8
CircleSize:7
OverallDifficulty:8
ApproachRate:5
SliderMultiplier:1.4
SliderTickRate:1

[Events]
//Background and Video events
0,0,"BG.jpg",0,0
//Break Periods
//Storyboard Layer 0 (Background)
//Storyboard Layer 1 (Fail)
//Storyboard Layer 2 (Pass)
//Storyboard Layer 3 (Foreground)
//Storyboard Sound Samples
//Background Colour Transformations
3,100,163,162,255

[TimingPoints]
-348,357.142857142857,4,2,0,30,1,0
78223,-100,4,2,0,30,0,1
101080,-100,4,2,0,30,0,0

[HitObjects]
329,192,3937,1,0,0:0:0:0:
36,192,3937,1,0,0:0:0:0:
402,192,4026,1,0,0:0:0:0:
329,192,4116,1,0,0:0:0:0:
402,192,4205,1,0,0:0:0:0:
329,192,4294,1,0,0:0:0:0:
109,192,4294,1,0,0:0:0:0:
182,192,4473,1,0,0:0:0:0:
402,192,4473,1,0,0:0:0:0:
329,192,4651,1,0,0:0:0:0:
36,192,4651,1,0,0:0:0:0:
475,192,4830,1,0,0:0:0:0:
109,192,5009,1,8,0:0:0:0:
256,192,5009,1,0,0:0:0:0:
329,192,5187,1,0,0:0:0:0:
36,192,5187,1,0,0:0:0:0:
402,192,5276,1,0,0:0:0:0:
329,192,5366,1,0,0:0:0:0:
402,192,5455,1,0,0:0:0:0:
329,192,5544,1,0,0:0:0:0:
36,192,5544,1,0,0:0:0:0:
402,192,5634,1,0,0:0:0:0:
329,192,5723,1,0,0:0:0:0:
109,192,5723,1,8,0:0:0:0:
402,192,5901,1,0,0:0:0:0:
36,192,6080,1,0,0:0:0:0:
475,192,6259,1,0,0:0:0:0:
329,192,6437,1,0,0:0:0:0:
109,192,6437,1,8,0:0:0:0:
182,192,6616,1,0,0:0:0:0:
329,192,6794,1,0,0:0:0:0:
36,192,6794,1,0,0:0:0:0:
402,192,6884,1,0,0:0:0:0:
329,192,6973,1,0,0:0:0:0:
402,192,7062,1,0,0:0:0:0:
329,192,7151,1,0,0:0:0:0:
109,192,7151,1,8,0:0:0:0:
402,192,7330,1,0,0:0:0:0:
182,192,7330,1,0,0:0:0:0:
36,192,7509,1,0,0:0:0:0:
329,192,7509,1,0,0:0:0:0:
475,192,7687,1,0,0:0:0:0:
109,192,7866,1,8,0:0:0:0:
256,192,7866,1,0,0:0:0:0:
36,192,8044,1,0,0:0:0:0:
329,192,8044,1,0,0:0:0:0:
402,192,8134,1,0,0:0:0:0:
329,192,8223,1,0,0:0:0:0:
402,192,8312,1,0,0:0:0:0:
36,192,8401,1,0,0:0:0:0:
329,192,8401,1,0,0:0:0:0:
402,192,8491,1,0,0:0:0:0:
109,192,8580,1,8,0:0:0:0:
329,192,8580,1,0,0:0:0:0:
402,192,8759,1,0,0:0:0:0:
36,192,8937,1,0,0:0:0:0:
475,192,9116,1,0,0:0:0:0:
109,192,9294,1,8,0:0:0:0:
329,192,9294,1,0,0:0:0:0:
182,192,9473,1,0,0:0:0:0:
109,192,9651,1,0,0:0:0:0:
402,192,9651,1,0,0:0:0:0:
256,192,9741,1,0,0:0:0:0:
109,192,9830,1,0,0:0:0:0:
402,192,9830,1,0,0:0:0:0:
256,192,9919,1,0,0:0:0:0:
109,192,10009,1,8,0:0:0:0:
402,192,10009,1,0,0:0:0:0:
182,192,10187,1,0,0:0:0:0:
329,192,10187,1,0,0:0:0:0:
36,192,10366,1,0,0:0:0:0:
475,192,10366,1,0,0:0:0:0:
182,192,10455,1,0,0:0:0:0:
329,192,10455,1,0,0:0:0:0:
36,192,10544,1,0,0:0:0:0:
475,192,10544,1,0,0:0:0:0:
182,192,10634,1,0,0:0:0:0:
329,192,10634,1,0,0:0:0:0:
36,192,10723,1,8,0:0:0:0:
475,192,10723,1,0,0:0:0:0:
109,192,10901,1,0,0:0:0:0:
402,192,10901,1,0,0:0:0:0:
256,192,10991,1,0,0:0:0:0:
402,192,11080,1,0,0:0:0:0:
109,192,11080,1,0,0:0:0:0:
256,192,11169,1,0,0:0:0:0:
109,192,11259,1,0,0:0:0:0:
402,192,11259,1,0,0:0:0:0:
256,192,11348,1,0,0:0:0:0:
109,192,11437,1,8,0:0:0:0:
402,192,11437,1,0,0:0:0:0:
182,192,11616,1,0,0:0:0:0:
329,192,11616,1,0,0:0:0:0:
36,192,11794,1,0,0:0:0:0:
475,192,11794,1,0,0:0:0:0:
182,192,11884,1,0,0:0:0:0:
329,192,11884,1,0,0:0:0:0:
36,192,11973,1,0,0:0:0:0:
475,192,11973,1,0,0:0:0:0:
182,192,12062,1,0,0:0:0:0:
329,192,12062,1,0,0:0:0:0:
36,192,12151,1,8,0:0:0:0:
475,192,12151,1,0,0:0:0:0:
256,192,12330,1,0,0:0:0:0:
402,192,12509,1,0,0:0:0:0:
109,192,12509,1,0,0:0:0:0:
256,192,12598,1,0,0:0:0:0:
402,192,12687,1,0,0:0:0:0:
109,192,12687,1,0,0:0:0:0:
256,192,12776,1,0,0:0:0:0:
402,192,12866,1,0,0:0:0:0:
109,192,12866,1,8,0:0:0:0:
36,192,13044,1,0,0:0:0:0:
182,192,13044,1,0,0:0:0:0:
329,192,13044,1,0,0:0:0:0:
256,192,13223,1,0,0:0:0:0:
475,192,13223,1,0,0:0:0:0:
36,192,13401,1,0,0:0:0:0:
256,192,13401,1,0,0:0:0:0:
475,192,13580,1,0,0:0:0:0:
109,192,13580,1,8,0:0:0:0:
36,192,13759,1,0,0:0:0:0:
256,192,13759,1,0,0:0:0:0:
475,192,13759,1,0,0:0:0:0:
402,192,13937,1,0,0:0:0:0:
36,192,14651,1,0,0:0:0:0:
256,192,14651,1,0,0:0:0:0:
109,192,15009,1,0,0:0:0:0:
329,192,15009,1,0,0:0:0:0:
182,192,15366,1,0,0:0:0:0:
402,192,15366,1,0,0:0:0:0:
36,192,15366,1,0,0:0:0:0:
475,192,15366,1,4,0:0:0:0:
109,192,15544,1,0,0:0:0:0:
36,192,15544,1,0,0:0:0:0:
256,192,15544,1,0,0:0:0:0:
182,192,15723,1,0,0:0:0:0:
475,192,15723,1,0,0:0:0:0:
402,192,15723,1,0,0:0:0:0:
256,192,15901,1,0,0:0:0:0:
182,192,15991,1,0,0:0:0:0:
109,192,16080,1,0,0:0:0:0:
329,192,16080,1,0,0:0:0:0:
36,192,16080,1,0,0:0:0:0:
182,192,16259,1,0,0:0:0:0:
475,192,16259,1,0,0:0:0:0:
402,192,16259,1,0,0:0:0:0:
36,192,16437,1,0,0:0:0:0:
329,192,16437,1,0,0:0:0:0:
109,192,16437,1,0,0:0:0:0:
329,192,16616,1,0,0:0:0:0:
182,192,16616,1,0,0:0:0:0:
402,192,16705,1,0,0:0:0:0:
475,192,16794,1,0,0:0:0:0:
256,192,16794,1,0,0:0:0:0:
109,192,16794,1,0,0:0:0:0:
402,192,16884,1,0,0:0:0:0:
402,192,16973,1,0,0:0:0:0:
109,192,16973,1,0,0:0:0:0:
329,192,17062,1,0,0:0:0:0:
402,192,17151,1,0,0:0:0:0:
36,192,17151,1,0,0:0:0:0:
182,192,17151,1,0,0:0:0:0:
329,192,17241,1,0,0:0:0:0:
402,192,17330,1,0,0:0:0:0:
182,192,17330,1,0,0:0:0:0:
475,192,17419,1,0,0:0:0:0:
256,192,17509,1,0,0:0:0:0:
109,192,17509,1,0,0:0:0:0:
182,192,17687,1,0,0:0:0:0:
256,192,17866,1,0,0:0:0:0:
109,192,17866,1,0,0:0:0:0:
256,192,18044,1,0,0:0:0:0:
256,192,18223,1,0,0:0:0:0:
36,192,18223,1,0,0:0:0:0:
402,192,18223,1,0,0:0:0:0:
182,192,18312,1,0,0:0:0:0:
329,192,18401,1,0,0:0:0:0:
475,192,18491,1,0,0:0:0:0:
109,192,18580,1,0,0:0:0:0:
402,192,18580,1,0,0:0:0:0:
256,192,18580,1,0,0:0:0:0:
109,192,18759,1,0,0:0:0:0:
402,192,18759,1,0,0:0:0:0:
36,192,18937,1,0,0:0:0:0:
329,192,18937,1,0,0:0:0:0:
475,192,18937,1,0,0:0:0:0:
109,192,19026,1,0,0:0:0:0:
402,192,19116,1,0,0:0:0:0:
475,192,19205,1,0,0:0:0:0:
109,192,19294,1,0,0:0:0:0:
329,192,19294,1,0,0:0:0:0:
256,192,19294,1,0,0:0:0:0:
109,192,19473,1,0,0:0:0:0:
329,192,19473,1,0,0:0:0:0:
402,192,19562,1,0,0:0:0:0:
475,192,19651,1,0,0:0:0:0:
36,192,19651,1,0,0:0:0:0:
256,192,19651,1,0,0:0:0:0:
402,192,19741,1,0,0:0:0:0:
402,192,19830,1,0,0:0:0:0:
182,192,19830,1,0,0:0:0:0:
329,192,19919,1,0,0:0:0:0:
402,192,20009,1,0,0:0:0:0:
36,192,20009,1,0,0:0:0:0:
256,192,20009,1,0,0:0:0:0:
329,192,20098,1,0,0:0:0:0:
182,192,20187,1,0,0:0:0:0:
475,192,20187,1,0,0:0:0:0:
109,192,20276,1,0,0:0:0:0:
402,192,20366,1,0,0:0:0:0:
36,192,20366,1,0,0:0:0:0:
256,192,20366,1,0,0:0:0:0:
256,192,20544,1,0,0:0:0:0:
256,192,20723,1,0,0:0:0:0:
256,192,20901,1,0,0:0:0:0:
36,192,20901,1,0,0:0:0:0:
109,192,20991,1,0,0:0:0:0:
475,192,21080,1,0,0:0:0:0:
256,192,21080,1,0,0:0:0:0:
182,192,21080,1,0,0:0:0:0:
402,192,21080,1,4,0:0:0:0:
109,192,21259,1,0,0:0:0:0:
329,192,21259,1,0,0:0:0:0:
36,192,21259,1,0,0:0:0:0:
182,192,21437,1,0,0:0:0:0:
402,192,21437,1,0,0:0:0:0:
475,192,21437,1,0,0:0:0:0:
256,192,21616,1,0,0:0:0:0:
182,192,21706,1,0,0:0:0:0:
36,192,21795,1,0,0:0:0:0:
109,192,21795,1,0,0:0:0:0:
329,192,21795,1,0,0:0:0:0:
402,192,21973,1,0,0:0:0:0:
475,192,21974,1,0,0:0:0:0:
182,192,21974,1,0,0:0:0:0:
109,192,22152,1,0,0:0:0:0:
329,192,22152,1,0,0:0:0:0:
36,192,22152,1,0,0:0:0:0:
182,192,22330,1,0,0:0:0:0:
329,192,22331,1,0,0:0:0:0:
402,192,22420,1,0,0:0:0:0:
475,192,22509,1,0,0:0:0:0:
109,192,22509,1,0,0:0:0:0:
256,192,22509,1,0,0:0:0:0:
402,192,22599,1,0,0:0:0:0:
109,192,22688,1,0,0:0:0:0:
402,192,22688,1,0,0:0:0:0:
329,192,22777,1,0,0:0:0:0:
36,192,22866,1,0,0:0:0:0:
402,192,22866,1,0,0:0:0:0:
182,192,22866,1,0,0:0:0:0:
329,192,22956,1,0,0:0:0:0:
36,192,23044,1,0,0:0:0:0:
402,192,23045,1,0,0:0:0:0:
475,192,23134,1,0,0:0:0:0:
109,192,23224,1,0,0:0:0:0:
256,192,23224,1,0,0:0:0:0:
182,192,23401,1,0,0:0:0:0:
109,192,23580,1,0,0:0:0:0:
256,192,23580,1,0,0:0:0:0:
256,192,23759,1,0,0:0:0:0:
256,192,23937,1,0,0:0:0:0:
475,192,23937,1,0,0:0:0:0:
36,192,23937,1,0,0:0:0:0:
329,192,24026,1,0,0:0:0:0:
182,192,24116,1,0,0:0:0:0:
36,192,24205,1,0,0:0:0:0:
109,192,24294,1,0,0:0:0:0:
402,192,24294,1,0,0:0:0:0:
256,192,24294,1,0,0:0:0:0:
109,192,24473,1,0,0:0:0:0:
402,192,24473,1,0,0:0:0:0:
36,192,24651,1,0,0:0:0:0:
182,192,24651,1,0,0:0:0:0:
475,192,24651,1,0,0:0:0:0:
256,192,24741,1,0,0:0:0:0:
402,192,24830,1,0,0:0:0:0:
475,192,24919,1,0,0:0:0:0:
36,192,25009,1,0,0:0:0:0:
329,192,25009,1,0,0:0:0:0:
256,192,25009,1,0,0:0:0:0:
329,192,25187,1,0,0:0:0:0:
36,192,25187,1,0,0:0:0:0:
182,192,25187,1,0,0:0:0:0:
256,192,25276,1,0,0:0:0:0:
329,192,25366,1,0,0:0:0:0:
109,192,25366,1,0,0:0:0:0:
475,192,25366,1,0,0:0:0:0:
256,192,25455,1,0,0:0:0:0:
256,192,25544,1,0,0:0:0:0:
402,192,25544,1,0,0:0:0:0:
182,192,25634,1,0,0:0:0:0:
329,192,25723,1,0,0:0:0:0:
475,192,25723,1,0,0:0:0:0:
109,192,25723,1,0,0:0:0:0:
256,192,25812,1,0,0:0:0:0:
182,192,25901,1,0,0:0:0:0:
109,192,25991,1,0,0:0:0:0:
475,192,26080,1,0,0:0:0:0:
256,192,26080,1,0,0:0:0:0:
36,192,26080,1,0,0:0:0:0:
256,192,26259,1,0,0:0:0:0:
256,192,26437,1,0,0:0:0:0:
256,192,26616,1,0,0:0:0:0:
256,192,26794,1,0,0:0:0:0:
36,192,26794,1,4,0:0:0:0:
475,192,26794,1,0,0:0:0:0:
329,192,26794,1,0,0:0:0:0:
182,192,26973,1,0,0:0:0:0:
402,192,27151,1,0,0:0:0:0:
36,192,27151,1,0,0:0:0:0:
475,192,27151,1,0,0:0:0:0:
256,192,27151,1,8,0:0:0:0:
182,192,27330,1,0,0:0:0:0:
256,192,27509,1,0,0:0:0:0:
109,192,27509,1,0,0:0:0:0:
475,192,27509,1,0,0:0:0:0:
475,192,27687,1,0,0:0:0:0:
36,192,27687,1,0,0:0:0:0:
256,192,27866,1,8,0:0:0:0:
475,192,27866,1,0,0:0:0:0:
329,192,27866,1,0,0:0:0:0:
475,192,28044,1,0,0:0:0:0:
36,192,28044,1,0,0:0:0:0:
256,192,28223,1,0,0:0:0:0:
402,192,28223,1,0,0:0:0:0:
329,192,28223,1,0,0:0:0:0:
109,192,28223,1,0,0:0:0:0:
36,192,28401,1,0,0:0:0:0:
256,192,28580,1,8,0:0:0:0:
402,192,28580,1,0,0:0:0:0:
182,192,28580,1,0,0:0:0:0:
36,192,28759,1,0,0:0:0:0:
329,192,28937,1,0,0:0:0:0:
475,192,28937,1,0,0:0:0:0:
109,192,28937,1,0,0:0:0:0:
475,192,29116,1,0,0:0:0:0:
36,192,29116,1,0,0:0:0:0:
256,192,29294,1,8,0:0:0:0:
475,192,29294,1,0,0:0:0:0:
182,192,29294,1,0,0:0:0:0:
256,192,29473,1,0,0:0:0:0:
475,192,29473,1,0,0:0:0:0:
256,192,29651,1,0,0:0:0:0:
36,192,29651,1,4,0:0:0:0:
182,192,29651,1,0,0:0:0:0:
402,192,29651,1,0,0:0:0:0:
109,192,29830,1,0,0:0:0:0:
256,192,30009,1,8,0:0:0:0:
402,192,30009,1,0,0:0:0:0:
182,192,30009,1,0,0:0:0:0:
36,192,30187,1,0,0:0:0:0:
256,192,30366,1,0,0:0:0:0:
402,192,30366,1,0,0:0:0:0:
109,192,30366,1,0,0:0:0:0:
402,192,30544,1,0,0:0:0:0:
182,192,30544,1,0,0:0:0:0:
256,192,30723,1,8,0:0:0:0:
402,192,30723,1,0,0:0:0:0:
36,192,30723,1,0,0:0:0:0:
402,192,30901,1,0,0:0:0:0:
256,192,31080,1,0,0:0:0:0:
109,192,31080,1,0,0:0:0:0:
329,192,31080,1,0,0:0:0:0:
475,192,31080,1,0,0:0:0:0:
182,192,31259,1,0,0:0:0:0:
256,192,31437,1,8,0:0:0:0:
36,192,31437,1,0,0:0:0:0:
402,192,31437,1,0,0:0:0:0:
109,192,31616,1,0,0:0:0:0:
256,192,31794,1,4,0:0:0:0:
182,192,31794,1,0,0:0:0:0:
329,192,31794,1,0,0:0:0:0:
475,192,31794,1,0,0:0:0:0:
256,192,31973,1,0,0:0:0:0:
109,192,31973,1,0,0:0:0:0:
256,192,32151,1,8,0:0:0:0:
36,192,32151,1,4,0:0:0:0:
182,192,32151,1,0,0:0:0:0:
402,192,32151,1,0,0:0:0:0:
256,192,32330,1,0,0:0:0:0:
109,192,32330,1,0,0:0:0:0:
256,192,32509,1,0,0:0:0:0:
329,192,32509,1,0,0:0:0:0:
475,192,32509,1,0,0:0:0:0:
36,192,32509,1,4,0:0:0:0:
182,192,32687,1,0,0:0:0:0:
256,192,32866,1,8,0:0:0:0:
36,192,32866,1,0,0:0:0:0:
402,192,32866,1,0,0:0:0:0:
182,192,33044,1,0,0:0:0:0:
256,192,33223,1,0,0:0:0:0:
109,192,33223,1,0,0:0:0:0:
36,192,33223,1,0,0:0:0:0:
475,192,33223,1,0,0:0:0:0:
475,192,33401,1,0,0:0:0:0:
182,192,33401,1,0,0:0:0:0:
256,192,33580,1,8,0:0:0:0:
475,192,33580,1,0,0:0:0:0:
109,192,33580,1,0,0:0:0:0:
475,192,33759,1,0,0:0:0:0:
256,192,33937,1,0,0:0:0:0:
36,192,33937,1,0,0:0:0:0:
182,192,33937,1,0,0:0:0:0:
402,192,33937,1,0,0:0:0:0:
329,192,34116,1,0,0:0:0:0:
256,192,34294,1,8,0:0:0:0:
402,192,34294,1,0,0:0:0:0:
475,192,34294,1,0,0:0:0:0:
109,192,34473,1,0,0:0:0:0:
256,192,34651,1,0,0:0:0:0:
36,192,34651,1,0,0:0:0:0:
402,192,34651,1,0,0:0:0:0:
36,192,34830,1,0,0:0:0:0:
329,192,34830,1,0,0:0:0:0:
256,192,35009,1,8,0:0:0:0:
36,192,35009,1,0,0:0:0:0:
475,192,35009,1,0,0:0:0:0:
256,192,35187,1,0,0:0:0:0:
36,192,35187,1,0,0:0:0:0:
256,192,35366,1,4,0:0:0:0:
402,192,35366,1,0,0:0:0:0:
475,192,35366,1,0,0:0:0:0:
182,192,35366,1,0,0:0:0:0:
36,192,35544,1,0,0:0:0:0:
256,192,35723,1,8,0:0:0:0:
402,192,35723,1,0,0:0:0:0:
109,192,35723,1,0,0:0:0:0:
36,192,35901,1,0,0:0:0:0:
256,192,36080,1,0,0:0:0:0:
329,192,36080,1,0,0:0:0:0:
475,192,36080,1,0,0:0:0:0:
182,192,36080,1,0,0:0:0:0:
402,192,36259,1,0,0:0:0:0:
182,192,36259,1,0,0:0:0:0:
256,192,36437,1,8,0:0:0:0:
182,192,36437,1,0,0:0:0:0:
182,192,36616,1,0,0:0:0:0:
256,192,36794,1,0,0:0:0:0:
36,192,36794,1,0,0:0:0:0:
109,192,36794,1,0,0:0:0:0:
402,192,36794,1,0,0:0:0:0:
182,192,36973,1,0,0:0:0:0:
256,192,37151,1,0,0:0:0:0:
36,192,37151,1,0,0:0:0:0:
475,192,37151,1,0,0:0:0:0:
109,192,37330,1,0,0:0:0:0:
256,192,37509,1,4,0:0:0:0:
402,192,37509,1,0,0:0:0:0:
36,192,37509,1,0,0:0:0:0:
256,192,37687,1,0,0:0:0:0:
402,192,37687,1,0,0:0:0:0:
256,192,37866,1,4,0:0:0:0:
402,192,37866,1,0,0:0:0:0:
256,192,38044,1,0,0:0:0:0:
402,192,38044,1,0,0:0:0:0:
36,192,38223,1,0,0:0:0:0:
256,192,38223,1,4,0:0:0:0:
182,192,38223,1,0,0:0:0:0:
402,192,38223,1,0,0:0:0:0:
36,192,38759,1,0,0:0:0:0:
475,192,38937,1,0,0:0:0:0:
475,192,39116,1,0,0:0:0:0:
36,192,39116,1,0,0:0:0:0:
475,192,39294,1,0,0:0:0:0:
475,192,39473,1,0,0:0:0:0:
36,192,39473,1,0,0:0:0:0:
36,192,39830,1,0,0:0:0:0:
36,192,40187,1,0,0:0:0:0:
475,192,40366,1,0,0:0:0:0:
36,192,40544,1,0,0:0:0:0:
475,192,40544,1,0,0:0:0:0:
475,192,40723,1,0,0:0:0:0:
475,192,40901,1,0,0:0:0:0:
36,192,40901,1,0,0:0:0:0:
36,192,41259,1,0,0:0:0:0:
36,192,41616,1,0,0:0:0:0:
475,192,41794,1,0,0:0:0:0:
475,192,41973,1,0,0:0:0:0:
36,192,41973,1,0,0:0:0:0:
475,192,42151,1,0,0:0:0:0:
475,192,42330,1,0,0:0:0:0:
36,192,42330,1,0,0:0:0:0:
36,192,42687,1,0,0:0:0:0:
256,192,43044,1,4,0:0:0:0:
36,192,43044,1,0,0:0:0:0:
109,192,43223,1,0,0:0:0:0:
256,192,43223,1,4,0:0:0:0:
402,192,43223,1,0,0:0:0:0:
36,192,43223,1,0,0:0:0:0:
36,192,43580,1,0,0:0:0:0:
256,192,43580,1,4,0:0:0:0:
329,192,43580,1,0,0:0:0:0:
36,192,43759,1,0,0:0:0:0:
109,192,43937,1,0,0:0:0:0:
402,192,43937,1,4,0:0:0:0:
36,192,43937,1,0,0:0:0:0:
475,192,43937,1,0,0:0:0:0:
182,192,44116,1,0,0:0:0:0:
329,192,44116,1,0,0:0:0:0:
36,192,44294,1,0,0:0:0:0:
256,192,44294,1,0,0:0:0:0:
402,192,44294,1,8,0:0:0:0:
182,192,44473,1,0,0:0:0:0:
329,192,44473,1,0,0:0:0:0:
402,192,44562,1,0,0:0:0:0:
36,192,44651,1,0,0:0:0:0:
256,192,44651,1,0,0:0:0:0:
475,192,44651,1,0,0:0:0:0:
109,192,44830,1,0,0:0:0:0:
329,192,44830,1,0,0:0:0:0:
182,192,45009,1,0,0:0:0:0:
475,192,45009,1,0,0:0:0:0:
402,192,45009,1,8,0:0:0:0:
109,192,45187,1,0,0:0:0:0:
329,192,45187,1,0,0:0:0:0:
256,192,45276,1,0,0:0:0:0:
36,192,45366,1,0,0:0:0:0:
182,192,45366,1,0,0:0:0:0:
402,192,45366,1,0,0:0:0:0:
475,192,45366,1,0,0:0:0:0:
109,192,45544,1,0,0:0:0:0:
329,192,45544,1,0,0:0:0:0:
36,192,45723,1,0,0:0:0:0:
256,192,45723,1,8,0:0:0:0:
182,192,45723,1,0,0:0:0:0:
475,192,45723,1,0,0:0:0:0:
109,192,45901,1,0,0:0:0:0:
402,192,45901,1,0,0:0:0:0:
329,192,45991,1,0,0:0:0:0:
36,192,46080,1,0,0:0:0:0:
256,192,46080,1,0,0:0:0:0:
402,192,46080,1,0,0:0:0:0:
109,192,46259,1,0,0:0:0:0:
182,192,46259,1,0,0:0:0:0:
36,192,46437,1,0,0:0:0:0:
256,192,46437,1,8,0:0:0:0:
475,192,46437,1,0,0:0:0:0:
182,192,46616,1,0,0:0:0:0:
402,192,46616,1,0,0:0:0:0:
36,192,46616,1,0,0:0:0:0:
256,192,46705,1,0,0:0:0:0:
329,192,46794,1,0,0:0:0:0:
36,192,46794,1,0,0:0:0:0:
182,192,46794,1,0,0:0:0:0:
475,192,46794,1,0,0:0:0:0:
109,192,46973,1,0,0:0:0:0:
256,192,46973,1,0,0:0:0:0:
182,192,47151,1,8,0:0:0:0:
402,192,47151,1,0,0:0:0:0:
36,192,47151,1,0,0:0:0:0:
475,192,47330,1,0,0:0:0:0:
256,192,47330,1,0,0:0:0:0:
109,192,47509,1,0,0:0:0:0:
402,192,47509,1,0,0:0:0:0:
182,192,47509,1,0,0:0:0:0:
36,192,47687,1,0,0:0:0:0:
329,192,47687,1,0,0:0:0:0:
109,192,47776,1,0,0:0:0:0:
182,192,47866,1,0,0:0:0:0:
256,192,47866,1,8,0:0:0:0:
475,192,47866,1,0,0:0:0:0:
109,192,48044,1,0,0:0:0:0:
402,192,48044,1,0,0:0:0:0:
36,192,48223,1,0,0:0:0:0:
329,192,48223,1,0,0:0:0:0:
256,192,48223,1,0,0:0:0:0:
475,192,48223,1,0,0:0:0:0:
109,192,48401,1,0,0:0:0:0:
402,192,48401,1,0,0:0:0:0:
109,192,48580,1,0,0:0:0:0:
402,192,48580,1,8,0:0:0:0:
256,192,48580,1,0,0:0:0:0:
109,192,48759,1,0,0:0:0:0:
402,192,48759,1,0,0:0:0:0:
109,192,48937,1,0,0:0:0:0:
402,192,48937,1,0,0:0:0:0:
256,192,48937,1,0,0:0:0:0:
475,192,48937,1,0,0:0:0:0:
36,192,49026,1,0,0:0:0:0:
329,192,49026,1,0,0:0:0:0:
109,192,49116,1,0,0:0:0:0:
402,192,49116,1,0,0:0:0:0:
256,192,49116,1,0,0:0:0:0:
182,192,49205,1,0,0:0:0:0:
475,192,49205,1,0,0:0:0:0:
256,192,49294,1,8,0:0:0:0:
475,192,49384,1,0,0:0:0:0:
182,192,49384,1,0,0:0:0:0:
402,192,49473,1,0,0:0:0:0:
109,192,49473,1,0,0:0:0:0:
256,192,49473,1,0,0:0:0:0:
329,192,49562,1,0,0:0:0:0:
36,192,49562,1,0,0:0:0:0:
256,192,49651,1,0,0:0:0:0:
109,192,49651,1,0,0:0:0:0:
475,192,49651,1,4,0:0:0:0:
402,192,49651,1,0,0:0:0:0:
36,192,49830,1,0,0:0:0:0:
329,192,49830,1,0,0:0:0:0:
109,192,50009,1,0,0:0:0:0:
475,192,50009,1,0,0:0:0:0:
256,192,50009,1,8,0:0:0:0:
402,192,50187,1,0,0:0:0:0:
182,192,50187,1,0,0:0:0:0:
329,192,50276,1,0,0:0:0:0:
256,192,50366,1,0,0:0:0:0:
36,192,50366,1,0,0:0:0:0:
475,192,50366,1,0,0:0:0:0:
109,192,50544,1,0,0:0:0:0:
402,192,50544,1,0,0:0:0:0:
256,192,50723,1,8,0:0:0:0:
36,192,50723,1,0,0:0:0:0:
182,192,50723,1,0,0:0:0:0:
329,192,50901,1,0,0:0:0:0:
475,192,50901,1,0,0:0:0:0:
402,192,50991,1,0,0:0:0:0:
475,192,51080,1,0,0:0:0:0:
36,192,51080,1,0,0:0:0:0:
182,192,51080,1,0,0:0:0:0:
256,192,51080,1,0,0:0:0:0:
109,192,51259,1,0,0:0:0:0:
329,192,51259,1,0,0:0:0:0:
182,192,51437,1,8,0:0:0:0:
402,192,51437,1,0,0:0:0:0:
36,192,51437,1,0,0:0:0:0:
475,192,51616,1,0,0:0:0:0:
109,192,51616,1,0,0:0:0:0:
109,192,51794,1,0,0:0:0:0:
475,192,51794,1,0,0:0:0:0:
329,192,51794,1,0,0:0:0:0:
182,192,51973,1,0,0:0:0:0:
402,192,51973,1,0,0:0:0:0:
256,192,52062,1,0,0:0:0:0:
36,192,52151,1,0,0:0:0:0:
329,192,52151,1,8,0:0:0:0:
109,192,52330,1,0,0:0:0:0:
475,192,52330,1,0,0:0:0:0:
36,192,52330,1,0,0:0:0:0:
182,192,52509,1,0,0:0:0:0:
36,192,52509,1,0,0:0:0:0:
329,192,52509,1,0,0:0:0:0:
256,192,52509,1,0,0:0:0:0:
109,192,52687,1,0,0:0:0:0:
475,192,52687,1,0,0:0:0:0:
475,192,52866,1,0,0:0:0:0:
256,192,52866,1,8,0:0:0:0:
36,192,52866,1,0,0:0:0:0:
475,192,53044,1,0,0:0:0:0:
109,192,53044,1,0,0:0:0:0:
475,192,53223,1,0,0:0:0:0:
256,192,53223,1,0,0:0:0:0:
182,192,53223,1,0,0:0:0:0:
36,192,53223,1,0,0:0:0:0:
402,192,53401,1,0,0:0:0:0:
109,192,53401,1,0,0:0:0:0:
109,192,53580,1,0,0:0:0:0:
329,192,53580,1,8,0:0:0:0:
36,192,53580,1,0,0:0:0:0:
256,192,53580,1,0,0:0:0:0:
475,192,53759,1,0,0:0:0:0:
182,192,53759,1,0,0:0:0:0:
36,192,53937,1,0,0:0:0:0:
402,192,53937,1,0,0:0:0:0:
256,192,53937,1,0,0:0:0:0:
475,192,53937,1,4,0:0:0:0:
109,192,54026,1,0,0:0:0:0:
329,192,54026,1,0,0:0:0:0:
182,192,54116,1,0,0:0:0:0:
256,192,54116,1,0,0:0:0:0:
109,192,54205,1,0,0:0:0:0:
329,192,54205,1,0,0:0:0:0:
256,192,54384,1,0,0:0:0:0:
182,192,54384,1,0,0:0:0:0:
109,192,54473,1,0,0:0:0:0:
329,192,54473,1,0,0:0:0:0:
36,192,54562,1,0,0:0:0:0:
402,192,54562,1,0,0:0:0:0:
256,192,54651,1,0,0:0:0:0:
182,192,54651,1,0,0:0:0:0:
475,192,54651,1,0,0:0:0:0:
329,192,54651,1,0,0:0:0:0:
256,192,54830,1,0,0:0:0:0:
256,192,55009,1,0,0:0:0:0:
36,192,55009,1,0,0:0:0:0:
182,192,55009,1,8,0:0:0:0:
329,192,55009,1,0,0:0:0:0:
256,192,55187,1,0,0:0:0:0:
109,192,55366,1,0,0:0:0:0:
256,192,55366,1,0,0:0:0:0:
36,192,55366,1,0,0:0:0:0:
475,192,55366,1,0,0:0:0:0:
182,192,55544,1,0,0:0:0:0:
402,192,55544,1,0,0:0:0:0:
36,192,55723,1,0,0:0:0:0:
329,192,55723,1,0,0:0:0:0:
182,192,55723,1,8,0:0:0:0:
109,192,55901,1,0,0:0:0:0:
256,192,55901,1,0,0:0:0:0:
36,192,55991,1,0,0:0:0:0:
475,192,56080,1,0,0:0:0:0:
182,192,56080,1,0,0:0:0:0:
329,192,56080,1,0,0:0:0:0:
109,192,56259,1,0,0:0:0:0:
182,192,56437,1,8,0:0:0:0:
402,192,56437,1,0,0:0:0:0:
475,192,56437,1,0,0:0:0:0:
256,192,56616,1,0,0:0:0:0:
109,192,56616,1,0,0:0:0:0:
36,192,56705,1,0,0:0:0:0:
182,192,56794,1,0,0:0:0:0:
475,192,56794,1,0,0:0:0:0:
329,192,56794,1,0,0:0:0:0:
402,192,56794,1,0,0:0:0:0:
109,192,56973,1,0,0:0:0:0:
329,192,56973,1,0,0:0:0:0:
36,192,57151,1,0,0:0:0:0:
182,192,57151,1,8,0:0:0:0:
256,192,57151,1,0,0:0:0:0:
475,192,57330,1,0,0:0:0:0:
109,192,57330,1,0,0:0:0:0:
182,192,57509,1,0,0:0:0:0:
36,192,57509,1,0,0:0:0:0:
256,192,57509,1,0,0:0:0:0:
329,192,57687,1,0,0:0:0:0:
109,192,57687,1,0,0:0:0:0:
36,192,57866,1,0,0:0:0:0:
402,192,57866,1,0,0:0:0:0:
182,192,57866,1,8,0:0:0:0:
182,192,58044,1,0,0:0:0:0:
475,192,58044,1,0,0:0:0:0:
256,192,58134,1,0,0:0:0:0:
182,192,58223,1,0,0:0:0:0:
109,192,58223,1,0,0:0:0:0:
329,192,58223,1,0,0:0:0:0:
36,192,58401,1,0,0:0:0:0:
475,192,58401,1,0,0:0:0:0:
402,192,58580,1,0,0:0:0:0:
109,192,58580,1,8,0:0:0:0:
256,192,58580,1,0,0:0:0:0:
402,192,58759,1,0,0:0:0:0:
182,192,58759,1,0,0:0:0:0:
256,192,58937,1,0,0:0:0:0:
36,192,58937,1,0,0:0:0:0:
475,192,58937,1,0,0:0:0:0:
109,192,58937,1,0,0:0:0:0:
256,192,59116,1,0,0:0:0:0:
475,192,59294,1,0,0:0:0:0:
109,192,59294,1,8,0:0:0:0:
329,192,59294,1,0,0:0:0:0:
475,192,59473,1,0,0:0:0:0:
182,192,59473,1,0,0:0:0:0:
36,192,59651,1,0,0:0:0:0:
256,192,59651,1,0,0:0:0:0:
329,192,59651,1,0,0:0:0:0:
182,192,59651,1,0,0:0:0:0:
109,192,59741,1,0,0:0:0:0:
402,192,59741,1,0,0:0:0:0:
329,192,59830,1,0,0:0:0:0:
36,192,59830,1,0,0:0:0:0:
402,192,59919,1,0,0:0:0:0:
109,192,59919,1,0,0:0:0:0:
182,192,60009,1,8,0:0:0:0:
329,192,60009,1,0,0:0:0:0:
475,192,60009,1,0,0:0:0:0:
256,192,60009,1,0,0:0:0:0:
109,192,60187,1,0,0:0:0:0:
256,192,60187,1,0,0:0:0:0:
182,192,60276,1,0,0:0:0:0:
402,192,60276,1,0,0:0:0:0:
36,192,60366,1,0,0:0:0:0:
256,192,60366,1,0,0:0:0:0:
475,192,60366,1,0,0:0:0:0:
182,192,60455,1,0,0:0:0:0:
402,192,60455,1,0,0:0:0:0:
256,192,60544,1,0,0:0:0:0:
475,192,60544,1,0,0:0:0:0:
36,192,60544,1,0,0:0:0:0:
109,192,60634,1,0,0:0:0:0:
329,192,60634,1,0,0:0:0:0:
36,192,60723,1,8,0:0:0:0:
402,192,60723,1,0,0:0:0:0:
256,192,60723,1,0,0:0:0:0:
36,192,60901,1,0,0:0:0:0:
182,192,60901,1,0,0:0:0:0:
256,192,60991,1,0,0:0:0:0:
36,192,61080,1,0,0:0:0:0:
182,192,61080,1,0,0:0:0:0:
329,192,61080,1,0,0:0:0:0:
402,192,61080,1,0,0:0:0:0:
109,192,61259,1,0,0:0:0:0:
256,192,61259,1,0,0:0:0:0:
36,192,61437,1,0,0:0:0:0:
182,192,61437,1,0,0:0:0:0:
402,192,61437,1,8,0:0:0:0:
109,192,61616,1,0,0:0:0:0:
329,192,61616,1,0,0:0:0:0:
475,192,61616,1,0,0:0:0:0:
182,192,61794,1,0,0:0:0:0:
256,192,61794,1,0,0:0:0:0:
402,192,61794,1,0,0:0:0:0:
36,192,61973,1,0,0:0:0:0:
109,192,61973,1,0,0:0:0:0:
475,192,61973,1,0,0:0:0:0:
182,192,62151,1,8,0:0:0:0:
256,192,62151,1,0,0:0:0:0:
36,192,62151,1,0,0:0:0:0:
475,192,62151,1,0,0:0:0:0:
109,192,62330,1,0,0:0:0:0:
402,192,62330,1,0,0:0:0:0:
256,192,62419,1,0,0:0:0:0:
36,192,62509,1,0,0:0:0:0:
182,192,62509,1,0,0:0:0:0:
475,192,62509,1,0,0:0:0:0:
329,192,62509,1,0,0:0:0:0:
475,192,62687,1,0,0:0:0:0:
109,192,62687,1,0,0:0:0:0:
329,192,62866,1,8,0:0:0:0:
36,192,62866,1,0,0:0:0:0:
256,192,62866,1,0,0:0:0:0:
329,192,63044,1,0,0:0:0:0:
109,192,63044,1,0,0:0:0:0:
182,192,63223,1,0,0:0:0:0:
36,192,63223,1,0,0:0:0:0:
256,192,63223,1,0,0:0:0:0:
475,192,63223,1,0,0:0:0:0:
182,192,63401,1,0,0:0:0:0:
402,192,63401,1,0,0:0:0:0:
109,192,63580,1,8,0:0:0:0:
256,192,63580,1,0,0:0:0:0:
329,192,63580,1,0,0:0:0:0:
475,192,63580,1,0,0:0:0:0:
109,192,63759,1,0,0:0:0:0:
182,192,63759,1,0,0:0:0:0:
36,192,63937,1,0,0:0:0:0:
256,192,63937,1,0,0:0:0:0:
402,192,63937,1,4,0:0:0:0:
475,192,63937,1,0,0:0:0:0:
109,192,64116,1,0,0:0:0:0:
182,192,64116,1,0,0:0:0:0:
329,192,64116,1,0,0:0:0:0:
256,192,64294,1,0,0:0:0:0:
402,192,64294,1,8,0:0:0:0:
475,192,64294,1,0,0:0:0:0:
36,192,64473,1,0,0:0:0:0:
109,192,64473,1,0,0:0:0:0:
329,192,64473,1,0,0:0:0:0:
182,192,64651,1,0,0:0:0:0:
475,192,64651,1,0,0:0:0:0:
329,192,64651,1,0,0:0:0:0:
256,192,64741,1,0,0:0:0:0:
109,192,64741,1,0,0:0:0:0:
402,192,64741,1,0,0:0:0:0:
36,192,64830,1,0,0:0:0:0:
182,192,64830,1,0,0:0:0:0:
329,192,64830,1,0,0:0:0:0:
109,192,64919,1,0,0:0:0:0:
256,192,64919,1,0,0:0:0:0:
402,192,64919,1,0,0:0:0:0:
182,192,65009,1,0,0:0:0:0:
329,192,65009,1,8,0:0:0:0:
475,192,65009,1,0,0:0:0:0:
36,192,65098,1,0,0:0:0:0:
256,192,65098,1,0,0:0:0:0:
402,192,65098,1,0,0:0:0:0:
109,192,65187,1,0,0:0:0:0:
182,192,65187,1,0,0:0:0:0:
329,192,65187,1,0,0:0:0:0:
256,192,65276,1,0,0:0:0:0:
402,192,65276,1,0,0:0:0:0:
475,192,65276,1,0,0:0:0:0:
36,192,65366,1,4,0:0:0:0:
182,192,65366,1,0,0:0:0:0:
329,192,65366,1,0,0:0:0:0:
36,192,66794,1,0,0:0:0:0:
256,192,66794,1,0,0:0:0:0:
402,192,66794,1,0,0:0:0:0:
182,192,66794,1,0,0:0:0:0:
109,192,66973,1,0,0:0:0:0:
329,192,67151,1,0,0:0:0:0:
182,192,67151,1,8,0:0:0:0:
475,192,67151,1,0,0:0:0:0:
109,192,67330,1,0,0:0:0:0:
36,192,67509,1,0,0:0:0:0:
182,192,67509,1,0,0:0:0:0:
402,192,67509,1,0,0:0:0:0:
109,192,67687,1,0,0:0:0:0:
329,192,67687,1,0,0:0:0:0:
182,192,67866,1,8,0:0:0:0:
36,192,67866,1,0,0:0:0:0:
402,192,67866,1,0,0:0:0:0:
109,192,68044,1,0,0:0:0:0:
256,192,68044,1,0,0:0:0:0:
182,192,68223,1,0,0:0:0:0:
329,192,68223,1,0,0:0:0:0:
475,192,68223,1,0,0:0:0:0:
36,192,68223,1,0,0:0:0:0:
256,192,68312,1,0,0:0:0:0:
109,192,68401,1,0,0:0:0:0:
402,192,68401,1,0,0:0:0:0:
36,192,68580,1,0,0:0:0:0:
182,192,68580,1,8,0:0:0:0:
329,192,68580,1,0,0:0:0:0:
256,192,68669,1,0,0:0:0:0:
182,192,68759,1,0,0:0:0:0:
475,192,68759,1,0,0:0:0:0:
36,192,68937,1,0,0:0:0:0:
329,192,68937,1,0,0:0:0:0:
109,192,68937,1,0,0:0:0:0:
182,192,69026,1,0,0:0:0:0:
256,192,69116,1,0,0:0:0:0:
402,192,69116,1,0,0:0:0:0:
475,192,69116,1,0,0:0:0:0:
36,192,69294,1,0,0:0:0:0:
182,192,69294,1,8,0:0:0:0:
329,192,69294,1,0,0:0:0:0:
36,192,69473,1,0,0:0:0:0:
475,192,69473,1,0,0:0:0:0:
256,192,69473,1,0,0:0:0:0:
36,192,69651,1,0,0:0:0:0:
109,192,69651,1,0,0:0:0:0:
402,192,69651,1,0,0:0:0:0:
182,192,69830,1,0,0:0:0:0:
475,192,69830,1,0,0:0:0:0:
36,192,70009,1,0,0:0:0:0:
256,192,70009,1,8,0:0:0:0:
402,192,70009,1,0,0:0:0:0:
329,192,70009,1,0,0:0:0:0:
109,192,70187,1,0,0:0:0:0:
402,192,70187,1,0,0:0:0:0:
36,192,70366,1,0,0:0:0:0:
256,192,70366,1,0,0:0:0:0:
182,192,70366,1,0,0:0:0:0:
475,192,70366,1,0,0:0:0:0:
109,192,70544,1,0,0:0:0:0:
256,192,70544,1,0,0:0:0:0:
402,192,70544,1,0,0:0:0:0:
329,192,70544,1,0,0:0:0:0:
182,192,70723,1,8,0:0:0:0:
36,192,70723,1,0,0:0:0:0:
329,192,70723,1,0,0:0:0:0:
475,192,70723,1,0,0:0:0:0:
109,192,70901,1,0,0:0:0:0:
329,192,70901,1,0,0:0:0:0:
36,192,71080,1,0,0:0:0:0:
182,192,71080,1,0,0:0:0:0:
256,192,71080,1,0,0:0:0:0:
402,192,71080,1,0,0:0:0:0:
329,192,71169,1,0,0:0:0:0:
109,192,71259,1,0,0:0:0:0:
256,192,71259,1,0,0:0:0:0:
402,192,71259,1,0,0:0:0:0:
475,192,71437,1,0,0:0:0:0:
182,192,71437,1,8,0:0:0:0:
36,192,71437,1,0,0:0:0:0:
329,192,71437,1,0,0:0:0:0:
256,192,71526,1,0,0:0:0:0:
402,192,71616,1,0,0:0:0:0:
329,192,71616,1,0,0:0:0:0:
109,192,71616,1,0,0:0:0:0:
182,192,71616,1,0,0:0:0:0:
256,192,71794,1,0,0:0:0:0:
36,192,71794,1,0,0:0:0:0:
109,192,71794,1,0,0:0:0:0:
256,192,71973,1,0,0:0:0:0:
182,192,71973,1,0,0:0:0:0:
475,192,71973,1,0,0:0:0:0:
256,192,72151,1,8,0:0:0:0:
36,192,72151,1,0,0:0:0:0:
329,192,72151,1,0,0:0:0:0:
256,192,72330,1,0,0:0:0:0:
36,192,72330,1,0,0:0:0:0:
109,192,72419,1,0,0:0:0:0:
256,192,72509,1,0,0:0:0:0:
182,192,72509,1,0,0:0:0:0:
36,192,72509,1,0,0:0:0:0:
402,192,72509,1,0,0:0:0:0:
329,192,72687,1,0,0:0:0:0:
475,192,72687,1,0,0:0:0:0:
109,192,72866,1,8,0:0:0:0:
256,192,72866,1,0,0:0:0:0:
402,192,72866,1,0,0:0:0:0:
109,192,73044,1,0,0:0:0:0:
329,192,73044,1,0,0:0:0:0:
475,192,73044,1,0,0:0:0:0:
182,192,73223,1,0,0:0:0:0:
402,192,73223,1,0,0:0:0:0:
256,192,73223,1,0,0:0:0:0:
36,192,73401,1,0,0:0:0:0:
109,192,73401,1,0,0:0:0:0:
329,192,73580,1,0,0:0:0:0:
182,192,73580,1,8,0:0:0:0:
475,192,73580,1,0,0:0:0:0:
329,192,73759,1,0,0:0:0:0:
256,192,73759,1,0,0:0:0:0:
402,192,73937,1,0,0:0:0:0:
36,192,73937,1,0,0:0:0:0:
182,192,73937,1,0,0:0:0:0:
256,192,74116,1,0,0:0:0:0:
36,192,74294,1,0,0:0:0:0:
109,192,74294,1,8,0:0:0:0:
329,192,74294,1,0,0:0:0:0:
182,192,74473,1,0,0:0:0:0:
475,192,74473,1,0,0:0:0:0:
402,192,74473,1,0,0:0:0:0:
256,192,74651,1,0,0:0:0:0:
402,192,74830,1,0,0:0:0:0:
329,192,74830,1,0,0:0:0:0:
36,192,74830,1,0,0:0:0:0:
182,192,74830,1,0,0:0:0:0:
256,192,75009,1,8,0:0:0:0:
109,192,75009,1,0,0:0:0:0:
256,192,75187,1,0,0:0:0:0:
402,192,75187,1,0,0:0:0:0:
256,192,75366,1,0,0:0:0:0:
402,192,75366,1,0,0:0:0:0:
182,192,75366,1,0,0:0:0:0:
475,192,75366,1,0,0:0:0:0:
109,192,75366,1,0,0:0:0:0:
36,192,75544,1,0,0:0:0:0:
329,192,75544,1,0,0:0:0:0:
182,192,75723,1,0,0:0:0:0:
475,192,75723,1,0,0:0:0:0:
256,192,75723,1,0,0:0:0:0:
109,192,75723,1,0,0:0:0:0:
36,192,75901,1,0,0:0:0:0:
329,192,75901,1,0,0:0:0:0:
109,192,76080,1,0,0:0:0:0:
182,192,76080,1,0,0:0:0:0:
256,192,76080,1,0,0:0:0:0:
475,192,76080,1,0,0:0:0:0:
402,192,76259,1,0,0:0:0:0:
109,192,76259,1,0,0:0:0:0:
329,192,76437,1,0,0:0:0:0:
36,192,76437,1,0,0:0:0:0:
256,192,76437,1,0,0:0:0:0:
109,192,76616,1,0,0:0:0:0:
475,192,76616,1,0,0:0:0:0:
402,192,76616,1,0,0:0:0:0:
36,192,76794,1,0,0:0:0:0:
256,192,76794,1,0,0:0:0:0:
329,192,76794,1,4,0:0:0:0:
182,192,76794,1,0,0:0:0:0:
402,192,76794,1,0,0:0:0:0:
256,192,77151,1,0,0:0:0:0:
182,192,77151,1,0,0:0:0:0:
475,192,77151,1,0,0:0:0:0:
329,192,77151,1,4,0:0:0:0:
109,192,77151,1,0,0:0:0:0:
182,192,77330,1,0,0:0:0:0:
182,192,77419,1,0,0:0:0:0:
109,192,77509,1,0,0:0:0:0:
256,192,77509,1,0,0:0:0:0:
402,192,77509,1,0,0:0:0:0:
36,192,77509,1,0,0:0:0:0:
329,192,77509,1,4,0:0:0:0:
329,192,77687,1,0,0:0:0:0:
329,192,77776,1,0,0:0:0:0:
109,192,77866,1,0,0:0:0:0:
256,192,77866,1,0,0:0:0:0:
402,192,77866,1,0,0:0:0:0:
475,192,77866,1,0,0:0:0:0:
182,192,77866,1,4,0:0:0:0:
182,192,78044,1,0,0:0:0:0:
182,192,78134,1,0,0:0:0:0:
36,192,78223,1,0,0:0:0:0:
109,192,78223,1,0,0:0:0:0:
256,192,78223,1,0,0:0:0:0:
329,192,78223,1,4,0:0:0:0:
402,192,78223,1,0,0:0:0:0:
182,192,78401,1,0,0:0:0:0:
329,192,78401,1,0,0:0:0:0:
475,192,78401,1,0,0:0:0:0:
402,192,78401,1,0,0:0:0:0:
36,192,78580,1,0,0:0:0:0:
109,192,78580,1,0,0:0:0:0:
182,192,78580,1,0,0:0:0:0:
329,192,78580,1,8,0:0:0:0:
256,192,78759,1,0,0:0:0:0:
402,192,78759,1,0,0:0:0:0:
329,192,78848,1,0,0:0:0:0:
36,192,78937,1,0,0:0:0:0:
182,192,78937,1,0,0:0:0:0:
256,192,78937,1,0,0:0:0:0:
402,192,78937,1,0,0:0:0:0:
109,192,79116,1,0,0:0:0:0:
329,192,79116,1,0,0:0:0:0:
475,192,79116,1,0,0:0:0:0:
182,192,79116,1,0,0:0:0:0:
36,192,79294,1,0,0:0:0:0:
182,192,79294,1,0,0:0:0:0:
256,192,79294,1,8,0:0:0:0:
402,192,79294,1,0,0:0:0:0:
109,192,79473,1,0,0:0:0:0:
182,192,79562,1,0,0:0:0:0:
329,192,79651,1,0,0:0:0:0:
256,192,79651,1,0,0:0:0:0:
402,192,79651,1,0,0:0:0:0:
475,192,79651,1,0,0:0:0:0:
36,192,79830,1,0,0:0:0:0:
182,192,79830,1,0,0:0:0:0:
402,192,80009,1,0,0:0:0:0:
36,192,80009,1,0,0:0:0:0:
182,192,80009,1,8,0:0:0:0:
475,192,80009,1,0,0:0:0:0:
109,192,80098,1,0,0:0:0:0:
256,192,80098,1,0,0:0:0:0:
182,192,80187,1,0,0:0:0:0:
329,192,80187,1,0,0:0:0:0:
256,192,80276,1,0,0:0:0:0:
402,192,80276,1,0,0:0:0:0:
36,192,80366,1,0,0:0:0:0:
329,192,80366,1,0,0:0:0:0:
475,192,80366,1,0,0:0:0:0:
109,192,80366,1,0,0:0:0:0:
182,192,80544,1,0,0:0:0:0:
402,192,80544,1,0,0:0:0:0:
256,192,80723,1,0,0:0:0:0:
36,192,80723,1,0,0:0:0:0:
109,192,80723,1,0,0:0:0:0:
329,192,80723,1,8,0:0:0:0:
256,192,80901,1,0,0:0:0:0:
256,192,81080,1,0,0:0:0:0:
109,192,81080,1,0,0:0:0:0:
329,192,81080,1,0,0:0:0:0:
182,192,81080,1,0,0:0:0:0:
475,192,81259,1,0,0:0:0:0:
36,192,81437,1,0,0:0:0:0:
402,192,81437,1,0,0:0:0:0:
109,192,81437,1,0,0:0:0:0:
256,192,81437,1,8,0:0:0:0:
109,192,81616,1,0,0:0:0:0:
329,192,81616,1,0,0:0:0:0:
182,192,81705,1,0,0:0:0:0:
256,192,81794,1,0,0:0:0:0:
36,192,81794,1,0,0:0:0:0:
402,192,81794,1,0,0:0:0:0:
475,192,81794,1,0,0:0:0:0:
109,192,81973,1,0,0:0:0:0:
329,192,81973,1,0,0:0:0:0:
182,192,82151,1,8,0:0:0:0:
402,192,82151,1,0,0:0:0:0:
475,192,82151,1,0,0:0:0:0:
36,192,82151,1,0,0:0:0:0:
109,192,82330,1,0,0:0:0:0:
182,192,82419,1,0,0:0:0:0:
36,192,82509,1,0,0:0:0:0:
256,192,82509,1,0,0:0:0:0:
475,192,82509,1,0,0:0:0:0:
109,192,82598,1,0,0:0:0:0:
402,192,82598,1,0,0:0:0:0:
182,192,82687,1,0,0:0:0:0:
402,192,82687,1,0,0:0:0:0:
109,192,82776,1,0,0:0:0:0:
329,192,82776,1,0,0:0:0:0:
36,192,82866,1,0,0:0:0:0:
256,192,82866,1,0,0:0:0:0:
329,192,82955,1,0,0:0:0:0:
182,192,82955,1,0,0:0:0:0:
402,192,83044,1,0,0:0:0:0:
182,192,83044,1,0,0:0:0:0:
475,192,83134,1,0,0:0:0:0:
109,192,83134,1,0,0:0:0:0:
329,192,83223,1,0,0:0:0:0:
36,192,83223,1,0,0:0:0:0:
402,192,83223,1,0,0:0:0:0:
256,192,83223,1,0,0:0:0:0:
256,192,83401,1,0,0:0:0:0:
256,192,83580,1,0,0:0:0:0:
256,192,83759,1,0,0:0:0:0:
256,192,83937,1,0,0:0:0:0:
36,192,83937,1,0,0:0:0:0:
109,192,83937,1,0,0:0:0:0:
402,192,83937,1,0,0:0:0:0:
182,192,84116,1,0,0:0:0:0:
329,192,84116,1,0,0:0:0:0:
36,192,84294,1,0,0:0:0:0:
182,192,84294,1,8,0:0:0:0:
329,192,84294,1,0,0:0:0:0:
256,192,84294,1,0,0:0:0:0:
182,192,84473,1,0,0:0:0:0:
329,192,84473,1,0,0:0:0:0:
256,192,84562,1,0,0:0:0:0:
402,192,84562,1,0,0:0:0:0:
329,192,84651,1,0,0:0:0:0:
475,192,84651,1,0,0:0:0:0:
36,192,84651,1,0,0:0:0:0:
109,192,84830,1,0,0:0:0:0:
402,192,84830,1,0,0:0:0:0:
36,192,85009,1,0,0:0:0:0:
329,192,85009,1,0,0:0:0:0:
475,192,85009,1,0,0:0:0:0:
256,192,85009,1,8,0:0:0:0:
109,192,85187,1,0,0:0:0:0:
329,192,85187,1,0,0:0:0:0:
182,192,85276,1,0,0:0:0:0:
402,192,85276,1,0,0:0:0:0:
256,192,85366,1,0,0:0:0:0:
475,192,85366,1,0,0:0:0:0:
36,192,85366,1,0,0:0:0:0:
109,192,85544,1,0,0:0:0:0:
402,192,85544,1,0,0:0:0:0:
329,192,85544,1,0,0:0:0:0:
36,192,85723,1,0,0:0:0:0:
329,192,85723,1,8,0:0:0:0:
475,192,85723,1,0,0:0:0:0:
109,192,85812,1,0,0:0:0:0:
256,192,85812,1,0,0:0:0:0:
182,192,85901,1,0,0:0:0:0:
329,192,85901,1,0,0:0:0:0:
256,192,85991,1,0,0:0:0:0:
402,192,85991,1,0,0:0:0:0:
36,192,86080,1,0,0:0:0:0:
329,192,86080,1,0,0:0:0:0:
182,192,86080,1,0,0:0:0:0:
109,192,86080,1,0,0:0:0:0:
475,192,86259,1,0,0:0:0:0:
402,192,86259,1,0,0:0:0:0:
109,192,86259,1,0,0:0:0:0:
36,192,86437,1,0,0:0:0:0:
329,192,86437,1,8,0:0:0:0:
256,192,86437,1,0,0:0:0:0:
256,192,86616,1,0,0:0:0:0:
109,192,86616,1,0,0:0:0:0:
402,192,86616,1,0,0:0:0:0:
36,192,86794,1,0,0:0:0:0:
329,192,86794,1,0,0:0:0:0:
182,192,86794,1,0,0:0:0:0:
256,192,86794,1,0,0:0:0:0:
109,192,86973,1,0,0:0:0:0:
402,192,86973,1,0,0:0:0:0:
256,192,86973,1,0,0:0:0:0:
256,192,87062,1,0,0:0:0:0:
36,192,87151,1,0,0:0:0:0:
182,192,87151,1,0,0:0:0:0:
329,192,87151,1,0,0:0:0:0:
402,192,87151,1,8,0:0:0:0:
109,192,87330,1,0,0:0:0:0:
256,192,87330,1,0,0:0:0:0:
329,192,87419,1,0,0:0:0:0:
256,192,87419,1,0,0:0:0:0:
402,192,87509,1,0,0:0:0:0:
36,192,87509,1,0,0:0:0:0:
182,192,87509,1,0,0:0:0:0:
109,192,87687,1,0,0:0:0:0:
329,192,87687,1,0,0:0:0:0:
256,192,87687,1,0,0:0:0:0:
256,192,87776,1,0,0:0:0:0:
402,192,87866,1,0,0:0:0:0:
329,192,87866,1,8,0:0:0:0:
36,192,87866,1,0,0:0:0:0:
182,192,87866,1,0,0:0:0:0:
36,192,88044,1,0,0:0:0:0:
256,192,88044,1,0,0:0:0:0:
329,192,88134,1,0,0:0:0:0:
256,192,88134,1,0,0:0:0:0:
109,192,88223,1,0,0:0:0:0:
402,192,88223,1,4,0:0:0:0:
475,192,88223,1,0,0:0:0:0:
36,192,88223,1,0,0:0:0:0:
182,192,88223,1,0,0:0:0:0:
256,192,88580,1,0,0:0:0:0:
402,192,88580,1,0,0:0:0:0:
36,192,88580,1,0,0:0:0:0:
329,192,88580,1,4,0:0:0:0:
109,192,88580,1,0,0:0:0:0:
182,192,88759,1,0,0:0:0:0:
182,192,88848,1,0,0:0:0:0:
475,192,88937,1,0,0:0:0:0:
109,192,88938,1,0,0:0:0:0:
256,192,88938,1,0,0:0:0:0:
329,192,88938,1,4,0:0:0:0:
402,192,88938,1,0,0:0:0:0:
329,192,89116,1,0,0:0:0:0:
329,192,89205,1,0,0:0:0:0:
36,192,89294,1,0,0:0:0:0:
182,192,89294,1,4,0:0:0:0:
256,192,89295,1,0,0:0:0:0:
402,192,89295,1,0,0:0:0:0:
109,192,89295,1,0,0:0:0:0:
182,192,89473,1,0,0:0:0:0:
182,192,89563,1,0,0:0:0:0:
475,192,89651,1,0,0:0:0:0:
256,192,89652,1,0,0:0:0:0:
402,192,89652,1,4,0:0:0:0:
329,192,89652,1,0,0:0:0:0:
109,192,89652,1,0,0:0:0:0:
475,192,89830,1,0,0:0:0:0:
182,192,89830,1,0,0:0:0:0:
402,192,89830,1,0,0:0:0:0:
36,192,90009,1,0,0:0:0:0:
109,192,90009,1,8,0:0:0:0:
329,192,90009,1,0,0:0:0:0:
182,192,90187,1,0,0:0:0:0:
256,192,90276,1,0,0:0:0:0:
36,192,90366,1,0,0:0:0:0:
109,192,90366,1,0,0:0:0:0:
329,192,90366,1,0,0:0:0:0:
182,192,90544,1,0,0:0:0:0:
402,192,90544,1,0,0:0:0:0:
475,192,90544,1,0,0:0:0:0:
36,192,90723,1,0,0:0:0:0:
109,192,90723,1,8,0:0:0:0:
329,192,90723,1,0,0:0:0:0:
329,192,90901,1,0,0:0:0:0:
256,192,90991,1,0,0:0:0:0:
182,192,91080,1,0,0:0:0:0:
109,192,91080,1,0,0:0:0:0:
329,192,91080,1,0,0:0:0:0:
475,192,91080,1,0,0:0:0:0:
36,192,91259,1,0,0:0:0:0:
182,192,91259,1,0,0:0:0:0:
36,192,91437,1,0,0:0:0:0:
182,192,91437,1,8,0:0:0:0:
329,192,91437,1,0,0:0:0:0:
475,192,91437,1,0,0:0:0:0:
109,192,91526,1,0,0:0:0:0:
256,192,91526,1,0,0:0:0:0:
182,192,91616,1,0,0:0:0:0:
329,192,91616,1,0,0:0:0:0:
256,192,91705,1,0,0:0:0:0:
402,192,91705,1,0,0:0:0:0:
329,192,91794,1,0,0:0:0:0:
475,192,91794,1,0,0:0:0:0:
109,192,91794,1,0,0:0:0:0:
36,192,91794,1,0,0:0:0:0:
182,192,91973,1,0,0:0:0:0:
402,192,91973,1,0,0:0:0:0:
256,192,92151,1,0,0:0:0:0:
36,192,92151,1,8,0:0:0:0:
329,192,92151,1,0,0:0:0:0:
256,192,92330,1,0,0:0:0:0:
109,192,92330,1,0,0:0:0:0:
256,192,92509,1,0,0:0:0:0:
36,192,92509,1,0,0:0:0:0:
329,192,92509,1,0,0:0:0:0:
475,192,92509,1,0,0:0:0:0:
109,192,92687,1,0,0:0:0:0:
402,192,92687,1,0,0:0:0:0:
109,192,92866,1,8,0:0:0:0:
402,192,92866,1,0,0:0:0:0:
36,192,92866,1,0,0:0:0:0:
182,192,93044,1,0,0:0:0:0:
329,192,93044,1,0,0:0:0:0:
256,192,93134,1,0,0:0:0:0:
36,192,93223,1,0,0:0:0:0:
329,192,93223,1,0,0:0:0:0:
475,192,93223,1,0,0:0:0:0:
109,192,93401,1,0,0:0:0:0:
256,192,93401,1,0,0:0:0:0:
36,192,93580,1,8,0:0:0:0:
329,192,93580,1,0,0:0:0:0:
475,192,93759,1,0,0:0:0:0:
109,192,93759,1,0,0:0:0:0:
182,192,93848,1,0,0:0:0:0:
256,192,93937,1,0,0:0:0:0:
475,192,93937,1,0,0:0:0:0:
36,192,93937,1,0,0:0:0:0:
329,192,93937,1,0,0:0:0:0:
402,192,94026,1,0,0:0:0:0:
182,192,94026,1,0,0:0:0:0:
402,192,94116,1,0,0:0:0:0:
109,192,94116,1,0,0:0:0:0:
329,192,94205,1,0,0:0:0:0:
36,192,94205,1,0,0:0:0:0:
256,192,94294,1,0,0:0:0:0:
109,192,94294,1,8,0:0:0:0:
329,192,94384,1,0,0:0:0:0:
182,192,94384,1,0,0:0:0:0:
402,192,94473,1,0,0:0:0:0:
182,192,94473,1,0,0:0:0:0:
475,192,94562,1,0,0:0:0:0:
256,192,94562,1,0,0:0:0:0:
329,192,94651,1,0,0:0:0:0:
36,192,94651,1,0,0:0:0:0:
109,192,94651,1,0,0:0:0:0:
402,192,94651,1,0,0:0:0:0:
329,192,94830,1,0,0:0:0:0:
329,192,95009,1,0,0:0:0:0:
329,192,95187,1,0,0:0:0:0:
329,192,95366,1,0,0:0:0:0:
36,192,95366,1,0,0:0:0:0:
182,192,95366,1,4,0:0:0:0:
402,192,95366,1,0,0:0:0:0:
109,192,95544,1,0,0:0:0:0:
256,192,95544,1,0,0:0:0:0:
36,192,95723,1,8,0:0:0:0:
256,192,95723,1,0,0:0:0:0:
402,192,95723,1,0,0:0:0:0:
109,192,95901,1,0,0:0:0:0:
256,192,95901,1,0,0:0:0:0:
475,192,95901,1,0,0:0:0:0:
182,192,95991,1,0,0:0:0:0:
329,192,95991,1,0,0:0:0:0:
256,192,96080,1,0,0:0:0:0:
402,192,96080,1,0,0:0:0:0:
36,192,96080,1,0,0:0:0:0:
109,192,96259,1,0,0:0:0:0:
329,192,96259,1,0,0:0:0:0:
36,192,96437,1,8,0:0:0:0:
256,192,96437,1,0,0:0:0:0:
402,192,96437,1,0,0:0:0:0:
109,192,96616,1,0,0:0:0:0:
329,192,96616,1,0,0:0:0:0:
182,192,96705,1,0,0:0:0:0:
402,192,96705,1,0,0:0:0:0:
256,192,96794,1,0,0:0:0:0:
475,192,96794,1,0,0:0:0:0:
36,192,96794,1,0,0:0:0:0:
109,192,96794,1,0,0:0:0:0:
109,192,96973,1,0,0:0:0:0:
402,192,96973,1,0,0:0:0:0:
329,192,97151,1,0,0:0:0:0:
475,192,97151,1,0,0:0:0:0:
36,192,97151,1,0,0:0:0:0:
182,192,97151,1,0,0:0:0:0:
109,192,97241,1,0,0:0:0:0:
402,192,97241,1,0,0:0:0:0:
182,192,97330,1,0,0:0:0:0:
329,192,97330,1,0,0:0:0:0:
256,192,97419,1,0,0:0:0:0:
402,192,97419,1,0,0:0:0:0:
36,192,97509,1,0,0:0:0:0:
182,192,97509,1,0,0:0:0:0:
329,192,97509,1,0,0:0:0:0:
109,192,97687,1,0,0:0:0:0:
402,192,97687,1,0,0:0:0:0:
36,192,97866,1,8,0:0:0:0:
256,192,97866,1,0,0:0:0:0:
475,192,97866,1,0,0:0:0:0:
329,192,97866,1,0,0:0:0:0:
256,192,98044,1,0,0:0:0:0:
109,192,98044,1,0,0:0:0:0:
256,192,98223,1,0,0:0:0:0:
36,192,98223,1,0,0:0:0:0:
402,192,98223,1,0,0:0:0:0:
109,192,98401,1,0,0:0:0:0:
329,192,98401,1,0,0:0:0:0:
182,192,98401,1,0,0:0:0:0:
182,192,98491,1,0,0:0:0:0:
36,192,98580,1,8,0:0:0:0:
256,192,98580,1,0,0:0:0:0:
402,192,98580,1,0,0:0:0:0:
475,192,98580,1,0,0:0:0:0:
329,192,98759,1,0,0:0:0:0:
329,192,98848,1,0,0:0:0:0:
182,192,98848,1,0,0:0:0:0:
36,192,98937,1,0,0:0:0:0:
109,192,98937,1,0,0:0:0:0:
256,192,98937,1,0,0:0:0:0:
402,192,98937,1,0,0:0:0:0:
182,192,99116,1,0,0:0:0:0:
329,192,99116,1,0,0:0:0:0:
109,192,99116,1,0,0:0:0:0:
182,192,99205,1,0,0:0:0:0:
36,192,99294,1,8,0:0:0:0:
256,192,99294,1,0,0:0:0:0:
402,192,99294,1,0,0:0:0:0:
475,192,99294,1,0,0:0:0:0:
329,192,99473,1,0,0:0:0:0:
329,192,99562,1,0,0:0:0:0:
182,192,99562,1,0,0:0:0:0:
36,192,99651,1,0,0:0:0:0:
256,192,99651,1,0,0:0:0:0:
475,192,99651,1,0,0:0:0:0:
402,192,99651,1,0,0:0:0:0:
109,192,99651,1,4,0:0:0:0:
36,192,100009,1,0,0:0:0:0:
182,192,100009,1,4,0:0:0:0:
329,192,100009,1,0,0:0:0:0:
109,192,100009,1,0,0:0:0:0:
402,192,100009,1,0,0:0:0:0:
256,192,100187,1,0,0:0:0:0:
256,192,100276,1,0,0:0:0:0:
109,192,100366,1,0,0:0:0:0:
182,192,100366,1,4,0:0:0:0:
329,192,100366,1,0,0:0:0:0:
475,192,100366,1,0,0:0:0:0:
402,192,100366,1,0,0:0:0:0:
256,192,100544,1,0,0:0:0:0:
256,192,100634,1,0,0:0:0:0:
36,192,100723,1,0,0:0:0:0:
109,192,100723,1,0,0:0:0:0:
182,192,100723,1,4,0:0:0:0:
329,192,100723,1,0,0:0:0:0:
402,192,100723,1,0,0:0:0:0:
256,192,100901,1,0,0:0:0:0:
256,192,100991,1,0,0:0:0:0:
109,192,101080,1,0,0:0:0:0:
182,192,101080,1,4,0:0:0:0:
329,192,101080,1,0,0:0:0:0:
402,192,101080,1,0,0:0:0:0:
475,192,101080,1,0,0:0:0:0:
36,192,101080,1,0,0:0:0:0:
182,192,102509,1,4,0:0:0:0:
402,192,102509,1,0,0:0:0:0:
36,192,102509,1,0,0:0:0:0:
475,192,102509,1,0,0:0:0:0:
109,192,102687,1,0,0:0:0:0:
36,192,102687,1,0,0:0:0:0:
256,192,102687,1,0,0:0:0:0:
402,192,102866,1,0,0:0:0:0:
475,192,102866,1,0,0:0:0:0:
182,192,102866,1,0,0:0:0:0:
256,192,103044,1,0,0:0:0:0:
182,192,103134,1,0,0:0:0:0:
36,192,103223,1,0,0:0:0:0:
109,192,103223,1,0,0:0:0:0:
329,192,103223,1,0,0:0:0:0:
475,192,103402,1,0,0:0:0:0:
402,192,103402,1,0,0:0:0:0:
182,192,103402,1,0,0:0:0:0:
109,192,103580,1,0,0:0:0:0:
36,192,103580,1,0,0:0:0:0:
329,192,103580,1,0,0:0:0:0:
329,192,103759,1,0,0:0:0:0:
182,192,103759,1,0,0:0:0:0:
402,192,103848,1,0,0:0:0:0:
475,192,103937,1,0,0:0:0:0:
256,192,103937,1,0,0:0:0:0:
109,192,103937,1,0,0:0:0:0:
402,192,104027,1,0,0:0:0:0:
109,192,104116,1,0,0:0:0:0:
402,192,104116,1,0,0:0:0:0:
329,192,104205,1,0,0:0:0:0:
182,192,104294,1,0,0:0:0:0:
36,192,104294,1,0,0:0:0:0:
402,192,104294,1,0,0:0:0:0:
329,192,104384,1,0,0:0:0:0:
402,192,104473,1,0,0:0:0:0:
182,192,104473,1,0,0:0:0:0:
475,192,104562,1,0,0:0:0:0:
402,192,104651,1,0,0:0:0:0:
329,192,104651,1,0,0:0:0:0:
256,192,104652,1,0,0:0:0:0:
109,192,104652,1,0,0:0:0:0:
182,192,104830,1,0,0:0:0:0:
109,192,105009,1,0,0:0:0:0:
256,192,105009,1,0,0:0:0:0:
402,192,105009,1,0,0:0:0:0:
256,192,105187,1,0,0:0:0:0:
402,192,105366,1,0,0:0:0:0:
36,192,105366,1,0,0:0:0:0:
256,192,105366,1,0,0:0:0:0:
182,192,105455,1,0,0:0:0:0:
329,192,105544,1,0,0:0:0:0:
475,192,105634,1,0,0:0:0:0:
402,192,105723,1,0,0:0:0:0:
109,192,105723,1,0,0:0:0:0:
256,192,105723,1,0,0:0:0:0:
109,192,105902,1,0,0:0:0:0:
402,192,105902,1,0,0:0:0:0:
329,192,106080,1,0,0:0:0:0:
475,192,106080,1,0,0:0:0:0:
36,192,106080,1,0,0:0:0:0:
109,192,106169,1,0,0:0:0:0:
402,192,106259,1,0,0:0:0:0:
475,192,106348,1,0,0:0:0:0:
109,192,106437,1,0,0:0:0:0:
256,192,106437,1,0,0:0:0:0:
329,192,106437,1,0,0:0:0:0:
109,192,106616,1,0,0:0:0:0:
329,192,106616,1,0,0:0:0:0:
402,192,106705,1,0,0:0:0:0:
36,192,106794,1,0,0:0:0:0:
256,192,106794,1,0,0:0:0:0:
475,192,106794,1,0,0:0:0:0:
402,192,106884,1,0,0:0:0:0:
182,192,106973,1,0,0:0:0:0:
402,192,106973,1,0,0:0:0:0:
329,192,107062,1,0,0:0:0:0:
402,192,107152,1,0,0:0:0:0:
36,192,107152,1,0,0:0:0:0:
256,192,107152,1,0,0:0:0:0:
329,192,107241,1,0,0:0:0:0:
182,192,107330,1,0,0:0:0:0:
475,192,107330,1,0,0:0:0:0:
109,192,107419,1,0,0:0:0:0:
402,192,107509,1,0,0:0:0:0:
256,192,107509,1,0,0:0:0:0:
36,192,107509,1,0,0:0:0:0:
256,192,107687,1,0,0:0:0:0:
256,192,107866,1,0,0:0:0:0:
256,192,108044,1,0,0:0:0:0:
36,192,108044,1,0,0:0:0:0:
109,192,108134,1,0,0:0:0:0:
182,192,108223,1,0,0:0:0:0:
402,192,108223,1,4,0:0:0:0:
475,192,108223,1,0,0:0:0:0:
109,192,108401,1,0,0:0:0:0:
329,192,108401,1,0,0:0:0:0:
36,192,108401,1,0,0:0:0:0:
182,192,108580,1,0,0:0:0:0:
402,192,108580,1,0,0:0:0:0:
475,192,108580,1,0,0:0:0:0:
329,192,108759,1,0,0:0:0:0:
256,192,108848,1,0,0:0:0:0:
36,192,108937,1,0,0:0:0:0:
109,192,108937,1,0,0:0:0:0:
329,192,108937,1,0,0:0:0:0:
182,192,109116,1,0,0:0:0:0:
402,192,109116,1,0,0:0:0:0:
475,192,109116,1,0,0:0:0:0:
36,192,109294,1,0,0:0:0:0:
109,192,109294,1,0,0:0:0:0:
329,192,109294,1,0,0:0:0:0:
182,192,109473,1,0,0:0:0:0:
256,192,109562,1,0,0:0:0:0:
329,192,109651,1,0,0:0:0:0:
475,192,109651,1,0,0:0:0:0:
182,192,109651,1,0,0:0:0:0:
36,192,109651,1,0,0:0:0:0:
402,192,109741,1,0,0:0:0:0:
109,192,109741,1,0,0:0:0:0:
402,192,109830,1,0,0:0:0:0:
182,192,109830,1,0,0:0:0:0:
329,192,109919,1,0,0:0:0:0:
109,192,109919,1,0,0:0:0:0:
256,192,110009,1,0,0:0:0:0:
36,192,110009,1,0,0:0:0:0:
329,192,110098,1,0,0:0:0:0:
109,192,110098,1,0,0:0:0:0:
402,192,110187,1,0,0:0:0:0:
109,192,110187,1,0,0:0:0:0:
475,192,110276,1,0,0:0:0:0:
182,192,110276,1,0,0:0:0:0:
256,192,110366,1,0,0:0:0:0:
36,192,110366,1,0,0:0:0:0:
402,192,110366,1,0,0:0:0:0:
109,192,110544,1,0,0:0:0:0:
329,192,110544,1,0,0:0:0:0:
256,192,110723,1,0,0:0:0:0:
256,192,110901,1,0,0:0:0:0:
36,192,111080,1,0,0:0:0:0:
182,192,111080,1,0,0:0:0:0:
402,192,111080,1,0,0:0:0:0:
109,192,111169,1,0,0:0:0:0:
256,192,111259,1,0,0:0:0:0:
402,192,111348,1,0,0:0:0:0:
36,192,111437,1,0,0:0:0:0:
182,192,111437,1,0,0:0:0:0:
329,192,111437,1,0,0:0:0:0:
329,192,111616,1,0,0:0:0:0:
109,192,111616,1,0,0:0:0:0:
36,192,111794,1,0,0:0:0:0:
256,192,111794,1,0,0:0:0:0:
402,192,111794,1,0,0:0:0:0:
182,192,111884,1,0,0:0:0:0:
329,192,111973,1,0,0:0:0:0:
475,192,112062,1,0,0:0:0:0:
109,192,112151,1,0,0:0:0:0:
256,192,112151,1,0,0:0:0:0:
402,192,112151,1,0,0:0:0:0:
36,192,112151,1,0,0:0:0:0:
182,192,112330,1,0,0:0:0:0:
329,192,112330,1,0,0:0:0:0:
256,192,112419,1,0,0:0:0:0:
36,192,112509,1,0,0:0:0:0:
182,192,112509,1,0,0:0:0:0:
475,192,112509,1,0,0:0:0:0:
402,192,112598,1,0,0:0:0:0:
109,192,112598,1,0,0:0:0:0:
402,192,112687,1,0,0:0:0:0:
36,192,112687,1,0,0:0:0:0:
329,192,112776,1,0,0:0:0:0:
182,192,112776,1,0,0:0:0:0:
402,192,112866,1,0,0:0:0:0:
36,192,112866,1,0,0:0:0:0:
329,192,112955,1,0,0:0:0:0:
256,192,112955,1,0,0:0:0:0:
182,192,113044,1,0,0:0:0:0:
36,192,113044,1,0,0:0:0:0:
109,192,113134,1,0,0:0:0:0:
402,192,113134,1,0,0:0:0:0:
329,192,113223,1,0,0:0:0:0:
475,192,113223,1,0,0:0:0:0:
36,192,113223,1,0,0:0:0:0:
182,192,113223,1,0,0:0:0:0:
256,192,113223,1,0,0:0:0:0:
256,192,113401,1,0,0:0:0:0:
475,192,113401,1,0,0:0:0:0:
256,192,113580,1,0,0:0:0:0:
475,192,113580,1,0,0:0:0:0:
256,192,113759,1,0,0:0:0:0:
475,192,113759,1,0,0:0:0:0:
256,192,113937,1,0,0:0:0:0:
329,192,113937,1,4,0:0:0:0:
475,192,113937,1,0,0:0:0:0:
36,192,113937,1,0,0:0:0:0:
182,192,114116,1,0,0:0:0:0:
475,192,114294,1,0,0:0:0:0:
256,192,114294,1,0,0:0:0:0:
402,192,114294,1,8,0:0:0:0:
36,192,114294,1,0,0:0:0:0:
182,192,114473,1,0,0:0:0:0:
256,192,114652,1,0,0:0:0:0:
475,192,114652,1,0,0:0:0:0:
109,192,114652,1,0,0:0:0:0:
36,192,114830,1,0,0:0:0:0:
475,192,114830,1,0,0:0:0:0:
475,192,115009,1,0,0:0:0:0:
329,192,115009,1,8,0:0:0:0:
256,192,115009,1,0,0:0:0:0:
36,192,115187,1,0,0:0:0:0:
475,192,115187,1,0,0:0:0:0:
402,192,115366,1,0,0:0:0:0:
256,192,115366,1,0,0:0:0:0:
329,192,115366,1,0,0:0:0:0:
109,192,115366,1,0,0:0:0:0:
36,192,115544,1,0,0:0:0:0:
256,192,115723,1,8,0:0:0:0:
402,192,115723,1,0,0:0:0:0:
182,192,115723,1,0,0:0:0:0:
36,192,115901,1,0,0:0:0:0:
109,192,116080,1,0,0:0:0:0:
475,192,116080,1,0,0:0:0:0:
329,192,116080,1,0,0:0:0:0:
475,192,116259,1,0,0:0:0:0:
36,192,116259,1,0,0:0:0:0:
256,192,116437,1,8,0:0:0:0:
182,192,116437,1,0,0:0:0:0:
475,192,116437,1,0,0:0:0:0:
256,192,116616,1,0,0:0:0:0:
475,192,116616,1,0,0:0:0:0:
256,192,116794,1,4,0:0:0:0:
36,192,116794,1,0,0:0:0:0:
182,192,116794,1,0,0:0:0:0:
402,192,116794,1,0,0:0:0:0:
109,192,116973,1,0,0:0:0:0:
402,192,117152,1,0,0:0:0:0:
182,192,117152,1,0,0:0:0:0:
256,192,117152,1,8,0:0:0:0:
36,192,117330,1,0,0:0:0:0:
109,192,117509,1,0,0:0:0:0:
402,192,117509,1,0,0:0:0:0:
256,192,117509,1,0,0:0:0:0:
402,192,117687,1,0,0:0:0:0:
182,192,117687,1,0,0:0:0:0:
36,192,117866,1,0,0:0:0:0:
256,192,117866,1,8,0:0:0:0:
402,192,117866,1,0,0:0:0:0:
402,192,118044,1,0,0:0:0:0:
329,192,118223,1,0,0:0:0:0:
109,192,118223,1,0,0:0:0:0:
256,192,118223,1,0,0:0:0:0:
475,192,118223,1,0,0:0:0:0:
182,192,118402,1,0,0:0:0:0:
256,192,118580,1,8,0:0:0:0:
36,192,118580,1,0,0:0:0:0:
402,192,118580,1,0,0:0:0:0:
109,192,118759,1,0,0:0:0:0:
329,192,118937,1,0,0:0:0:0:
256,192,118937,1,0,0:0:0:0:
182,192,118937,1,0,0:0:0:0:
475,192,118937,1,0,0:0:0:0:
256,192,119116,1,0,0:0:0:0:
109,192,119116,1,0,0:0:0:0:
402,192,119294,1,0,0:0:0:0:
182,192,119294,1,0,0:0:0:0:
36,192,119294,1,0,0:0:0:0:
256,192,119294,1,8,0:0:0:0:
109,192,119473,1,0,0:0:0:0:
256,192,119473,1,0,0:0:0:0:
256,192,119652,1,0,0:0:0:0:
329,192,119652,1,4,0:0:0:0:
36,192,119652,1,0,0:0:0:0:
475,192,119652,1,0,0:0:0:0:
109,192,119830,1,0,0:0:0:0:
402,192,119830,1,0,0:0:0:0:
36,192,120009,1,0,0:0:0:0:
182,192,120009,1,8,0:0:0:0:
329,192,120009,1,0,0:0:0:0:
256,192,120187,1,0,0:0:0:0:
109,192,120366,1,0,0:0:0:0:
402,192,120366,1,0,0:0:0:0:
36,192,120366,1,0,0:0:0:0:
402,192,120544,1,0,0:0:0:0:
182,192,120544,1,0,0:0:0:0:
402,192,120723,1,0,0:0:0:0:
36,192,120723,1,0,0:0:0:0:
256,192,120723,1,8,0:0:0:0:
402,192,120901,1,0,0:0:0:0:
182,192,120901,1,0,0:0:0:0:
36,192,121080,1,0,0:0:0:0:
256,192,121080,1,0,0:0:0:0:
475,192,121080,1,0,0:0:0:0:
329,192,121080,1,0,0:0:0:0:
109,192,121259,1,0,0:0:0:0:
182,192,121437,1,8,0:0:0:0:
329,192,121437,1,0,0:0:0:0:
402,192,121437,1,0,0:0:0:0:
36,192,121437,1,0,0:0:0:0:
256,192,121616,1,0,0:0:0:0:
36,192,121794,1,0,0:0:0:0:
182,192,121794,1,0,0:0:0:0:
475,192,121794,1,0,0:0:0:0:
36,192,121973,1,0,0:0:0:0:
402,192,121973,1,0,0:0:0:0:
36,192,122151,1,0,0:0:0:0:
109,192,122151,1,8,0:0:0:0:
329,192,122151,1,0,0:0:0:0:
256,192,122151,1,0,0:0:0:0:
36,192,122330,1,0,0:0:0:0:
256,192,122330,1,0,0:0:0:0:
109,192,122509,1,0,0:0:0:0:
402,192,122509,1,0,0:0:0:0:
329,192,122509,1,0,0:0:0:0:
36,192,122687,1,0,0:0:0:0:
182,192,122687,1,0,0:0:0:0:
109,192,122866,1,0,0:0:0:0:
256,192,122866,1,8,0:0:0:0:
475,192,122866,1,0,0:0:0:0:
182,192,123044,1,0,0:0:0:0:
329,192,123044,1,0,0:0:0:0:
36,192,123223,1,0,0:0:0:0:
256,192,123223,1,0,0:0:0:0:
402,192,123223,1,0,0:0:0:0:
109,192,123401,1,0,0:0:0:0:
329,192,123401,1,0,0:0:0:0:
36,192,123401,1,0,0:0:0:0:
36,192,123580,1,0,0:0:0:0:
182,192,123580,1,8,0:0:0:0:
402,192,123580,1,0,0:0:0:0:
36,192,123759,1,0,0:0:0:0:
256,192,123759,1,0,0:0:0:0:
475,192,123759,1,0,0:0:0:0:
109,192,123937,1,0,0:0:0:0:
402,192,123937,1,0,0:0:0:0:
329,192,124116,1,0,0:0:0:0:
182,192,124116,1,0,0:0:0:0:
329,192,124205,1,0,0:0:0:0:
36,192,124294,1,0,0:0:0:0:
256,192,124294,1,8,0:0:0:0:
475,192,124294,1,0,0:0:0:0:
182,192,124473,1,0,0:0:0:0:
182,192,124562,1,0,0:0:0:0:
36,192,124651,1,0,0:0:0:0:
256,192,124651,1,0,0:0:0:0:
475,192,124651,1,0,0:0:0:0:
109,192,124651,1,0,0:0:0:0:
475,192,124830,1,0,0:0:0:0:
182,192,124830,1,0,0:0:0:0:
475,192,125009,1,0,0:0:0:0:
109,192,125009,1,0,0:0:0:0:
329,192,125009,1,8,0:0:0:0:
475,192,125187,1,0,0:0:0:0:
36,192,125187,1,0,0:0:0:0:
256,192,125187,1,0,0:0:0:0:
