osu file format v12

[General]
AudioFilename: short22.mp3
AudioLeadIn: 0
PreviewTime: 77151
Countdown: 0
SampleSet: Soft
StackLeniency: 0.7
Mode: 3
LetterboxInBreaks: 0
SpecialStyle: 0
WidescreenStoryboard: 0

[Editor]
Bookmarks: 113937
DistanceSpacing: 0.6
BeatDivisor: 4
GridSize: 8

[Metadata]
Title:Zhong Ai Qing You (Speed up Version)
TitleUnicode:重爱轻友(加速版)
Artist:Leon Lai
ArtistUnicode:黎明
Creator:Luyuja
Version:4K Normal
Source:RockFever
Tags:IGS Remix
BeatmapID:273797
BeatmapSetID:103550

[Difficulty]
HPDrainRate:6
CircleSize:4
OverallDifficulty:6
ApproachRate:5
SliderMultiplier:1.4
SliderTickRate:1

[Events]
//Background and Video events
0,0,"BG.jpg",0,0
//Break Periods
//Storyboard Layer 0 (Background)
//Storyboard Layer 1 (Fail)
//Storyboard Layer 2 (Pass)
//Storyboard Layer 3 (Foreground)
//Storyboard Sound Samples
//Background Colour Transformations
3,100,163,162,255

[TimingPoints]
-348,357.142857142857,4,2,0,30,1,0
78223,-100,4,2,0,30,0,1
101080,-100,4,2,0,30,0,0

[HitObjects]
448,192,3937,1,0,0:0:0:0:
192,192,4294,1,8,0:0:0:0:
448,192,4651,1,0,0:0:0:0:
192,192,5009,1,8,0:0:0:0:
448,192,5187,1,0,0:0:0:0:
448,192,5544,1,0,0:0:0:0:
64,192,5723,1,8,0:0:0:0:
448,192,6080,1,0,0:0:0:0:
64,192,6437,1,8,0:0:0:0:
448,192,6794,1,0,0:0:0:0:
192,192,7151,1,8,0:0:0:0:
448,192,7509,1,0,0:0:0:0:
192,192,7866,1,8,0:0:0:0:
448,192,8044,1,0,0:0:0:0:
448,192,8401,1,0,0:0:0:0:
64,192,8580,1,8,0:0:0:0:
448,192,8937,1,0,0:0:0:0:
64,192,9294,1,0,0:0:0:0:
64,192,9651,1,0,0:0:0:0:
448,192,10009,1,0,0:0:0:0:
192,192,10366,1,0,0:0:0:0:
192,192,10544,1,0,0:0:0:0:
320,192,10723,1,0,0:0:0:0:
192,192,10901,1,0,0:0:0:0:
448,192,11259,1,0,0:0:0:0:
64,192,11437,1,0,0:0:0:0:
320,192,11794,1,0,0:0:0:0:
320,192,11973,1,0,0:0:0:0:
192,192,12151,1,0,0:0:0:0:
320,192,12330,1,0,0:0:0:0:
448,192,12687,1,0,0:0:0:0:
64,192,12866,1,0,0:0:0:0:
64,192,13223,1,0,0:0:0:0:
64,192,13401,1,0,0:0:0:0:
448,192,13580,1,0,0:0:0:0:
448,192,13759,1,0,0:0:0:0:
192,192,14651,1,0,0:0:0:0:
320,192,15009,1,0,0:0:0:0:
448,192,15366,1,0,0:0:0:0:
64,192,15544,1,0,0:0:0:0:
448,192,15723,1,0,0:0:0:0:
64,192,16080,1,0,0:0:0:0:
448,192,16259,1,0,0:0:0:0:
64,192,16437,1,0,0:0:0:0:
448,192,16794,1,0,0:0:0:0:
64,192,16973,1,0,0:0:0:0:
448,192,17151,1,0,0:0:0:0:
64,192,17330,1,0,0:0:0:0:
320,192,17509,1,0,0:0:0:0:
64,192,18223,1,0,0:0:0:0:
192,192,18401,1,0,0:0:0:0:
320,192,18580,1,0,0:0:0:0:
64,192,18937,1,0,0:0:0:0:
320,192,19116,1,0,0:0:0:0:
448,192,19294,1,0,0:0:0:0:
320,192,19651,1,0,0:0:0:0:
64,192,19830,1,0,0:0:0:0:
448,192,20009,1,0,0:0:0:0:
192,192,20187,1,0,0:0:0:0:
320,192,20366,1,0,0:0:0:0:
448,192,21080,1,0,0:0:0:0:
64,192,21259,1,0,0:0:0:0:
448,192,21437,1,0,0:0:0:0:
64,192,21794,1,0,0:0:0:0:
448,192,21973,1,0,0:0:0:0:
64,192,22151,1,0,0:0:0:0:
448,192,22509,1,0,0:0:0:0:
64,192,22687,1,0,0:0:0:0:
448,192,22866,1,0,0:0:0:0:
192,192,23044,1,0,0:0:0:0:
320,192,23223,1,0,0:0:0:0:
64,192,23937,1,0,0:0:0:0:
192,192,24116,1,0,0:0:0:0:
448,192,24294,1,0,0:0:0:0:
64,192,24651,1,0,0:0:0:0:
320,192,24830,1,0,0:0:0:0:
448,192,25009,1,0,0:0:0:0:
320,192,25366,1,0,0:0:0:0:
64,192,25544,1,0,0:0:0:0:
448,192,25723,1,0,0:0:0:0:
192,192,25901,1,0,0:0:0:0:
448,192,26080,1,0,0:0:0:0:
64,192,26794,1,4,0:0:0:0:
320,192,26973,1,0,0:0:0:0:
64,192,27151,1,0,0:0:0:0:
320,192,27330,1,0,0:0:0:0:
448,192,27509,1,0,0:0:0:0:
448,192,27866,1,0,0:0:0:0:
64,192,28223,1,0,0:0:0:0:
320,192,28401,1,0,0:0:0:0:
64,192,28580,1,0,0:0:0:0:
320,192,28759,1,0,0:0:0:0:
448,192,28937,1,0,0:0:0:0:
448,192,29294,1,0,0:0:0:0:
64,192,29651,1,4,0:0:0:0:
192,192,29830,1,0,0:0:0:0:
64,192,30009,1,0,0:0:0:0:
192,192,30187,1,0,0:0:0:0:
448,192,30366,1,0,0:0:0:0:
448,192,30723,1,0,0:0:0:0:
64,192,31080,1,0,0:0:0:0:
192,192,31259,1,0,0:0:0:0:
64,192,31437,1,0,0:0:0:0:
192,192,31616,1,0,0:0:0:0:
448,192,31794,1,4,0:0:0:0:
64,192,32151,1,4,0:0:0:0:
448,192,32509,1,0,0:0:0:0:
192,192,32687,1,0,0:0:0:0:
448,192,32866,1,0,0:0:0:0:
192,192,33044,1,0,0:0:0:0:
64,192,33223,1,0,0:0:0:0:
64,192,33580,1,0,0:0:0:0:
448,192,33937,1,0,0:0:0:0:
192,192,34116,1,0,0:0:0:0:
448,192,34294,1,0,0:0:0:0:
192,192,34473,1,0,0:0:0:0:
64,192,34651,1,0,0:0:0:0:
64,192,35009,1,0,0:0:0:0:
448,192,35366,1,0,0:0:0:0:
320,192,35544,1,0,0:0:0:0:
448,192,35723,1,0,0:0:0:0:
320,192,35901,1,0,0:0:0:0:
64,192,36080,1,0,0:0:0:0:
64,192,36437,1,0,0:0:0:0:
448,192,36794,1,0,0:0:0:0:
320,192,36973,1,0,0:0:0:0:
448,192,37151,1,0,0:0:0:0:
320,192,37330,1,0,0:0:0:0:
64,192,37509,1,4,0:0:0:0:
64,192,37866,1,4,0:0:0:0:
448,192,38223,1,4,0:0:0:0:
192,192,43223,1,0,0:0:0:0:
448,192,43223,1,4,0:0:0:0:
64,192,43580,1,4,0:0:0:0:
320,192,43580,1,0,0:0:0:0:
448,192,43937,1,4,0:0:0:0:
448,192,44294,1,0,0:0:0:0:
448,192,44651,1,0,0:0:0:0:
64,192,44830,1,0,0:0:0:0:
448,192,45009,1,0,0:0:0:0:
448,192,45366,1,0,0:0:0:0:
448,192,45723,1,0,0:0:0:0:
448,192,46080,1,0,0:0:0:0:
192,192,46259,1,0,0:0:0:0:
448,192,46437,1,0,0:0:0:0:
192,192,46616,1,0,0:0:0:0:
448,192,46616,1,0,0:0:0:0:
64,192,46794,1,0,0:0:0:0:
64,192,47151,1,0,0:0:0:0:
64,192,47509,1,0,0:0:0:0:
320,192,47687,1,0,0:0:0:0:
64,192,47866,1,0,0:0:0:0:
64,192,48223,1,0,0:0:0:0:
448,192,48401,1,0,0:0:0:0:
448,192,48580,1,0,0:0:0:0:
448,192,48759,1,0,0:0:0:0:
448,192,48937,1,0,0:0:0:0:
192,192,49116,1,0,0:0:0:0:
448,192,49294,1,0,0:0:0:0:
192,192,49473,1,0,0:0:0:0:
64,192,49651,1,0,0:0:0:0:
64,192,50009,1,0,0:0:0:0:
64,192,50366,1,0,0:0:0:0:
448,192,50544,1,0,0:0:0:0:
64,192,50723,1,0,0:0:0:0:
64,192,51080,1,0,0:0:0:0:
64,192,51437,1,0,0:0:0:0:
64,192,51794,1,0,0:0:0:0:
320,192,51973,1,0,0:0:0:0:
64,192,52151,1,0,0:0:0:0:
64,192,52330,1,0,0:0:0:0:
320,192,52330,1,0,0:0:0:0:
192,192,52509,1,0,0:0:0:0:
192,192,52866,1,0,0:0:0:0:
192,192,53223,1,0,0:0:0:0:
448,192,53401,1,0,0:0:0:0:
192,192,53580,1,0,0:0:0:0:
320,192,53937,1,0,0:0:0:0:
64,192,54116,1,0,0:0:0:0:
320,192,54294,1,0,0:0:0:0:
64,192,54473,1,0,0:0:0:0:
448,192,54651,1,0,0:0:0:0:
64,192,54830,1,0,0:0:0:0:
448,192,55009,1,0,0:0:0:0:
192,192,55187,1,0,0:0:0:0:
320,192,55366,1,0,0:0:0:0:
320,192,55723,1,0,0:0:0:0:
320,192,56080,1,0,0:0:0:0:
64,192,56259,1,0,0:0:0:0:
320,192,56437,1,0,0:0:0:0:
448,192,56794,1,0,0:0:0:0:
448,192,57151,1,0,0:0:0:0:
448,192,57509,1,0,0:0:0:0:
192,192,57687,1,0,0:0:0:0:
448,192,57866,1,0,0:0:0:0:
192,192,58044,1,0,0:0:0:0:
448,192,58044,1,0,0:0:0:0:
320,192,58223,1,0,0:0:0:0:
320,192,58580,1,0,0:0:0:0:
448,192,58937,1,0,0:0:0:0:
192,192,59116,1,0,0:0:0:0:
448,192,59294,1,0,0:0:0:0:
320,192,59651,1,0,0:0:0:0:
320,192,59830,1,0,0:0:0:0:
64,192,60009,1,0,0:0:0:0:
64,192,60187,1,0,0:0:0:0:
192,192,60366,1,0,0:0:0:0:
448,192,60544,1,0,0:0:0:0:
64,192,60723,1,0,0:0:0:0:
320,192,60901,1,0,0:0:0:0:
64,192,61080,1,0,0:0:0:0:
64,192,61437,1,0,0:0:0:0:
320,192,61794,1,0,0:0:0:0:
192,192,61973,1,0,0:0:0:0:
448,192,62151,1,0,0:0:0:0:
64,192,62151,1,4,0:0:0:0:
448,192,62509,1,0,0:0:0:0:
448,192,62687,1,0,0:0:0:0:
320,192,62866,1,0,0:0:0:0:
320,192,63044,1,0,0:0:0:0:
192,192,63223,1,0,0:0:0:0:
192,192,63401,1,0,0:0:0:0:
64,192,63580,1,0,0:0:0:0:
64,192,63759,1,0,0:0:0:0:
320,192,63937,1,0,0:0:0:0:
64,192,64116,1,0,0:0:0:0:
320,192,64294,1,0,0:0:0:0:
64,192,64473,1,0,0:0:0:0:
448,192,64651,1,0,0:0:0:0:
192,192,64830,1,0,0:0:0:0:
64,192,65009,1,0,0:0:0:0:
320,192,65187,1,0,0:0:0:0:
192,192,65366,1,0,0:0:0:0:
64,192,66794,1,0,0:0:0:0:
448,192,67151,1,0,0:0:0:0:
64,192,67509,1,0,0:0:0:0:
448,192,67687,1,0,0:0:0:0:
64,192,67866,1,0,0:0:0:0:
320,192,68044,1,0,0:0:0:0:
192,192,68223,1,0,0:0:0:0:
320,192,68401,1,0,0:0:0:0:
64,192,68580,1,0,0:0:0:0:
320,192,68759,128,0,69294:0:0:0:0:
64,192,69651,1,0,0:0:0:0:
320,192,70009,1,0,0:0:0:0:
64,192,70366,1,0,0:0:0:0:
320,192,70544,1,0,0:0:0:0:
448,192,70723,1,0,0:0:0:0:
192,192,70901,1,0,0:0:0:0:
64,192,71080,1,0,0:0:0:0:
320,192,71259,1,0,0:0:0:0:
448,192,71437,1,0,0:0:0:0:
320,192,71616,1,0,0:0:0:0:
64,192,72509,1,0,0:0:0:0:
64,192,72866,1,0,0:0:0:0:
64,192,73044,1,0,0:0:0:0:
448,192,73401,128,0,73580:0:0:0:0:
448,192,73759,128,0,73937:0:0:0:0:
320,192,74830,128,0,75009:0:0:0:0:
320,192,75187,128,0,75366:0:0:0:0:
64,192,75366,1,0,0:0:0:0:
192,192,75544,1,0,0:0:0:0:
320,192,75723,1,0,0:0:0:0:
192,192,75901,1,0,0:0:0:0:
320,192,76080,1,0,0:0:0:0:
64,192,76259,1,0,0:0:0:0:
192,192,76437,1,0,0:0:0:0:
320,192,76616,1,0,0:0:0:0:
448,192,76794,1,4,0:0:0:0:
192,192,77151,1,4,0:0:0:0:
64,192,77151,1,0,0:0:0:0:
320,192,77509,1,4,0:0:0:0:
448,192,77509,1,0,0:0:0:0:
64,192,77866,1,0,0:0:0:0:
192,192,77866,1,4,0:0:0:0:
320,192,78223,1,4,0:0:0:0:
448,192,78223,1,0,0:0:0:0:
64,192,78401,1,0,0:0:0:0:
320,192,78580,1,0,0:0:0:0:
64,192,78759,1,0,0:0:0:0:
320,192,78937,1,0,0:0:0:0:
448,192,79116,1,0,0:0:0:0:
320,192,79294,1,0,0:0:0:0:
320,192,79651,1,0,0:0:0:0:
64,192,79830,1,0,0:0:0:0:
192,192,80009,1,0,0:0:0:0:
64,192,80187,1,0,0:0:0:0:
448,192,80366,1,0,0:0:0:0:
192,192,80544,1,0,0:0:0:0:
448,192,80723,1,0,0:0:0:0:
320,192,81080,1,0,0:0:0:0:
64,192,81259,1,0,0:0:0:0:
64,192,81437,1,0,0:0:0:0:
192,192,81616,1,0,0:0:0:0:
448,192,81794,1,0,0:0:0:0:
64,192,81973,1,0,0:0:0:0:
192,192,82151,1,0,0:0:0:0:
448,192,82509,1,0,0:0:0:0:
448,192,82687,1,0,0:0:0:0:
64,192,82866,1,0,0:0:0:0:
320,192,83044,1,0,0:0:0:0:
192,192,83223,1,0,0:0:0:0:
192,192,83401,1,0,0:0:0:0:
192,192,83580,1,0,0:0:0:0:
192,192,83759,1,0,0:0:0:0:
448,192,83937,1,0,0:0:0:0:
64,192,84116,1,0,0:0:0:0:
448,192,84294,1,0,0:0:0:0:
448,192,84651,1,0,0:0:0:0:
64,192,84830,1,0,0:0:0:0:
448,192,85009,1,0,0:0:0:0:
64,192,85366,1,0,0:0:0:0:
320,192,85544,1,0,0:0:0:0:
64,192,85723,1,0,0:0:0:0:
192,192,85901,1,0,0:0:0:0:
64,192,86080,1,0,0:0:0:0:
320,192,86259,1,0,0:0:0:0:
448,192,86437,1,0,0:0:0:0:
320,192,86794,1,0,0:0:0:0:
192,192,86973,1,0,0:0:0:0:
64,192,87151,1,0,0:0:0:0:
448,192,87509,1,0,0:0:0:0:
320,192,87687,1,0,0:0:0:0:
192,192,87866,1,0,0:0:0:0:
64,192,88044,1,0,0:0:0:0:
448,192,88223,1,0,0:0:0:0:
320,192,88223,1,4,0:0:0:0:
64,192,88580,1,0,0:0:0:0:
192,192,88580,1,4,0:0:0:0:
320,192,88937,1,4,0:0:0:0:
448,192,88937,1,0,0:0:0:0:
64,192,89294,1,0,0:0:0:0:
192,192,89294,1,0,0:0:0:0:
320,192,89651,1,4,0:0:0:0:
448,192,89651,1,0,0:0:0:0:
64,192,89830,1,0,0:0:0:0:
320,192,90009,1,0,0:0:0:0:
192,192,90187,1,0,0:0:0:0:
448,192,90366,1,0,0:0:0:0:
192,192,90544,1,0,0:0:0:0:
448,192,90723,1,0,0:0:0:0:
320,192,91080,1,0,0:0:0:0:
64,192,91259,1,0,0:0:0:0:
320,192,91437,1,0,0:0:0:0:
64,192,91616,1,0,0:0:0:0:
320,192,91794,1,0,0:0:0:0:
192,192,91973,1,0,0:0:0:0:
448,192,92151,1,0,0:0:0:0:
320,192,92509,1,0,0:0:0:0:
64,192,92687,1,0,0:0:0:0:
64,192,92866,1,0,0:0:0:0:
448,192,93044,1,0,0:0:0:0:
192,192,93223,1,0,0:0:0:0:
192,192,93401,1,0,0:0:0:0:
64,192,93580,1,0,0:0:0:0:
448,192,93937,1,0,0:0:0:0:
320,192,94116,1,0,0:0:0:0:
64,192,94294,1,0,0:0:0:0:
320,192,94473,1,0,0:0:0:0:
192,192,94651,1,0,0:0:0:0:
192,192,94830,1,0,0:0:0:0:
192,192,95009,1,0,0:0:0:0:
192,192,95187,1,0,0:0:0:0:
448,192,95366,1,0,0:0:0:0:
64,192,95544,1,0,0:0:0:0:
448,192,95723,1,0,0:0:0:0:
64,192,96080,1,0,0:0:0:0:
320,192,96259,1,0,0:0:0:0:
64,192,96437,1,0,0:0:0:0:
448,192,96794,1,0,0:0:0:0:
192,192,96973,1,0,0:0:0:0:
64,192,97151,1,0,0:0:0:0:
320,192,97330,1,0,0:0:0:0:
192,192,97509,1,0,0:0:0:0:
320,192,97687,1,0,0:0:0:0:
64,192,97866,1,0,0:0:0:0:
192,192,98044,1,0,0:0:0:0:
448,192,98223,1,0,0:0:0:0:
192,192,98401,1,0,0:0:0:0:
320,192,98580,1,0,0:0:0:0:
64,192,98759,1,0,0:0:0:0:
320,192,98937,1,0,0:0:0:0:
192,192,99116,1,0,0:0:0:0:
448,192,99294,1,0,0:0:0:0:
192,192,99473,1,0,0:0:0:0:
448,192,99651,1,0,0:0:0:0:
320,192,99651,1,4,0:0:0:0:
64,192,100009,1,0,0:0:0:0:
192,192,100009,1,4,0:0:0:0:
448,192,100366,1,0,0:0:0:0:
320,192,100366,1,4,0:0:0:0:
64,192,100723,1,0,0:0:0:0:
192,192,100723,1,4,0:0:0:0:
320,192,101080,1,4,0:0:0:0:
448,192,101080,1,0,0:0:0:0:
448,192,102509,1,0,0:0:0:0:
64,192,102687,1,0,0:0:0:0:
448,192,102866,1,0,0:0:0:0:
64,192,103223,1,0,0:0:0:0:
448,192,103402,1,0,0:0:0:0:
64,192,103580,1,0,0:0:0:0:
448,192,103937,1,0,0:0:0:0:
64,192,104116,1,0,0:0:0:0:
448,192,104294,1,0,0:0:0:0:
64,192,104473,1,0,0:0:0:0:
320,192,104652,1,0,0:0:0:0:
64,192,105366,1,0,0:0:0:0:
192,192,105544,1,0,0:0:0:0:
448,192,105723,1,0,0:0:0:0:
64,192,106080,1,0,0:0:0:0:
320,192,106259,1,0,0:0:0:0:
448,192,106437,1,0,0:0:0:0:
320,192,106794,1,0,0:0:0:0:
64,192,106973,1,0,0:0:0:0:
448,192,107152,1,0,0:0:0:0:
192,192,107330,1,0,0:0:0:0:
320,192,107509,1,0,0:0:0:0:
448,192,108223,1,0,0:0:0:0:
192,192,108401,1,0,0:0:0:0:
448,192,108580,1,0,0:0:0:0:
64,192,108937,1,0,0:0:0:0:
320,192,109116,1,0,0:0:0:0:
64,192,109294,1,0,0:0:0:0:
448,192,109651,1,0,0:0:0:0:
64,192,109830,1,0,0:0:0:0:
448,192,110009,1,0,0:0:0:0:
192,192,110187,1,0,0:0:0:0:
320,192,110366,1,0,0:0:0:0:
64,192,111080,1,0,0:0:0:0:
192,192,111259,1,0,0:0:0:0:
320,192,111437,1,0,0:0:0:0:
64,192,111794,1,0,0:0:0:0:
320,192,111973,1,0,0:0:0:0:
448,192,112151,1,0,0:0:0:0:
64,192,112509,1,0,0:0:0:0:
192,192,112687,1,0,0:0:0:0:
448,192,112866,1,0,0:0:0:0:
192,192,113044,1,0,0:0:0:0:
448,192,113223,1,0,0:0:0:0:
448,192,113401,1,0,0:0:0:0:
448,192,113580,1,0,0:0:0:0:
448,192,113759,1,0,0:0:0:0:
64,192,113937,1,0,0:0:0:0:
320,192,114116,1,0,0:0:0:0:
64,192,114294,1,0,0:0:0:0:
320,192,114473,1,0,0:0:0:0:
448,192,114652,1,0,0:0:0:0:
448,192,115009,1,0,0:0:0:0:
64,192,115366,1,0,0:0:0:0:
320,192,115544,1,0,0:0:0:0:
64,192,115723,1,0,0:0:0:0:
320,192,115902,1,0,0:0:0:0:
448,192,116080,1,0,0:0:0:0:
448,192,116437,1,0,0:0:0:0:
64,192,116794,1,0,0:0:0:0:
192,192,116973,1,0,0:0:0:0:
64,192,117152,1,0,0:0:0:0:
192,192,117330,1,0,0:0:0:0:
448,192,117509,1,0,0:0:0:0:
448,192,117866,1,0,0:0:0:0:
64,192,118223,1,0,0:0:0:0:
192,192,118402,1,0,0:0:0:0:
64,192,118580,1,0,0:0:0:0:
192,192,118759,1,0,0:0:0:0:
320,192,118937,1,0,0:0:0:0:
448,192,118937,1,0,0:0:0:0:
192,192,119294,1,0,0:0:0:0:
64,192,119294,1,0,0:0:0:0:
448,192,119651,1,0,0:0:0:0:
192,192,119830,1,0,0:0:0:0:
448,192,120009,1,0,0:0:0:0:
192,192,120187,1,0,0:0:0:0:
64,192,120366,1,0,0:0:0:0:
64,192,120723,1,0,0:0:0:0:
448,192,121080,1,0,0:0:0:0:
192,192,121259,1,0,0:0:0:0:
448,192,121437,1,0,0:0:0:0:
192,192,121616,1,0,0:0:0:0:
64,192,121794,1,0,0:0:0:0:
64,192,122151,1,0,0:0:0:0:
448,192,122509,1,0,0:0:0:0:
320,192,122687,1,0,0:0:0:0:
448,192,122866,1,0,0:0:0:0:
320,192,123044,1,0,0:0:0:0:
192,192,123223,1,0,0:0:0:0:
192,192,123580,1,0,0:0:0:0:
448,192,123937,1,0,0:0:0:0:
192,192,124116,1,0,0:0:0:0:
448,192,124294,1,0,0:0:0:0:
192,192,124473,1,0,0:0:0:0:
448,192,124651,1,0,0:0:0:0:
64,192,124651,1,4,0:0:0:0:
192,192,125009,1,4,0:0:0:0:
320,192,125009,1,0,0:0:0:0:
