osu file format v12

[General]
AudioFilename: Lenka - The Show.mp3
AudioLeadIn: 0
PreviewTime: 47949
Countdown: 0
SampleSet: Soft
StackLeniency: 0.7
Mode: 0
LetterboxInBreaks: 0
WidescreenStoryboard: 0

[Editor]
DistanceSpacing: 0.8
BeatDivisor: 3
GridSize: 4

[Metadata]
Title:The Show
TitleUnicode:The Show
Artist:Lenka
ArtistUnicode:Lenka
Creator:-Bakari-
Version:Normal
Source:
Tags:indie Kripac
BeatmapID:317469
BeatmapSetID:124550

[Difficulty]
HPDrainRate:4
CircleSize:4
OverallDifficulty:4
ApproachRate:5
SliderMultiplier:1.3
SliderTickRate:1

[Events]
//Background and Video events
0,0,"artworks-000040713282-d0hh3w-original.jpg",0,0
//Break Periods
//Storyboard Layer 0 (Background)
//Storyboard Layer 1 (Fail)
//Storyboard Layer 2 (Pass)
//Storyboard Layer 3 (Foreground)
//Storyboard Sound Samples
//Background Colour Transformations
3,100,163,162,255

[TimingPoints]
1120,487.80487804878,4,2,1,40,1,0
21607,-100,4,2,1,40,0,0
28274,-100,4,2,1,40,0,0
47949,-100,4,2,1,55,0,1
55754,-100,4,2,1,55,0,0
61607,-100,4,2,1,45,0,0
63559,-100,4,2,1,55,0,1
71363,-100,4,2,1,55,0,0
83071,-100,4,2,1,45,0,0
90225,-100,4,2,1,45,0,0
110388,-100,4,2,1,55,0,1
110550,-100,4,2,1,35,0,0

[Colours]
Combo1 : 108,131,236
Combo2 : 214,206,163
Combo3 : 155,219,227
Combo4 : 239,122,125

[HitObjects]
156,292,1120,2,0,P|136:244|172:164,1,130,0|2,0:0|0:0,0:0:0:0:
272,140,2095,1,0,0:0:0:0:
324,196,2420,2,0,P|352:200|380:192,1,43.3333333333333,0|2,0:0|0:0,0:0:0:0:
480,168,3071,2,0,P|512:196|500:276,1,130,0|2,0:0|0:0,0:0:0:0:
400,336,4046,2,0,P|332:344|272:332,1,130,0|2,0:0|0:0,0:0:0:0:
212,284,4859,6,0,P|188:280|156:284,1,43.3333333333333,0|0,0:0|0:0,0:0:0:0:
64,332,5510,1,2,0:0:0:0:
12,276,5835,2,0,P|8:252|16:224,1,43.3333333333333,0|0,0:0|0:0,0:0:0:0:
52,124,6485,1,2,0:0:0:0:
116,168,6811,6,0,P|140:172|164:164,1,43.3333333333333,0|0,0:0|0:0,0:0:0:0:
264,112,7461,2,0,P|324:100|404:116,2,130,2|0|2,0:0|0:0|0:0,0:0:0:0:
228,184,8762,2,0,L|232:236,1,43.3333333333333,0|0,0:0|0:0,0:0:0:0:
276,336,9412,1,2,0:0:0:0:
164,304,9900,2,0,L|32:292,1,130,0|2,0:0|0:0,0:0:0:0:
108,200,10876,6,0,L|120:68,1,130,0|2,0:0|0:0,0:0:0:0:
216,4,11851,1,0,0:0:0:0:
272,56,12176,2,0,P|296:64|324:60,1,43.3333333333333,0|2,0:0|0:0,0:0:0:0:
424,20,12827,2,0,L|436:160,1,130,0|2,0:0|0:0,0:0:0:0:
452,224,13640,2,0,L|404:220,1,43.3333333333333,0|0,0:0|0:0,0:0:0:0:
304,276,14290,1,2,0:0:0:0:
196,324,14778,6,0,P|168:328|88:264,1,130,0|2,0:0|0:0,0:0:0:0:
108,156,15754,1,0,0:0:0:0:
208,220,16241,2,0,P|264:228|344:200,2,130,2|0|2,0:0|0:0|0:0,0:0:0:0:
180,104,17705,5,0,0:0:0:0:
76,156,18193,1,2,0:0:0:0:
140,252,18680,2,0,L|152:384,2,130,2|2|2,0:0|0:0|0:0,0:0:0:0:
244,196,20144,1,2,0:0:0:0:
348,140,20632,2,0,L|328:0,1,130,2|0,0:3|0:0,0:0:0:0:
264,108,21607,6,0,P|264:160|328:224,1,130,0|0,0:0|0:0,0:0:0:0:
424,252,22583,2,0,P|444:280|404:380,1,130,2|0,0:0|0:0,0:0:0:0:
308,356,23559,1,0,0:0:0:0:
192,364,24046,1,0,0:0:0:0:
128,320,24372,2,0,L|80:316,1,43.3333333333333,0|2,0:0|0:3,0:0:0:0:
192,108,25510,6,0,L|328:116,1,130,0|0,0:0|0:0,0:0:0:0:
420,56,26485,1,2,0:0:0:0:
412,172,26973,2,0,P|412:228|368:292,2,130,0|0|0,0:0|0:0|0:0,0:0:0:0:
340,148,28274,6,0,L|284:152,1,43.3333333333333,2|8,0:0|0:0,0:0:0:0:
200,84,28924,1,8,0:0:0:0:
156,148,29250,2,0,L|148:196,1,43.3333333333333,0|0,0:0|0:0,0:0:0:0:
184,304,29900,1,2,0:0:0:0:
300,332,30388,2,0,P|336:324|376:240,1,130,2|8,0:0|0:0,0:0:0:0:
324,192,31201,6,0,L|328:132,1,43.3333333333333,0|0,0:0|0:0,0:0:0:0:
388,48,31851,1,2,0:0:0:0:
272,64,32339,2,0,L|144:84,1,130,2|8,0:0|0:0,0:0:0:0:
28,68,33315,1,0,0:0:0:0:
72,176,33802,1,2,0:0:0:0:
44,248,34128,6,0,P|40:268|48:300,1,43.3333333333333,2|8,0:0|0:0,0:0:0:0:
144,352,34778,1,8,0:0:0:0:
248,288,35266,1,0,0:0:0:0:
364,308,35754,1,8,0:0:0:0:
464,248,36241,6,0,P|480:200|452:116,1,130,2|8,0:0|0:0,0:0:0:0:
376,44,37217,1,2,0:0:0:0:
292,124,37705,2,0,P|224:140|160:120,2,130,8|0|8,0:0|0:0|0:0,0:0:0:0:
396,180,39168,2,0,L|388:320,1,130,0|8,0:0|0:0,0:0:0:0:
316,336,39981,6,0,L|268:332,1,43.3333333333333,0|2,0:0|0:0,0:0:0:0:
160,364,40632,1,8,0:0:0:0:
120,256,41119,1,0,0:0:0:0:
164,192,41445,2,0,P|168:168|164:144,1,43.3333333333333,0|8,0:0|0:0,0:0:0:0:
140,36,42095,2,0,P|184:52|276:40,1,130,2|8,0:0|0:0,0:0:0:0:
376,8,43071,1,0,0:0:0:0:
420,72,43396,6,0,L|412:120,1,43.3333333333333,0|8,0:0|0:0,0:0:0:0:
348,160,43884,2,0,L|360:204,1,43.3333333333333,0|4,0:0|0:0,0:0:0:0:
400,312,44534,1,8,0:0:0:0:
288,348,45022,1,0,0:0:0:0:
300,232,45510,6,0,P|280:172|224:136,1,130,8|0,0:0|0:0,0:0:0:0:
144,52,46485,1,8,0:0:0:0:
64,136,46973,2,0,P|20:168|0:248,1,130,8|8,3:0|0:0,0:0:0:0:
68,316,47949,5,4,0:0:0:0:
140,240,48437,2,0,P|180:228|272:232,2,130,8|0|8,0:0|0:0|0:0,0:0:0:0:
56,176,49900,1,0,0:0:0:0:
40,280,50388,1,8,0:0:0:0:
128,340,50876,2,0,P|168:352|264:344,1,130,0|8,0:0|0:0,0:0:0:0:
328,272,51851,6,0,L|304:136,1,130,0|8,0:0|0:0,0:0:0:0:
340,84,52664,2,0,L|344:36,1,43.3333333333333,0|0,0:0|0:0,0:0:0:0:
244,8,53315,1,8,0:0:0:0:
204,64,53640,2,0,L|212:120,1,43.3333333333333,0|0,0:0|0:0,0:0:0:0:
152,192,54290,1,8,0:0:0:0:
220,272,54778,2,0,P|264:292|352:280,1,130,0|8,0:0|0:0,0:0:0:0:
376,212,55591,6,0,L|372:164,1,43.3333333333333,0|0,0:0|0:0,0:0:0:0:
428,68,56241,2,0,L|288:56,1,130,8|0,0:0|0:0,0:0:0:0:
264,128,57054,2,0,L|220:136,1,43.3333333333333,2|8,0:0|0:0,0:0:0:0:
156,96,57542,2,0,L|112:92,1,43.3333333333333,0|0,0:0|0:0,0:0:0:0:
16,160,58193,1,8,0:0:0:0:
56,268,58680,2,0,P|96:300|180:300,1,130,0|8,0:0|0:0,0:0:0:0:
244,276,59493,6,0,P|268:272|292:272,1,43.3333333333333,0|0,0:0|0:0,0:0:0:0:
392,324,60144,1,8,0:0:0:0:
436,260,60469,2,0,L|440:212,1,43.3333333333333,0|0,0:0|0:0,0:0:0:0:
460,100,61119,1,8,0:0:0:0:
348,128,61607,6,0,L|212:124,2,130,2|2|2,0:0|0:0|0:0,0:0:0:0:
396,188,62908,2,0,L|392:240,1,43.3333333333333,2|6,0:0|0:0,0:0:0:0:
340,336,63559,6,0,P|296:344|212:296,1,130,4|8,0:0|0:0,0:0:0:0:
252,196,64534,2,0,P|216:212|124:176,1,130,0|8,0:0|0:0,0:0:0:0:
76,84,65510,1,2,0:0:0:0:
24,188,65998,2,0,L|36:328,2,130,8|0|8,0:0|0:0|0:0,0:0:0:0:
88,144,67298,6,0,L|136:152,1,43.3333333333333,0|2,0:0|0:0,0:0:0:0:
224,80,67949,1,8,0:0:0:0:
280,136,68274,2,0,P|304:140|332:136,1,43.3333333333333,0|0,0:0|0:0,0:0:0:0:
420,76,68924,1,8,0:0:0:0:
420,192,69412,2,0,L|424:324,2,130,2|8|0,0:0|0:0|0:0,0:0:0:0:
304,176,70876,1,8,0:0:0:0:
232,204,71201,6,0,P|208:208|176:200,1,43.3333333333333,0|2,0:0|0:0,0:0:0:0:
72,216,71851,2,0,L|84:80,2,130,4|0|8,0:0|0:0|0:0,0:0:0:0:
124,272,73152,2,0,L|176:268,1,43.3333333333333,0|2,0:0|0:0,0:0:0:0:
276,308,73802,1,8,0:0:0:0:
328,248,74128,2,0,L|372:244,1,43.3333333333333,0|0,0:0|0:0,0:0:0:0:
480,196,74778,6,0,P|496:152|468:72,2,130,8|0|8,0:0|0:0|0:0,0:0:0:0:
420,248,76079,2,0,L|424:296,1,43.3333333333333,0|0,0:0|0:0,0:0:0:0:
336,372,76729,1,8,0:0:0:0:
232,316,77217,2,0,P|192:304|104:336,2,130,0|8|0,0:0|0:0|0:0,0:0:0:0:
308,300,78518,2,0,L|332:252,1,43.3333333333333,0|2,0:0|0:0,0:0:0:0:
332,184,79006,2,0,L|312:136,1,43.3333333333333,0|0,0:0|0:0,0:0:0:0:
252,44,79656,2,0,L|381:51,2,130,0|0|0,0:0|0:0|0:0,0:0:0:0:
160,116,81119,5,4,0:0:0:0:
108,176,81445,2,0,L|112:232,1,43.3333333333333,0|0,0:0|0:0,0:0:0:0:
72,328,82095,1,0,0:0:0:0:
188,352,82583,1,0,0:0:0:0:
280,280,83071,6,0,P|300:224|272:156,1,130,2|8,0:0|0:0,0:0:0:0:
200,72,84046,1,0,0:0:0:0:
316,64,84534,2,0,L|448:72,2,130,0|8|8,0:0|0:0|0:0,0:0:0:0:
212,116,85998,2,0,P|192:180|224:248,1,130,0|2,0:0|0:0,0:0:0:0:
280,276,86811,2,0,L|328:292,1,43.3333333333333,0|8,0:0|0:0,0:0:0:0:
420,228,87461,5,8,0:0:0:0:
448,156,87786,2,0,L|456:104,1,43.3333333333333,0|0,0:0|0:0,0:0:0:0:
408,48,88274,2,0,L|364:24,1,43.3333333333333,0|0,0:0|0:0,0:0:0:0:
264,80,88924,6,0,L|124:68,1,130,2|8,0:0|0:0,0:0:0:0:
56,56,89737,2,0,L|60:112,1,43.3333333333333,0|0,0:0|0:0,0:0:0:0:
96,168,90225,2,0,L|88:212,1,43.3333333333333,4|0,0:0|0:0,0:0:0:0:
48,276,90713,2,0,L|56:324,1,43.3333333333333,8|2,0:0|0:0,0:0:0:0:
168,352,91363,1,8,0:0:0:0:
284,372,91851,2,0,P|344:364|388:308,1,130,0|8,0:0|0:0,0:0:0:0:
356,200,92827,6,0,L|368:60,2,130,0|8|2,0:0|0:0|0:0,0:0:0:0:
284,292,94290,1,8,0:0:0:0:
216,252,94615,2,0,L|168:248,1,43.3333333333333,0|0,0:0|0:0,0:0:0:0:
68,300,95266,1,10,0:0:0:0:
36,188,95754,2,0,P|32:144|84:76,1,130,2|10,0:0|0:0,0:0:0:0:
148,120,96567,6,0,L|192:128,1,43.3333333333333,0|2,0:0|0:0,0:0:0:0:
272,44,97217,1,8,0:0:0:0:
380,88,97705,1,2,0:0:0:0:
348,200,98193,1,10,0:0:0:0:
256,272,98680,6,0,P|204:268|148:204,1,130,4|8,0:0|0:0,0:0:0:0:
168,100,99656,1,0,0:0:0:0:
96,128,99981,2,0,L|40:124,1,43.3333333333333,0|8,0:0|0:0,0:0:0:0:
4,188,100469,2,0,L|8:244,1,43.3333333333333,0|0,0:0|0:0,0:0:0:0:
80,324,101119,1,8,0:0:0:0:
176,260,101607,2,0,P|232:236|308:268,1,130,0|8,0:0|0:0,0:0:0:0:
368,348,102583,6,0,P|312:372|236:340,2,130,2|8|0,0:0|0:0|0:0,0:0:0:0:
384,272,103884,2,0,L|376:220,1,43.3333333333333,0|8,0:0|0:0,0:0:0:0:
380,112,104534,1,2,0:0:0:0:
268,148,105022,1,8,0:0:0:0:
172,80,105510,1,2,0:0:0:0:
72,140,105998,1,8,0:0:0:0:
256,192,106485,12,4,110388,0:0:0:0:
