osu file format v12

[General]
AudioFilename: Lenka - The Show.mp3
AudioLeadIn: 0
PreviewTime: 47949
Countdown: 0
SampleSet: Soft
StackLeniency: 0.7
Mode: 0
LetterboxInBreaks: 0
WidescreenStoryboard: 0

[Editor]
DistanceSpacing: 0.8
BeatDivisor: 3
GridSize: 4

[Metadata]
Title:The Show
TitleUnicode:The Show
Artist:Lenka
ArtistUnicode:Lenka
Creator:-Bakari-
Version:Hard
Source:
Tags:indie Kripac
BeatmapID:317447
BeatmapSetID:124550

[Difficulty]
HPDrainRate:7
CircleSize:4
OverallDifficulty:7
ApproachRate:8
SliderMultiplier:1.8
SliderTickRate:1

[Events]
//Background and Video events
0,0,"artworks-000040713282-d0hh3w-original.jpg",0,0
//Break Periods
//Storyboard Layer 0 (Background)
//Storyboard Layer 1 (Fail)
//Storyboard Layer 2 (Pass)
//Storyboard Layer 3 (Foreground)
//Storyboard Sound Samples
//Background Colour Transformations
3,100,163,162,255

[TimingPoints]
1120,487.80487804878,4,2,1,40,1,0
2746,-100,4,2,1,10,0,0
2908,-100,4,2,1,40,0,0
21607,-117.647058823529,4,2,1,40,0,0
28274,-100,4,2,1,40,0,0
47949,-100,4,2,1,55,0,1
55754,-100,4,2,1,55,0,0
61607,-100,4,2,1,45,0,0
63559,-100,4,2,1,55,0,1
71363,-100,4,2,1,55,0,0
83071,-117.647058823529,4,2,1,45,0,0
90225,-100,4,2,1,45,0,0
110388,-100,4,2,1,55,0,1
110550,-100,4,2,1,35,0,0

[Colours]
Combo1 : 108,131,236
Combo2 : 214,206,163
Combo3 : 155,219,227
Combo4 : 239,122,125

[HitObjects]
20,288,1120,1,2,0:0:0:0:
16,280,1607,2,0,P|56:236|124:236,1,120,2|0,0:0|0:0,0:0:0:0:
184,244,2095,2,0,P|224:248|284:196,1,120
332,148,2583,2,0,P|356:140|408:144,1,60,2|0,0:0|0:0,0:0:0:0:
320,264,3071,6,0,P|248:264|208:172,1,180,0|2,0:0|0:0,0:0:0:0:
216,160,4046,2,0,P|220:120|108:60,1,180,0|2,0:0|0:0,0:0:0:0:
140,272,5022,2,0,P|200:300|296:252,1,180,0|2,0:0|0:0,0:0:0:0:
364,124,5835,1,0,0:0:0:0:
420,172,5998,2,0,L|404:364,1,180,0|2,0:0|0:0,0:0:0:0:
280,380,6811,1,0,0:0:0:0:
220,340,6973,6,0,P|176:308|184:184,1,180,0|2,0:0|0:0,0:0:0:0:
248,68,7786,1,0,0:0:0:0:
196,116,7949,2,0,L|76:112,1,120
16,152,8437,1,2,0:0:0:0:
64,360,8924,5,0,0:0:0:0:
144,240,9412,1,2,0:0:0:0:
92,104,9900,2,0,P|136:80|208:96,1,120
264,132,10388,1,2,0:0:0:0:
408,124,10713,2,0,P|424:104|432:68,1,60
428,52,11363,5,2,0:0:0:0:
304,228,11851,2,0,P|352:248|420:240,1,120
444,172,12339,2,0,L|428:48,1,120,2|0,0:0|0:0,0:0:0:0:
432,44,12827,6,0,P|392:56|312:56,1,120
244,44,13315,2,0,P|176:40|120:48,1,120,2|0,0:0|0:0,0:0:0:0:
68,92,13802,1,0,0:0:0:0:
108,304,14290,1,2,0:0:0:0:
252,320,14615,1,0,0:0:0:0:
296,264,14778,6,0,L|264:148,1,120
276,76,15266,2,0,P|316:48|392:72,1,120,2|0,0:0|0:0,0:0:0:0:
440,104,15754,2,0,P|400:132|324:108,1,120
276,76,16241,6,0,P|224:56|148:64,1,120,2|0,0:0|0:0,0:0:0:0:
108,108,16729,2,0,P|84:164|120:284,2,180,0|2|0,0:0|0:0|0:0,0:0:0:0:
308,28,18193,5,2,0:0:0:0:
452,188,18680,1,2,0:0:0:0:
272,312,19168,1,2,0:0:0:0:
136,144,19656,1,2,0:0:0:0:
308,28,20144,1,2,0:0:0:0:
292,168,20632,5,2,0:3:0:0:
284,192,21607,6,0,L|168:184,1,102.000001945496
112,152,22095,1,0,0:0:0:0:
104,164,22583,2,0,L|120:328,2,153.000002918243,2|0|0,0:0|0:0|0:0,0:0:0:0:
184,36,24046,1,0,0:0:0:0:
272,88,24372,2,0,L|328:80,1,51.0000009727478,0|2,0:0|0:3,0:0:0:0:
268,120,25347,6,0,L|320:116,1,51.0000009727478
464,168,25998,1,0,0:0:0:0:
388,300,26485,5,2,0:0:0:0:
272,380,26973,1,0,0:0:0:0:
144,292,27461,1,0,0:0:0:0:
84,152,27949,1,0,0:0:0:0:
216,184,28274,6,0,P|236:156|240:120,1,60,2|8,0:0|0:0,0:0:0:0:
236,116,28924,1,8,0:0:0:0:
344,20,29250,5,0,0:0:0:0:
372,84,29412,2,0,P|408:120|484:108,1,120
436,52,29900,2,0,P|404:92|472:192,2,180,2|2|8,0:0|0:0|0:0,0:0:0:0:
328,148,31201,5,0,0:0:0:0:
280,200,31363,2,0,L|148:196,1,120
108,148,31851,1,2,0:0:0:0:
136,288,32176,1,0,0:0:0:0:
184,340,32339,6,0,P|232:352|284:308,1,120,2|0,0:0|0:0,0:0:0:0:
336,260,32827,2,0,P|400:252|432:204,1,120,8|0,0:0|0:0,0:0:0:0:
452,140,33315,2,0,P|396:144|356:204,1,120
336,260,33802,1,2,0:0:0:0:
212,332,34128,6,0,P|188:336|144:328,1,60,2|8,0:0|0:0,0:0:0:0:
304,176,34778,2,0,P|356:172|420:216,1,120,8|0,0:0|0:0,0:0:0:0:
336,260,35266,2,0,P|304:264|224:212,1,120
224,120,35754,2,0,P|188:156|112:148,1,120,8|0,0:0|0:0,0:0:0:0:
40,112,36241,6,0,L|64:296,1,180,2|8,0:0|0:0,0:0:0:0:
56,304,37217,2,0,P|104:296|176:304,1,120,2|0,0:0|0:0,0:0:0:0:
228,352,37705,1,8,0:0:0:0:
332,252,38030,2,0,P|340:224|336:188,1,60
168,60,38680,1,8,0:0:0:0:
72,256,39168,6,0,P|128:272|188:236,1,120,2|0,0:0|0:0,0:0:0:0:
208,180,39656,2,0,P|224:148|308:120,1,120,8|0,0:0|0:0,0:0:0:0:
368,132,40144,5,2,0:0:0:0:
392,152,40632,1,8,0:0:0:0:
420,180,41119,1,0,0:0:0:0:
380,320,41445,5,0,0:0:0:0:
316,348,41607,2,0,P|260:360|192:328,1,120,8|0,0:0|0:0,0:0:0:0:
168,276,42095,6,0,L|136:156,1,120,2|0,0:0|0:0,0:0:0:0:
236,200,42583,2,0,L|256:72,1,120,8|0,0:0|0:0,0:0:0:0:
336,152,43071,2,0,L|408:48,1,120
476,40,43559,1,8,0:0:0:0:
468,184,43884,5,0,0:0:0:0:
428,244,44046,2,0,P|392:272|248:252,2,180,4|8|0,0:0|0:0|0:0,0:0:0:0:
372,36,45510,1,8,0:0:0:0:
312,244,45998,5,0,0:0:0:0:
164,88,46485,1,8,0:0:0:0:
28,256,46973,2,8,P|20:276|28:316,2,60,8|8|0,3:0|3:0|0:0,3:0:0:0:
84,212,47461,2,8,P|92:188|88:152,2,60,8|0|0,0:0|0:0|0:0,3:0:0:0:
92,284,47949,6,0,L|216:272,1,120,4|0,0:0|0:0,0:0:0:0:
276,240,48437,2,0,L|400:252,1,120,8|0,0:0|0:0,0:0:0:0:
464,224,48924,2,0,P|492:184|476:108,1,120
416,84,49412,2,0,P|388:84|316:148,1,120,8|0,0:0|0:0,0:0:0:0:
376,232,49900,6,0,P|336:216|244:304,1,180,0|8,0:0|0:0,0:0:0:0:
104,336,50713,1,0,0:0:0:0:
72,272,50876,2,0,L|88:144,1,120
52,92,51363,1,8,0:0:0:0:
192,124,51689,1,0,0:0:0:0:
248,80,51851,6,0,P|292:68|364:88,1,120
392,160,52339,2,0,B|436:140|444:88|444:88|452:36|504:20,2,180,8|0|8,0:0|0:0|0:0,0:0:0:0:
256,112,53640,1,0,0:0:0:0:
284,180,53802,6,0,P|300:220|216:328,1,180,0|8,0:0|0:0,0:0:0:0:
88,312,54615,1,0,0:0:0:0:
124,248,54778,2,0,L|104:124,1,120
56,76,55266,2,0,P|104:56|168:88,1,120,8|0,0:0|0:0,0:0:0:0:
220,128,55754,6,0,P|272:136|344:100,1,120
392,72,56241,2,0,B|408:56|452:60|472:92|472:116|472:116|476:152|428:180|428:180|412:200|404:236|420:284,1,300,8|2,0:0|0:0,0:0:0:0:
432,352,57217,1,8,0:0:0:0:
300,296,57542,1,0,0:0:0:0:
236,328,57705,2,0,L|108:316,1,120
56,280,58193,6,0,P|32:240|56:168,1,120,8|0,0:0|0:0,0:0:0:0:
101,118,58680,2,0,P|125:158|101:230,1,120
51,174,59168,6,0,P|29:102|109:40,2,180,8|0|8,0:0|0:0|0:0,0:0:0:0:
196,156,60469,1,0,0:0:0:0:
256,116,60632,2,0,L|384:112,1,120
428,60,61119,1,8,0:0:0:0:
436,204,61445,6,2,L|448:276,1,60
392,180,61933,6,2,L|404:244,1,60
352,164,62420,6,2,L|364:228,1,60
308,144,62908,6,2,L|320:208,1,60,2|6,0:0|0:0,0:0:0:0:
200,240,63396,5,0,0:0:0:0:
152,292,63559,2,0,P|100:296|48:248,1,120,4|0,0:0|0:0,0:0:0:0:
56,184,64046,2,0,P|100:148|180:160,1,120,8|0,0:0|0:0,0:0:0:0:
224,180,64534,2,0,P|284:196|352:164,1,120
384,124,65022,6,0,L|372:0,1,120,8|0,0:0|0:0,0:0:0:0:
292,64,65510,2,0,L|156:52,1,120,2|0,0:0|0:0,0:0:0:0:
200,148,65998,2,0,L|168:264,1,120,8|0,0:0|0:0,0:0:0:0:
260,252,66485,2,0,L|368:316,1,120
432,288,66973,1,8,0:0:0:0:
492,156,67298,5,0,0:0:0:0:
440,108,67461,2,0,P|396:92|328:112,1,120,2|0,0:0|0:0,0:0:0:0:
268,152,67949,2,0,P|232:168|152:156,1,120,8|0,0:0|0:0,0:0:0:0:
108,104,68437,1,0,0:0:0:0:
204,296,68924,1,8,0:0:0:0:
344,256,69250,6,0,P|372:244|408:252,1,60,0|2,0:0|0:0,0:0:0:0:
256,244,69737,2,0,P|264:212|296:184,1,60,0|8,0:0|0:0,0:0:0:0:
168,284,70225,2,0,P|160:256|160:224,1,60
188,84,70713,1,0,0:0:0:0:
252,120,70876,2,0,P|304:132|376:108,1,120,8|0,0:0|0:0,0:0:0:0:
420,68,71363,5,2,0:0:0:0:
444,100,71851,1,4,0:0:0:0:
468,132,72339,2,0,P|480:192|456:244,1,120
400,288,72827,2,0,P|360:296|284:276,1,120,8|0,0:0|0:0,0:0:0:0:
208,196,73315,6,0,P|216:252|172:304,1,120,2|0,0:0|0:0,0:0:0:0:
112,324,73802,1,8,0:0:0:0:
28,208,74128,1,0,0:0:0:0:
92,176,74290,2,0,P|124:144|116:64,1,120
60,112,74778,2,0,P|104:144|172:128,1,120,8|0,0:0|0:0,0:0:0:0:
228,100,75266,6,0,P|268:80|352:88,1,120
408,108,75754,1,8,0:0:0:0:
500,220,76079,2,0,L|488:296,1,60
284,348,76729,1,8,0:0:0:0:
180,256,77054,5,0,0:0:0:0:
112,276,77217,2,0,P|64:248|52:176,1,120
100,136,77705,2,0,P|140:136|200:84,1,120,8|0,0:0|0:0,0:0:0:0:
248,32,78193,2,0,P|296:20|364:36,1,120
416,84,78680,1,2,0:0:0:0:
376,224,79006,1,0,0:0:0:0:
256,192,79168,12,4,81119,0:0:0:0:
148,48,83071,6,0,P|208:44|268:112,1,153.000002918243,2|8,0:0|0:0,0:0:0:0:
280,260,83884,1,0,0:0:0:0:
228,316,84046,2,0,P|184:332|124:308,1,102.000001945496
56,316,84534,2,0,L|48:200,1,102.000001945496
44,136,85022,5,2,0:0:0:0:
256,52,85510,1,8,0:0:0:0:
468,135,85998,2,0,P|506:167|516:216,1,102.000001945496
468,276,86485,1,2,0:0:0:0:
328,336,86811,2,0,L|264:328,1,51.0000009727478,0|2,0:0|0:0,0:0:0:0:
48,360,87461,5,8,0:0:0:0:
144,244,87786,1,0,0:0:0:0:
120,172,87949,2,0,P|116:144|152:84,1,102.000001945496
228,80,88437,1,0,0:0:0:0:
372,132,88762,1,0,3:0:0:0:
424,188,88924,6,0,P|428:248|356:324,1,153.000002918243,2|8,0:0|0:0,0:0:0:0:
220,348,89737,1,0,0:0:0:0:
164,300,89900,1,0,0:0:0:0:
168,288,90225,6,0,P|160:260|168:228,1,60,4|0,0:0|0:0,0:0:0:0:
300,172,90713,2,0,P|308:200|300:232,1,60,8|2,0:0|0:0,0:0:0:0:
136,92,91363,5,8,0:0:0:0:
264,24,91689,1,0,0:0:0:0:
328,56,91851,2,0,L|300:172,1,120
344,228,92339,2,0,L|364:352,1,120,8|0,0:0|0:0,0:0:0:0:
292,356,92827,6,0,P|244:340|112:352,2,180,0|8|2,0:0|0:0|0:0,0:0:0:0:
472,240,94290,1,8,0:0:0:0:
416,108,94615,2,0,L|368:64,1,60
376,48,95266,5,10,0:0:0:0:
340,260,95754,1,2,0:0:0:0:
164,140,96241,1,10,0:0:0:0:
296,80,96567,1,0,0:0:0:0:
304,152,96729,6,2,P|292:192|232:252,1,120,2|0,0:0|0:0,0:0:0:0:
168,264,97217,2,2,P|124:256|64:200,1,120,8|0,0:0|0:0,0:0:0:0:
52,136,97705,2,2,P|64:80|124:36,1,120,2|0,0:0|0:0,0:0:0:0:
180,28,98193,2,2,P|236:40|276:88,1,120,10|0,0:0|0:0,0:0:0:0:
296,156,98680,6,0,P|304:200|432:232,1,180,4|8,0:0|0:0,0:0:0:0:
412,252,99656,2,0,L|396:132,1,120
416,64,100144,1,8,0:0:0:0:
276,104,100469,2,0,L|208:100,1,60
204,92,101119,1,8,0:0:0:0:
68,136,101445,5,0,0:0:0:0:
56,208,101607,2,0,P|84:240|164:248,1,120
220,212,102095,2,0,L|204:84,1,120,8|0,0:0|0:0,0:0:0:0:
252,40,102583,6,0,P|310:42|376:144,2,180,2|8|0,0:0|0:0|0:0,0:0:0:0:
160,152,103884,1,0,0:0:0:0:
104,196,104046,2,0,P|84:216|100:304,1,120,8|0,0:0|0:0,0:0:0:0:
160,328,104534,6,0,L|344:316,2,180,2|8|2,0:0|0:0|0:0,0:0:0:0:
92,200,105835,1,0,0:0:0:0:
140,144,105998,2,0,L|268:156,1,120,8|0,0:0|0:0,0:0:0:0:
256,192,106485,12,4,110388,0:0:0:0:
