osu file format v13

[General]
AudioFilename: 02 - Heart Skips A Beat.mp3
AudioLeadIn: 0
PreviewTime: 93501
Countdown: 0
SampleSet: Soft
StackLeniency: 0.7
Mode: 0
LetterboxInBreaks: 0
WidescreenStoryboard: 0

[Editor]
Bookmarks: 33595,198595
DistanceSpacing: 1
BeatDivisor: 4
GridSize: 4
TimelineZoom: 1

[Metadata]
Title:Heart Skips a Beat
TitleUnicode:Heart Skips a Beat
Artist:Lenka
ArtistUnicode:Lenka
Creator:Pappy
Version:Normal
Source:
Tags:Kripac Two
BeatmapID:455438
BeatmapSetID:191306

[Difficulty]
HPDrainRate:3
CircleSize:3
OverallDifficulty:3.6
ApproachRate:4
SliderMultiplier:1
SliderTickRate:1

[Events]
//Background and Video events
0,0,"BG.jpg",0,0
//Break Periods
2,33795,38095
2,87795,92095
2,117795,122095
2,141795,146095
//Storyboard Layer 0 (Background)
//Storyboard Layer 1 (Fail)
//Storyboard Layer 2 (Pass)
//Storyboard Layer 3 (Foreground)
//Storyboard Sound Samples
//Background Colour Transformations
3,100,163,162,255

[TimingPoints]
9595,375,4,2,1,5,1,0
9595,-100,4,2,2,65,0,0
9782,-100,4,2,1,65,0,0
33595,-100,4,2,2,15,0,0
33782,-100,4,2,1,15,0,0
39595,-100,4,2,1,80,0,1
63595,-100,4,2,2,65,0,0
63782,-100,4,2,1,65,0,0
87595,-100,4,2,2,65,0,0
87782,-100,4,2,1,65,0,0
93595,-100,4,2,1,80,0,1
105501,-100,4,2,1,75,0,0
105595,-100,4,2,1,80,0,1
117595,-100,4,2,1,70,0,0
123595,-100,4,2,2,70,0,0
123782,-100,4,2,1,70,0,0
141595,-100,4,2,2,70,0,0
141782,-100,4,2,1,70,0,0
147595,-100,4,2,1,80,0,1
171501,-100,4,2,1,60,0,0
171595,-100,4,2,1,80,0,1
189595,-100,4,2,1,75,0,0
195595,-100,4,2,1,35,0,0

[Colours]
Combo1 : 163,175,75
Combo2 : 83,160,198
Combo3 : 140,190,116
Combo4 : 140,141,124
SliderBorder : 150,150,150

[HitObjects]
256,192,6595,12,0,8095,0:0:0:0:
88,104,9595,6,0,L|296:104,1,200,2|0,0:0|0:0,0:0:0:0:
356,176,10720,1,8,0:0:0:0:
300,260,11095,2,0,B|351:289|406:263|406:263|440:288,2,150,2|0|8,0:0|0:0|0:0,0:0:0:0:
264,292,12407,1,0,0:0:0:0:
216,296,12595,5,2,0:0:0:0:
208,196,12970,2,0,P|108:148|104:148,1,100,8|0,0:0|0:0,0:0:0:0:
36,192,13720,1,8,0:0:0:0:
36,92,14095,2,0,B|64:52|112:48|112:48|172:32|172:32,2,150,2|0|8,0:0|0:0|0:0,0:0:0:0:
120,148,15595,6,0,P|216:172|316:148,1,200,2|0,0:0|0:0,0:0:0:0:
408,120,16720,1,8,0:0:0:0:
380,320,17470,1,8,0:0:0:0:
240,268,18032,2,0,P|216:284|184:288,1,50,0|8,0:0|0:0,0:0:0:0:
168,196,18595,6,0,P|222:169|275:177,1,100,2|8,0:0|0:0,0:0:0:0:
296,80,19345,1,0,0:0:0:0:
388,120,19720,2,0,B|412:156|400:208|400:208|396:280|454:316,1,200,8|8,0:0|0:0,0:0:0:0:
496,224,20845,2,0,L|496:116,1,100,0|8,0:0|0:0,0:0:0:0:
492,76,21407,1,0,0:0:0:0:
504,28,21595,6,0,B|443:5|408:32|408:32|368:8|308:24,1,200,2|0,0:0|0:0,0:0:0:0:
220,60,22720,1,8,0:0:0:0:
124,36,23095,2,0,B|68:44|48:92|48:92|56:144,2,150,2|0|8,0:0|0:0|0:0,0:0:0:0:
220,60,24595,6,0,P|272:120|296:128,1,100,0|8,0:0|0:0,0:0:0:0:
384,92,25345,2,0,B|392:212,1,100,0|8,0:0|0:0,0:0:0:0:
480,240,26095,2,0,P|412:292|340:280,2,150,2|0|8,0:0|0:0|0:0,0:0:0:0:
508,144,27595,5,2,0:0:0:0:
432,80,27970,1,8,0:0:0:0:
332,64,28345,1,0,0:0:0:0:
236,84,28720,2,0,L|132:84,1,100,8|2,0:0|0:0,0:0:0:0:
64,156,29470,2,0,P|52:212|74:254,1,100,8|0,0:0|0:0,0:0:0:0:
164,236,30220,1,8,0:0:0:0:
164,236,30407,1,0,0:0:0:0:
164,236,30595,6,0,P|208:276|344:264,1,200,2|2,0:0|0:0,0:0:0:0:
384,176,31720,1,8,0:0:0:0:
308,108,32095,2,0,L|212:78,1,100,2|8,0:0|0:0,0:0:0:0:
192,176,32845,2,0,L|288:206,1,100,0|8,0:3|0:0,0:0:0:0:
336,216,33407,1,0,0:0:0:0:
336,216,33595,5,2,0:0:0:0:
396,144,39595,6,0,P|454:153|493:139,1,100,4|8,0:0|0:0,0:0:0:0:
440,52,40345,1,0,0:0:0:0:
340,48,40720,1,8,0:0:0:0:
288,136,41095,2,0,P|316:224|420:248,2,200,2|2|2,0:0|0:0|0:0,0:0:0:0:
204,80,42970,6,0,P|153:66|95:86,2,100,8|0|8,0:0|0:0|0:0,0:0:0:0:
156,168,44095,2,0,L|156:280,1,100,2|8,0:0|0:0,0:0:0:0:
184,308,44657,2,0,P|228:336|276:336,1,100,2|2,0:0|0:0,0:0:0:0:
352,276,45407,1,2,0:0:0:0:
352,276,45595,6,0,L|352:176,1,100,4|8,0:0|0:0,0:0:0:0:
396,80,46345,1,2,0:0:0:0:
464,152,46720,1,8,0:0:0:0:
396,80,47095,2,0,P|323:80|267:140,2,150,0|0|8,0:0|0:0|0:0,0:0:0:0:
480,136,48595,6,0,L|456:344,1,200,2|0,0:0|0:0,0:0:0:0:
364,300,49720,1,8,0:0:0:0:
312,212,50095,2,0,B|256:244|260:312|260:312|272:356,2,150,2|2|8,0:0|0:0|0:0,0:0:0:0:
356,188,51407,1,0,0:0:0:0:
380,144,51595,6,0,P|339:114|288:116,1,100,4|8,0:0|0:0,0:0:0:0:
220,184,52345,2,0,P|170:182|128:155,1,100,0|8,0:0|0:0,0:0:0:0:
124,56,53095,1,2,0:0:0:0:
224,52,53470,1,8,0:0:0:0:
304,112,53845,1,0,0:0:0:0:
404,128,54220,1,8,0:0:0:0:
368,36,54595,6,0,L|468:20|468:20,1,100,2|8,0:0|0:0,0:0:0:0:
500,116,55345,1,2,0:0:0:0:
460,208,55720,1,8,0:0:0:0:
404,128,56095,2,0,P|360:204|392:272,2,150,2|0|8,0:0|0:0|0:0,0:0:0:0:
328,56,57595,6,0,P|256:116|184:56,2,200,6|2|2,0:0|0:0|0:0,0:0:0:0:
428,68,59470,2,0,P|468:112|472:156,1,100,8|0,0:0|0:0,0:0:0:0:
396,216,60220,1,8,0:0:0:0:
296,224,60595,6,0,P|240:268|112:248,1,200,2|2,0:0|0:0,0:0:0:0:
128,152,61720,1,8,0:0:0:0:
176,156,61907,1,0,0:0:0:0:
228,156,62095,2,0,L|212:56,1,100,2|8,0:0|0:0,0:0:0:0:
304,8,62845,1,2,0:0:0:0:
368,88,63220,1,8,0:0:0:0:
464,56,63595,6,0,P|469:112|445:154,1,100,2|8,0:0|0:0,0:0:0:0:
356,188,64345,2,0,P|334:279|409:348,2,200,2|0|0,0:0|0:0|0:0,0:0:0:0:
256,172,66220,1,10,0:0:0:0:
156,188,66595,6,0,P|178:279|103:348,1,200,0|2,0:0|0:0,0:0:0:0:
84,252,67720,2,0,P|40:276|14:330,2,100,8|0|8,0:0|0:0|0:0,0:0:0:0:
96,204,68657,2,0,L|152:120|152:120,1,100,0|0,0:0|0:0,0:0:0:0:
184,80,69220,1,8,0:0:0:0:
268,24,69595,6,0,P|240:112|316:180,1,200,2|0,0:0|0:0,0:0:0:0:
280,276,70720,1,8,0:0:0:0:
112,192,71470,1,8,0:0:0:0:
172,272,71845,1,0,0:0:0:0:
72,284,72220,6,0,P|31:254|13:206,2,100,8|2|8,0:0|0:0|0:0,0:0:0:0:
172,272,73345,1,0,0:0:0:0:
112,192,73720,2,0,B|193:147|251:213|251:213|296:204,1,200,8|8,0:0|0:0,0:0:0:0:
392,228,74845,2,0,L|428:276,2,50,0|0|8,0:0|0:0|0:0,0:0:0:0:
376,128,75595,6,0,P|328:96|280:96,1,100,2|8,0:0|0:0,0:0:0:0:
212,164,76345,2,0,L|44:120,2,150,2|0|8,0:0|0:0|0:0,0:0:0:0:
268,248,77845,1,2,0:0:0:0:
316,252,78032,1,0,0:0:0:0:
368,252,78220,1,10,0:0:0:0:
460,208,78595,6,0,B|488:280|436:328|436:328|360:348,2,200,0|0|2,0:0|0:0|0:0,0:0:0:0:
376,156,80470,2,0,P|324:116|308:68,2,100,8|0|8,0:0|0:0|0:0,0:0:0:0:
452,88,81595,6,0,P|477:177|398:257,1,200,2|0,0:0|0:0,0:0:0:0:
316,224,82720,1,8,0:0:0:0:
240,160,83095,2,0,P|212:116|180:80,1,100,2|8,0:0|0:0,0:0:0:0:
132,84,83657,2,0,P|107:130|92:175,1,100,2|0,0:0|0:0,0:0:0:0:
96,224,84220,1,8,0:0:0:0:
44,308,84595,6,0,B|100:340|164:304|164:304|196:336|248:336,2,200,0|0|2,0:0|0:0|0:0,0:0:0:0:
104,228,86470,1,8,0:0:0:0:
20,172,86845,2,0,P|58:138|116:132,1,100,2|8,0:0|0:0,0:0:0:0:
192,180,87595,5,2,0:0:0:0:
268,80,93595,6,0,P|320:68|369:88,1,100,4|8,0:0|0:0,0:0:0:0:
412,160,94345,1,0,0:0:0:0:
312,168,94720,1,8,0:0:0:0:
280,264,95096,2,0,P|299:309|292:358,2,100,2|8|0,0:0|0:0|0:0,0:0:0:0:
312,168,96220,6,0,L|208:176,1,100,8|2,0:0|0:0,0:0:0:0:
164,88,96970,2,0,P|112:168|152:256,2,200,8|8|8,0:0|0:0|0:0,0:0:0:0:
256,52,98845,1,0,0:0:0:0:
300,140,99220,1,10,0:0:0:0:
400,152,99595,6,0,B|412:184|396:216|396:216|448:268|436:336|400:352,1,200,4|0,0:0|0:0,0:0:0:0:
323,296,100720,2,0,P|291:236|303:188,2,100,8|0|10,0:0|0:0|0:0,0:0:0:0:
236,340,101845,1,2,0:0:0:0:
144,296,102220,1,10,0:0:0:0:
44,316,102595,6,0,L|28:160,2,150,0|0|8,0:0|0:0|0:0,0:0:0:0:
144,296,104095,2,0,P|192:248|216:200,1,100,2|8,0:0|0:0,0:0:0:0:
188,176,104657,2,0,P|255:176|306:159,1,100,2|2,0:0|0:0,0:0:0:0:
360,100,105407,1,2,0:0:0:0:
360,100,105595,6,0,P|400:164|328:260,1,200,4|0,0:0|0:0,0:0:0:0:
248,212,106720,1,8,0:0:0:0:
252,312,107095,2,0,P|208:344|152:348,2,100,0|8|0,0:0|0:0|0:0,0:0:0:0:
336,256,108220,1,8,0:0:0:0:
244,212,108595,6,0,P|324:152|416:188,2,200,0|0|2,0:0|0:0|0:0,0:0:0:0:
176,276,110470,1,8,0:0:0:0:
128,284,110657,1,0,0:0:0:0:
88,256,110845,2,0,L|24:164,1,100,0|8,0:0|0:0,0:0:0:0:
68,80,111595,6,0,P|124:60|180:72,1,100,4|8,0:0|0:0,0:0:0:0:
220,148,112345,2,0,P|248:208|296:232,1,100,0|8,0:0|0:0,0:0:0:0:
372,196,113095,1,0,0:0:0:0:
440,268,113470,2,0,L|460:320,2,50,8|0|0,0:0|0:0|0:0,0:0:0:0:
468,172,114220,1,8,0:0:0:0:
404,96,114595,6,0,P|356:72|304:68,1,100,0|8,0:0|0:0,0:0:0:0:
260,152,115345,2,0,P|243:202|209:242,1,100,0|8,0:0|0:0,0:0:0:0:
128,184,116095,1,2,0:0:0:0:
176,96,116470,2,0,P|224:56|264:52,1,100,8|0,0:0|0:0,0:0:0:0:
348,96,117220,1,8,0:0:0:0:
360,196,117595,5,4,0:0:0:0:
96,84,123595,5,2,0:0:0:0:
188,124,123970,2,0,P|240:148|288:132,1,100,8|0,0:0|0:0,0:0:0:0:
376,116,124720,2,0,P|436:164|392:268,1,200,8|8,0:0|0:0,0:0:0:0:
296,260,125845,1,2,0:0:0:0:
204,224,126220,6,0,P|152:236|112:268,2,100,8|2|8,0:0|0:0|0:0,0:0:0:0:
284,160,127345,2,0,P|312:112|280:4,2,150,2|0|8,0:0|0:0|0:0,0:0:0:0:
300,208,128657,2,0,P|296:256|268:300,2,100,2|2|2,0:0|0:0|0:0,0:0:0:0:
284,160,129595,6,0,L|352:88,1,100,4|8,0:3|0:0,0:0:0:0:
432,28,130345,2,0,P|448:56|436:136,1,100,0|8,0:0|0:0,0:0:0:0:
396,208,131095,2,0,B|436:232|480:216|480:216|512:280,2,150,2|0|8,0:0|0:0|0:0,0:0:0:0:
316,148,132595,6,0,P|293:193|304:248,1,100,2|8,0:0|0:0,0:0:0:0:
256,328,133345,1,0,0:0:0:0:
164,284,133720,2,0,P|56:224|60:144,1,200,8|8,0:0|0:0,0:0:0:0:
104,144,134657,2,0,P|112:84|88:32,2,100,2|2|2,0:0|0:0|0:0,0:0:0:0:
148,168,135595,6,0,B|248:180|248:180|344:152,1,200,4|0,0:3|0:0,0:0:0:0:
436,112,136720,1,8,0:0:0:0:
444,212,137095,1,2,0:0:0:0:
360,284,137470,1,8,0:0:0:0:
264,260,137845,2,0,P|204:268|168:304,1,100,2|8,0:0|0:0,0:0:0:0:
96,352,138595,6,0,P|24:244|72:168,2,200,2|2|2,0:0|0:0|0:0,0:0:0:0:
192,324,140470,2,0,P|272:316|308:332,1,100,8|0,0:0|0:0,0:0:0:0:
388,328,141220,1,8,0:0:0:0:
468,268,141595,5,2,0:0:0:0:
72,104,147595,6,0,P|148:108|180:88,1,100,4|8,0:0|0:0,0:0:0:0:
264,80,148345,2,0,P|308:101|335:143,1,100,0|8,0:0|0:0,0:0:0:0:
328,244,149095,1,2,0:0:0:0:
232,216,149470,1,8,0:0:0:0:
140,172,149845,2,0,P|124:124|136:76,1,100,0|8,0:0|0:0,0:0:0:0:
228,120,150595,6,0,P|244:168|232:216,1,100,2|8,0:0|0:0,0:0:0:0:
140,216,151345,1,0,0:0:0:0:
180,308,151720,1,8,0:0:0:0:
280,320,152095,2,0,P|312:272|356:252,1,100,2|8,0:0|0:0,0:0:0:0:
388,224,152657,2,0,P|416:168|412:128,1,100,2|2,0:0|0:0,0:0:0:0:
340,64,153407,1,2,0:0:0:0:
340,64,153595,6,0,P|280:92|252:132,1,100,4|8,0:0|0:0,0:0:0:0:
288,212,154345,1,0,0:0:0:0:
216,284,154720,1,8,0:0:0:0:
136,228,155095,2,0,P|56:196|24:212,2,100,0|8|0,0:0|0:0|0:0,0:0:0:0:
188,312,156220,1,8,0:0:0:0:
276,356,156595,6,0,P|332:332|360:288,1,100,0|8,0:0|0:0,0:0:0:0:
420,224,157345,2,0,P|363:201|312:212,1,100,0|8,0:0|0:0,0:0:0:0:
224,212,158095,2,0,P|188:124|200:52,2,150,0|2|12,0:0|0:0|0:0,0:0:0:0:
304,152,159595,6,0,P|328:220|300:272,1,100,6|8,0:0|0:0,0:0:0:0:
252,316,160345,2,0,L|140:336,1,100,0|8,0:0|0:0,0:0:0:0:
56,352,161095,2,0,P|112:292|104:172,1,200,2|0,0:0|0:0,0:0:0:0:
32,120,162220,1,8,0:0:0:0:
120,84,162595,6,0,P|176:108|200:144,1,100,6|8,0:0|0:0,0:0:0:0:
256,220,163345,1,2,0:0:0:0:
300,132,163720,2,0,P|354:228|312:300,1,200,8|8,0:0|0:0,0:0:0:0:
220,268,164845,2,0,L|108:276,1,100,0|12,0:0|0:0,0:0:0:0:
52,348,165595,6,0,P|112:296|84:160,1,200,4|0,0:0|0:0,0:0:0:0:
152,92,166720,1,8,0:0:0:0:
252,76,167095,2,0,P|312:96|360:88,1,100,0|8,0:0|0:0,0:0:0:0:
448,100,167845,1,0,0:0:0:0:
394,183,168220,1,8,0:0:0:0:
394,183,168595,6,0,P|380:278|448:348,2,200,2|2|4,0:0|0:0|0:0,0:0:0:0:
116,300,171220,1,12,0:0:0:0:
116,300,171595,6,0,P|136:260|128:204,1,100,4|8,0:0|0:0,0:0:0:0:
120,104,172345,2,0,P|180:76|304:136,1,200,0|2,0:0|0:0,0:0:0:0:
288,224,173470,2,0,P|311:282|344:304,1,100,8|0,0:0|0:0,0:0:0:0:
388,212,174220,1,8,0:0:0:0:
328,132,174595,6,0,L|348:28,2,100,2|8|0,0:0|0:0|0:0,0:0:0:0:
228,140,175720,2,0,P|160:216|196:304,1,200,8|8,0:0|0:0,0:0:0:0:
200,348,176657,2,0,L|320:316,2,100,2|2|2,0:0|0:0|0:0,0:0:0:0:
152,364,177595,6,0,P|56:332|32:232,1,200,4|0,0:0|0:0,0:0:0:0:
96,168,178720,1,8,0:0:0:0:
68,71,179095,2,0,P|126:69|163:92,1,100,2|8,0:0|0:0,0:0:0:0:
204,180,179845,2,0,P|268:212|300:208,1,100,0|8,0:0|0:0,0:0:0:0:
364,136,180595,5,2,0:0:0:0:
452,88,180970,2,0,P|452:185|356:236,2,200,8|8|8,0:0|0:0|0:0,0:0:0:0:
408,68,182657,2,0,L|500:8,2,100,2|2|2,0:0|0:0|0:0,0:0:0:0:
356,72,183595,6,0,P|296:100|240:104,1,100,4|8,0:0|0:0,0:0:0:0:
164,84,184345,1,0,0:0:0:0:
88,148,184720,1,8,0:0:0:0:
124,240,185095,2,0,P|104:332|80:344,2,100,2|8|0,0:0|0:0|0:0,0:0:0:0:
196,168,186220,6,0,P|244:156|299:176,2,100,8|2|8,0:0|0:0|0:0,0:0:0:0:
240,260,187345,1,2,0:0:0:0:
212,356,187720,2,0,P|308:340|336:240,1,200,8|8,0:0|0:0,0:0:0:0:
296,160,188845,2,0,P|288:132|292:100,2,50,0|0|8,0:0|0:0|0:0,0:0:0:0:
376,120,189595,5,6,0:0:0:0:
388,220,189970,1,8,0:0:0:0:
380,320,190345,2,0,B|324:320|296:276|296:276|192:324,1,200,0|2,0:3|0:0,0:0:0:0:
108,288,191470,1,8,0:0:0:0:
68,196,191845,2,0,P|112:172|140:128,1,100,0|8,0:0|0:0,0:0:0:0:
236,108,192595,6,0,P|332:76|432:124,2,200,2|0|2,0:0|0:0|0:0,0:0:0:0:
180,188,194470,2,0,P|208:264|196:296,1,100,8|0,0:0|0:0,0:0:0:0:
108,264,195220,1,8,0:0:0:0:
72,168,195595,5,0,0:0:0:0:
256,100,197095,5,0,0:0:0:0:
256,192,198595,12,0,200095,0:0:0:0:
