osu file format v12

[General]
AudioFilename: Lenka - Everything At Onceee.mp3
AudioLeadIn: 1500
PreviewTime: 20074
Countdown: 0
SampleSet: None
StackLeniency: 0.7
Mode: 0
LetterboxInBreaks: 0
EpilepsyWarning: 1

[Editor]
Bookmarks: 53201
DistanceSpacing: 0.9
BeatDivisor: 2
GridSize: 4

[Metadata]
Title:Everything At Once
TitleUnicode:Everything At Once
Artist:Lenka
ArtistUnicode:Lenka
Creator:-Bakari-
Version:Normal
Source:
Tags:windows 8 Kripac two indie Gabe Collab Collaboration
BeatmapID:240809
BeatmapSetID:88118

[Difficulty]
HPDrainRate:4
CircleSize:4
OverallDifficulty:4
ApproachRate:5
SliderMultiplier:1.4
SliderTickRate:1

[Events]
//Background and Video events
0,0,"ggg.jpg",0,0
//Break Periods
//Storyboard Layer 0 (Background)
//Storyboard Layer 1 (Fail)
//Storyboard Layer 2 (Pass)
//Storyboard Layer 3 (Foreground)
Sprite,Foreground,Centre,"SB\baka.png",320,240 M,0,236,,134,93 F,0,236,1063,0,1 F,0,1063,53201,1 F,0,53201,54029,1,0 F,0,54029,,0
Sprite,Foreground,Centre,"SB\notbaka.png",320,240 F,0,53201,53408,0,1 F,0,53408,104511,1 M,0,66442,,498,398 F,0,104511,105753,1,0
//Storyboard Sound Samples
//Background Colour Transformations
3,100,163,162,255

[TimingPoints]
236,413.793103448276,4,2,0,35,1,0
20098,-100,4,2,0,65,0,1
26511,-100,4,2,0,65,0,0
26718,-100,4,2,0,65,0,1
33132,-100,4,2,0,65,0,0
33339,-100,4,2,0,65,0,1
41615,-100,4,2,0,65,0,0
43270,-100,4,2,0,39,0,0
56511,-100,4,3,0,65,0,0
69753,-100,4,2,0,65,0,1
76167,-100,4,2,0,65,0,0
76373,-100,4,2,0,65,0,1
82787,-100,4,2,0,65,0,0
82994,-100,4,2,0,65,0,1
92925,-100,4,2,0,65,0,0

[Colours]
Combo1 : 207,245,160
Combo2 : 171,240,252
Combo3 : 120,201,114
Combo4 : 94,168,251

[HitObjects]
72,316,236,2,0,P|60:248|108:184,1,140,2|0,0:0|0:0,0:0:0:0:
76,80,1063,2,0,P|144:84|216:68,1,140
324,96,1891,1,2,0:0:0:0:
424,48,2304,1,0,0:0:0:0:
452,156,2718,1,0,0:0:0:0:
392,248,3132,1,0,0:0:0:0:
420,356,3546,6,0,P|352:344|272:356,1,140,2|0,0:0|0:0,0:0:0:0:
172,368,4373,1,0,0:0:0:0:
84,300,4787,1,0,0:0:0:0:
56,192,5201,2,0,P|52:136|104:64,1,140,2|0,0:0|0:0,0:0:0:0:
200,28,6029,1,0,0:0:0:0:
304,68,6442,1,0,0:0:0:0:
412,44,6856,6,0,P|432:96|416:192,1,140,2|0,0:0|0:0,0:0:0:0:
420,236,7477,1,0,0:0:0:0:
448,284,7684,1,0,0:0:0:0:
336,300,8098,2,0,P|268:288|196:288,1,140,0|2,0:0|0:0,0:0:0:0:
96,336,8925,1,0,0:0:0:0:
92,224,9339,1,0,0:0:0:0:
32,132,9753,1,0,0:0:0:0:
96,40,10167,6,0,P|168:48|240:40,1,140,2|0,0:0|0:0,0:0:0:0:
292,32,10787,1,0,0:0:0:0:
348,44,10994,1,0,0:0:0:0:
460,48,11408,1,0,0:0:0:0:
484,156,11822,1,2,0:0:0:0:
420,248,12235,1,0,0:0:0:0:
444,356,12649,2,0,P|376:356|300:364,1,140
192,364,13477,5,2,0:0:0:0:
80,368,13891,2,0,P|92:324|80:228,1,140
44,124,14718,1,0,0:0:0:0:
124,48,15132,1,2,0:0:0:0:
220,104,15546,2,0,P|264:152|272:232,1,140
216,320,16373,1,0,0:0:0:0:
108,288,16787,5,2,0:0:0:0:
100,176,17201,1,0,0:0:0:0:
212,156,17615,1,0,0:0:0:0:
248,52,18029,1,0,0:0:0:0:
332,124,18442,2,0,P|352:184|188:296,1,280,2|0,0:0|0:0,0:0:0:0:
96,296,19684,1,0,0:0:0:0:
20,212,20098,6,0,P|20:168|104:92,1,140,2|2,0:0|3:0,0:0:0:0:
136,88,20718,1,0,0:0:0:0:
168,40,20925,1,0,0:0:0:0:
276,76,21339,2,0,L|416:72,2,140,2|0|2,3:0|0:0|3:0,0:0:0:0:
248,124,22373,1,0,0:0:0:0:
212,168,22580,2,0,L|68:172,1,140,0|2,0:0|3:0,0:0:0:0:
24,272,23408,6,0,P|24:336|96:368,1,140,0|2,0:0|0:3,0:0:0:0:
132,340,24029,1,0,0:0:0:0:
188,348,24236,2,0,L|332:344,1,140,0|2,0:0|0:3,0:0:0:0:
440,360,25063,1,0,0:0:0:0:
476,256,25477,1,2,3:0:0:0:
372,208,25891,2,0,P|360:164|380:60,1,140,0|2,0:0|3:0,0:0:0:0:
344,24,26511,1,0,0:0:0:0:
288,24,26718,6,0,L|148:12,1,140,0|2,0:0|3:0,0:0:0:0:
100,48,27339,1,0,0:0:0:0:
108,104,27546,2,0,P|120:168|100:244,1,140,0|2,0:0|3:0,0:0:0:0:
64,344,28373,2,0,P|132:344|192:304,1,140,0|2,0:0|3:0,0:0:0:0:
208,252,28994,2,0,P|220:196|356:148,1,210,0|2,0:0|3:0,0:0:0:0:
452,196,30029,6,0,P|452:124|476:56,1,140,0|2,0:0|3:0,0:0:0:0:
368,24,30856,1,0,0:0:0:0:
264,64,31270,1,2,3:0:0:0:
156,32,31684,1,0,0:0:0:0:
68,104,32098,2,0,P|28:188|164:284,1,280,2|2,3:0|3:0,0:0:0:0:
264,324,33339,6,0,P|272:276|228:196,1,140,0|2,0:0|3:0,0:0:0:0:
180,172,33960,1,0,0:0:0:0:
144,128,34167,2,0,P|160:64|236:32,1,140,0|2,0:0|3:0,0:0:0:0:
328,64,34994,1,0,0:0:0:0:
440,60,35408,1,2,3:0:0:0:
496,156,35822,1,0,0:0:0:0:
440,252,36236,1,2,3:0:0:0:
444,364,36649,6,0,P|388:352|296:356,1,140,0|2,0:0|3:0,0:0:0:0:
248,360,37270,1,0,0:0:0:0:
192,356,37477,2,0,P|120:360|48:348,1,140,0|2,0:0|3:0,0:0:0:0:
8,248,38304,1,0,0:0:0:0:
116,212,38718,2,0,P|156:191|217:115,1,140,2|0,3:0|0:0,0:0:0:0:
172,16,39546,1,2,3:0:0:0:
256,192,39960,12,2,41615,0:0:0:0:
44,208,43270,6,0,P|124:188|176:208,1,140,2|0,0:0|0:0,0:0:0:0:
112,300,44098,1,2,0:0:0:0:
224,304,44511,1,0,0:0:0:0:
312,232,44925,2,0,P|336:188|348:96,1,140
264,24,45753,1,2,0:0:0:0:
184,100,46167,1,0,0:0:0:0:
164,208,46580,6,0,P|188:272|244:316,1,140
300,308,47201,1,0,0:0:0:0:
356,320,47408,1,2,0:0:0:0:
468,328,47822,1,0,0:0:0:0:
424,224,48236,2,0,P|424:152|440:76,1,140
332,44,49063,2,0,L|184:36,1,140,2|0,0:0|0:0,0:0:0:0:
80,32,49891,5,0,0:0:0:0:
52,140,50304,1,0,0:0:0:0:
68,248,50718,2,0,P|132:252|208:228,1,140,2|0,0:0|0:0,0:0:0:0:
284,148,51546,1,0,0:0:0:0:
388,196,51960,1,0,0:0:0:0:
356,304,52373,1,2,0:0:0:0:
136,352,53201,6,0,P|88:312|76:232,1,140
104,192,53822,1,0,0:0:0:0:
74,145,54029,2,0,P|88:72|136:32,1,140,2|0,0:0|0:0,0:0:0:0:
228,100,54856,6,0,B|280:148|280:148|352:148,1,140
388,192,55477,1,0,0:0:0:0:
352,236,55684,2,0,B|283:236|283:236|231:284,1,140,2|0,0:0|0:0,0:0:0:0:
312,356,56511,6,0,P|388:356|456:304,1,140,4|8,0:0|0:0,0:0:0:0:
452,268,57132,1,0,0:0:0:0:
480,220,57339,2,0,L|488:136,1,70,8|8,0:0|0:0,0:0:0:0:
468,96,57753,2,0,L|476:24,1,70,0|8,0:0|0:0,0:0:0:0:
424,4,58167,6,0,P|376:56|308:48,1,140,0|8,0:0|0:0,0:0:0:0:
200,44,58994,2,0,L|144:92,1,70,8|8,0:0|0:0,0:0:0:0:
92,84,59408,2,0,L|36:136,1,70,0|8,0:0|0:0,0:0:0:0:
16,184,59822,6,0,P|40:263|95:277,1,140,0|8,0:0|0:0,0:0:0:0:
200,280,60649,2,0,P|175:200|120:186,2,140,8|8|0,0:0|0:0|0:0,0:0:0:0:
312,280,61891,2,0,P|337:200|392:186,1,140,8|0,0:0|0:0,0:0:0:0:
420,292,62718,1,8,0:0:0:0:
492,212,63132,6,0,P|500:136|456:80,1,140,4|0,0:0|0:0,0:0:0:0:
356,56,63960,1,8,0:0:0:0:
176,188,64787,6,0,P|140:264|64:280,1,140,4|0,0:0|0:0,0:0:0:0:
72,172,65615,1,8,0:0:0:0:
256,44,66442,6,0,L|256:184,1,140,4|0,0:0|0:0,0:0:0:0:
156,236,67270,1,8,0:0:0:0:
256,296,67684,1,8,0:0:0:0:
356,236,68098,2,0,L|500:236,2,140,4|0|8,0:0|0:0|0:0,0:0:0:0:
256,36,69753,6,0,P|160:56|136:108,1,140,4|8,0:0|0:0,0:0:0:0:
156,140,70373,1,0,0:0:0:0:
176,192,70580,2,0,P|157:222|61:242,1,140,0|8,0:0|0:0,0:0:0:0:
4,336,71408,5,0,0:0:0:0:
60,344,71615,1,0,0:0:0:0:
116,352,71822,2,0,P|192:360|268:304,1,140,8|0,0:0|0:0,0:0:0:0:
316,244,72649,6,0,L|344:160,1,70,10|2,0:0|0:0,0:0:0:0:
300,136,73063,2,0,L|328:52,1,70,0|2,0:0|0:0,0:0:0:0:
336,16,73477,2,0,P|416:12|448:76,1,140,8|0,0:0|0:0,0:0:0:0:
416,164,74304,6,0,P|412:244|455:274,1,140,8|0,0:0|0:0,0:0:0:0:
508,372,75132,2,0,L|364:372,1,140,8|0,0:0|0:0,0:0:0:0:
256,372,75960,1,8,0:0:0:0:
148,340,76373,6,0,P|184:280|168:212,1,140,4|8,0:0|0:0,0:0:0:0:
120,192,76994,1,0,0:0:0:0:
169,169,77201,2,0,P|184:104|148:44,1,140,0|8,0:0|0:0,0:0:0:0:
252,4,78029,6,0,B|288:64|288:64|356:84,1,140,0|8,0:0|0:0,0:0:0:0:
412,76,78649,1,0,0:0:0:0:
444,124,78856,2,0,L|444:268,2,140,0|10|2,0:0|0:0|0:0,0:0:0:0:
332,144,80098,6,0,P|252:240|180:144,1,280,8|8,0:0|0:0,0:0:0:0:
164,92,81132,1,0,0:0:0:0:
112,116,81339,2,0,B|96:168|112:216|112:216|72:280,1,140,0|8,0:0|0:0,0:0:0:0:
188,304,82167,2,0,P|256:320|324:304,1,140,0|8,0:0|0:0,0:0:0:0:
420,248,82994,6,0,B|400:216|400:216|416:168|400:116,1,140,4|8,0:0|0:0,0:0:0:0:
356,80,83615,1,0,0:0:0:0:
312,116,83822,2,0,B|296:168|312:216|312:216|291:248,1,140,0|8,0:0|0:0,0:0:0:0:
196,304,84649,6,0,L|132:332,1,70
88,368,85063,2,0,L|48:288,1,70,8|0,0:0|0:0,0:0:0:0:
32,256,85477,2,0,P|84:204|56:124,1,140,0|8,0:0|0:0,0:0:0:0:
52,92,86098,1,2,0:0:0:0:
88,48,86304,6,0,P|176:88|224:64,1,140,2|8,0:0|0:0,0:0:0:0:
256,40,86925,1,0,0:0:0:0:
301,74,87132,2,0,P|336:88|424:48,1,140,0|8,0:0|0:0,0:0:0:0:
460,92,87753,1,0,0:0:0:0:
460,92,87960,1,0,0:0:0:0:
396,184,88373,1,8,0:0:0:0:
304,248,88787,1,0,0:0:0:0:
200,204,89201,5,8,0:0:0:0:
200,204,89408,2,0,L|124:204,1,70
80,232,89822,2,0,P|108:152|64:80,2,140
64,284,90856,1,8,0:0:0:0:
160,344,91270,5,2,0:0:0:0:
256,284,91684,1,10,0:0:0:0:
352,344,92098,1,2,0:0:0:0:
448,284,92511,1,10,0:0:0:0:
472,176,92925,6,0,P|464:80|396:40,1,140,4|8,0:0|0:0,0:0:0:0:
324,60,93753,2,0,L|284:120,1,70
226,118,94167,2,0,L|188:60,1,70,8|0,0:0|0:0,0:0:0:0:
132,68,94580,6,0,B|96:8|96:8|12:16,1,140,0|8,0:0|0:0,0:0:0:0:
40,128,95408,2,0,B|76:188|76:188|160:180,1,140,0|8,0:0|0:0,0:0:0:0:
200,200,96029,1,0,0:0:0:0:
204,256,96236,6,0,P|176:316|200:384,1,140,0|8,0:0|0:0,0:0:0:0:
313,382,97063,2,0,P|336:316|308:256,1,140,0|8,0:0|0:0,0:0:0:0:
264,220,97684,1,0,0:0:0:0:
220,184,97891,6,0,B|192:116|192:116|220:56,1,140,0|8,0:0|0:0,0:0:0:0:
312,120,98718,2,0,L|456:120,2,140,0|8|0,0:0|0:0|0:0,0:0:0:0:
200,120,99960,5,8,0:0:0:0:
216,232,100373,2,0,L|228:304,1,70
284,300,100787,2,0,L|295:230,1,70,8|0,0:0|0:0,0:0:0:0:
304,176,101201,5,2,0:0:0:0:
256,76,101615,1,10,0:0:0:0:
148,104,102029,1,2,0:0:0:0:
56,40,102442,1,10,0:0:0:0:
56,40,102649,1,2,0:0:0:0:
256,192,102856,12,2,104511,0:0:0:0:
