osu file format v12

[General]
AudioFilename: Lenka - Everything At Onceee.mp3
AudioLeadIn: 1500
PreviewTime: 20074
Countdown: 0
SampleSet: Soft
StackLeniency: 0.7
Mode: 0
LetterboxInBreaks: 0
EpilepsyWarning: 1

[Editor]
Bookmarks: 67248
DistanceSpacing: 1.1
BeatDivisor: 2
GridSize: 4

[Metadata]
Title:Everything At Once
TitleUnicode:Everything At Once
Artist:Lenka
ArtistUnicode:Lenka
Creator:-Bakari-
Version:Hard
Source:
Tags:windows 8 Kripac two indie Gabe Collab Collaboration
BeatmapID:240358
BeatmapSetID:88118

[Difficulty]
HPDrainRate:7
CircleSize:4
OverallDifficulty:7
ApproachRate:8
SliderMultiplier:1.9
SliderTickRate:1

[Events]
//Background and Video events
0,0,"ggg.jpg",0,0
//Break Periods
//Storyboard Layer 0 (Background)
//Storyboard Layer 1 (Fail)
//Storyboard Layer 2 (Pass)
//Storyboard Layer 3 (Foreground)
//Storyboard Sound Samples
//Background Colour Transformations
3,100,163,162,255

[TimingPoints]
236,413.793103448276,4,2,1,35,1,0
20098,-100,4,2,1,65,0,1
26511,-100,4,2,1,65,0,0
26718,-100,4,2,1,65,0,1
33132,-100,4,2,1,65,0,0
33339,-100,4,2,1,65,0,1
41615,-100,4,2,1,65,0,0
43270,-100,4,2,1,39,0,0
56511,-100,4,3,0,65,0,0
69753,-100,4,2,1,65,0,1
76167,-100,4,2,1,65,0,0
76373,-100,4,2,1,65,0,1
82787,-100,4,2,1,65,0,0
82994,-100,4,2,1,65,0,1
92925,-100,4,2,1,65,0,0

[Colours]
Combo1 : 207,245,160
Combo2 : 171,240,252
Combo3 : 120,201,114
Combo4 : 94,168,251

[HitObjects]
64,352,236,2,0,P|104:288|40:176,1,190,2|0,0:0|0:0,0:0:0:0:
48,56,1063,1,0,0:0:0:0:
176,104,1477,1,0,0:0:0:0:
304,64,1891,2,0,P|360:56|456:144,1,190,2|0,0:0|0:0,0:0:0:0:
360,232,2718,1,0,0:0:0:0:
440,336,3132,1,0,0:0:0:0:
304,344,3546,6,0,P|224:320|112:328,1,190,2|0,0:0|0:0,0:0:0:0:
40,216,4373,1,0,0:0:0:0:
72,88,4787,1,0,0:0:0:0:
200,48,5201,2,0,L|296:56,1,95,2|0,0:0|0:0,0:0:0:0:
344,112,5615,2,0,L|444:120,1,95,0|0,0:0|0:0,0:0:0:0:
500,80,6029,1,0,0:0:0:0:
256,192,6442,1,0,0:0:0:0:
12,80,6856,6,0,P|8:128|32:176,1,95,2|0,0:0|0:0,0:0:0:0:
92,116,7270,2,0,P|112:160|100:216,1,95,0|0,0:0|0:0,0:0:0:0:
40,260,7684,2,0,P|88:292|188:224,1,190,0|0,0:0|0:0,0:0:0:0:
304,104,8511,1,2,0:0:0:0:
332,184,8718,1,0,0:0:0:0:
408,224,8925,1,0,0:0:0:0:
332,268,9132,1,0,0:0:0:0:
280,336,9339,2,0,P|192:324|72:344,1,190,0|0,0:0|0:0,0:0:0:0:
28,288,9960,1,0,0:0:0:0:
72,216,10167,6,0,L|60:120,1,95,2|0,0:0|0:0,0:0:0:0:
92,44,10580,1,0,0:0:0:0:
164,88,10787,1,0,0:0:0:0:
244,56,10994,1,0,0:0:0:0:
408,108,11408,1,0,0:0:0:0:
484,260,11822,2,0,L|392:304,1,95,2|0,0:0|0:0,0:0:0:0:
320,268,12235,1,0,0:0:0:0:
256,324,12442,2,0,B|160:304|160:304|152:256|112:224|44:216|0:252,1,285,0|0,0:0|0:0,0:0:0:0:
64,320,13270,1,0,0:0:0:0:
72,144,13477,6,0,L|56:40,1,95,2|0,0:0|0:0,0:0:0:0:
144,64,13891,2,0,L|160:164,1,95,0|0,0:0|0:0,0:0:0:0:
232,116,14304,2,0,L|216:20,1,95,0|0,0:0|0:0,0:0:0:0:
300,16,14718,1,0,0:0:0:0:
468,52,15132,2,0,P|448:116|480:236,1,190,2|0,0:0|0:0,0:0:0:0:
468,320,15753,1,0,0:0:0:0:
384,316,15960,2,0,P|312:316|220:384,1,190,0|0,0:0|0:0,0:0:0:0:
52,360,16787,6,0,B|64:304|64:304|48:256|48:256|72:168,1,190,2|0,0:0|0:0,0:0:0:0:
52,92,17408,1,0,0:0:0:0:
132,124,17615,2,0,L|232:140,1,95,0|0,0:0|0:0,0:0:0:0:
292,84,18029,1,0,0:0:0:0:
460,48,18442,2,0,P|452:120|476:236,1,190,2|0,0:0|0:0,0:0:0:0:
416,296,19063,1,0,0:0:0:0:
336,268,19270,2,0,B|248:228|248:296|148:264,1,190,0|0,0:0|0:0,0:0:0:0:
8,364,20098,6,0,P|16:300|4:156,1,190,2|0,0:0|0:0,0:0:0:0:
0,72,20718,1,0,0:0:0:0:
96,112,20925,1,0,0:0:0:0:
188,60,21132,1,0,0:0:0:0:
288,92,21339,2,0,L|400:88,1,95,0|0,3:0|0:0,0:0:0:0:
484,60,21753,2,0,B|492:108|476:152|476:152|460:200|488:264,2,190,0|0|0,0:0|3:0|0:0,0:0:0:0:
304,168,22994,1,0,3:0:0:0:
200,156,23201,1,0,0:0:0:0:
108,208,23408,6,0,P|108:172|84:112,1,95,2|0,0:0|0:0,0:0:0:0:
8,184,23822,2,0,P|8:228|32:276,1,95,0|0,0:0|0:0,0:0:0:0:
128,309,24235,2,0,P|184:269|200:153,1,190,0|0,0:0|0:0,0:0:0:0:
256,68,24856,1,0,0:0:0:0:
344,108,25063,1,0,0:0:0:0:
344,108,25477,1,0,0:0:0:0:
308,208,25684,1,0,0:0:0:0:
268,304,25891,2,0,P|224:304|168:320,1,95,0|0,0:0|0:0,0:0:0:0:
80,360,26304,1,0,3:0:0:0:
20,276,26511,1,0,0:0:0:0:
88,196,26718,6,0,P|116:140|60:28,1,190,2|0,0:0|0:0,0:0:0:0:
12,120,27339,1,0,0:0:0:0:
172,24,27546,2,0,B|196:64|200:104|200:104|244:128|308:120,1,190,0|0,0:0|3:0,0:0:0:0:
400,88,28167,1,0,0:0:0:0:
384,192,28373,2,0,L|376:296,1,95,0|0,0:0|0:0,0:0:0:0:
284,336,28787,2,0,L|292:240,1,95,0|0,0:0|0:0,0:0:0:0:
208,176,29201,2,0,L|200:280,1,95,0|0,0:0|0:0,0:0:0:0:
116,332,29615,1,0,3:0:0:0:
28,60,30029,5,2,0:0:0:0:
344,88,30442,1,0,3:0:0:0:
272,164,30649,1,0,0:0:0:0:
300,264,30856,2,0,P|392:256|412:172,1,190,0|0,0:0|3:0,0:0:0:0:
448,76,31477,1,0,0:0:0:0:
344,88,31684,2,0,P|300:64|244:56,1,95,0|0,0:0|0:0,0:0:0:0:
104,144,32098,6,0,P|56:160|8:152,1,95,0|0,3:0|0:0,0:0:0:0:
188,220,32511,2,0,P|140:236|92:228,1,95,0|0,0:0|0:0,0:0:0:0:
260,296,32925,2,0,P|212:312|164:304,1,95,0|0,3:0|0:0,0:0:0:0:
336,264,33339,6,0,P|396:252|512:312,1,190,2|0,0:0|0:0,0:0:0:0:
512,200,33960,1,0,0:0:0:0:
460,107,34167,2,0,P|454:62|472:17,1,95,0|0,0:0|0:0,0:0:0:0:
372,32,34580,2,0,L|276:28,1,95,0|0,3:0|0:0,0:0:0:0:
192,28,34994,2,0,B|184:76|220:120|220:120|260:160|256:208,1,190,0|0,0:0|0:0,0:0:0:0:
176,268,35615,1,0,0:0:0:0:
154,169,35822,2,0,B|171:132|225:117|225:117|278:97|296:52,1,190,0|0,0:0|0:0,0:0:0:0:
400,48,36442,1,0,0:0:0:0:
464,128,36649,5,2,0:0:0:0:
400,212,36856,1,0,0:0:0:0:
464,296,37063,2,0,P|400:316|300:232,1,190,0|0,0:0|0:0,0:0:0:0:
300,144,37684,1,0,0:0:0:0:
204,184,37891,1,0,3:0:0:0:
108,140,38098,1,0,0:0:0:0:
24,196,38304,6,0,P|56:240|36:368,1,190,0|0,0:0|3:0,0:0:0:0:
140,352,38925,1,0,0:0:0:0:
240,316,39132,2,0,P|308:308|440:332,1,190,0|0,0:0|3:0,0:0:0:0:
440,120,39960,5,2,0:0:0:0:
256,32,40373,1,0,0:0:0:0:
72,120,40787,1,0,0:0:0:0:
152,188,40994,1,0,0:0:0:0:
256,192,41201,1,0,0:0:0:0:
360,188,41408,1,0,0:0:0:0:
440,120,41615,5,0,0:0:0:0:
168,364,43270,6,0,P|180:292|84:236,1,190,0|0,0:0|0:0,0:0:0:0:
35,286,43891,1,0,0:0:0:0:
108,312,44098,2,0,P|172:260|128:160,1,190,2|0,0:0|0:0,0:0:0:0:
32,28,44925,2,0,P|88:48|228:40,1,190,0|0,0:0|0:0,0:0:0:0:
304,48,45546,1,0,0:0:0:0:
296,132,45753,2,0,P|256:148|196:152,1,95,2|0,0:0|0:0,0:0:0:0:
120,156,46167,1,0,0:0:0:0:
120,328,46580,6,0,P|188:312|312:336,1,190,0|0,0:0|0:0,0:0:0:0:
388,360,47201,1,0,0:0:0:0:
444,296,47408,1,2,0:0:0:0:
380,136,47822,1,0,0:0:0:0:
216,84,48235,1,0,0:0:0:0:
136,112,48442,1,0,0:0:0:0:
56,80,48649,2,0,P|44:156|56:268,1,190,0|2,0:0|0:0,0:0:0:0:
212,336,49477,1,0,0:0:0:0:
384,336,49891,6,0,P|368:260|400:148,1,190,0|0,0:0|0:0,0:0:0:0:
376,72,50511,1,0,0:0:0:0:
296,44,50718,2,0,L|192:48,1,95,2|0,0:0|0:0,0:0:0:0:
136,112,51132,1,0,0:0:0:0:
56,80,51339,1,0,0:0:0:0:
68,164,51546,2,0,P|92:248|76:352,1,190,0|0,0:0|0:0,0:0:0:0:
248,356,52373,1,2,0:0:0:0:
372,236,52787,1,0,0:0:0:0:
268,100,53201,6,0,P|188:92|80:124,2,190,0|0|2,0:0|0:0|0:0,0:0:0:0:
332,156,54235,1,0,0:0:0:0:
404,112,54442,1,0,0:0:0:0:
468,272,54856,2,0,P|430:361|340:361,1,190,0|0,0:0|0:0,0:0:0:0:
300,304,55477,1,0,0:0:0:0:
384,292,55684,1,2,0:0:0:0:
144,376,56098,1,0,0:0:0:0:
96,212,56511,5,0,0:0:0:0:
176,236,56718,1,0,0:0:0:0:
228,168,56925,2,0,P|232:140|104:76,1,190,0|0,0:0|0:0,0:0:0:0:
148,148,57546,1,0,0:0:0:0:
296,64,57753,2,0,L|400:72,1,95,0|0,0:0|0:0,0:0:0:0:
476,200,58167,6,0,L|364:192,1,95,0|0,0:0|0:0,0:0:0:0:
308,240,58580,1,2,0:0:0:0:
232,200,58787,1,0,0:0:0:0:
160,244,58994,2,0,P|92:232|56:124,1,190,0|2,0:0|0:0,0:0:0:0:
136,160,59615,1,0,0:0:0:0:
80,312,59822,6,0,P|152:328|256:280,1,190,0|0,0:0|0:0,0:0:0:0:
232,200,60442,1,0,0:0:0:0:
296,144,60649,2,0,P|340:132|396:144,1,95,0|0,0:0|0:0,0:0:0:0:
433,213,61063,2,0,P|392:224|340:212,1,95,2|0,0:0|0:0,0:0:0:0:
296,144,61477,2,0,L|272:44,1,95,0|0,0:0|0:0,0:0:0:0:
188,48,61891,1,2,0:0:0:0:
108,76,62098,1,0,0:0:0:0:
160,160,62304,1,0,0:0:0:0:
56,208,62511,1,0,0:0:0:0:
112,312,62718,1,2,0:0:0:0:
112,312,62925,1,0,0:0:0:0:
276,336,63132,6,0,P|312:312|448:352,1,190,0|0,0:0|0:0,0:0:0:0:
496,280,63753,1,0,0:0:0:0:
456,204,63960,2,0,L|444:104,1,95,0|0,0:0|0:0,0:0:0:0:
484,36,64373,1,2,0:0:0:0:
400,40,64580,1,0,0:0:0:0:
324,76,64787,2,0,P|240:96|148:40,1,190,0|2,0:0|0:0,0:0:0:0:
68,40,65408,1,0,0:0:0:0:
80,208,65615,2,0,L|64:308,1,95,0|0,0:0|0:0,0:0:0:0:
148,284,66029,2,0,L|164:188,1,95,2|0,0:0|0:0,0:0:0:0:
144,108,66442,5,0,0:0:0:0:
228,132,66649,1,0,0:0:0:0:
312,120,66856,2,0,L|328:20,1,95,0|0,0:0|0:0,0:0:0:0:
412,36,67270,2,0,B|404:96|404:96|416:140|456:152|456:152|520:164,1,190,0|2,0:0|0:0,0:0:0:0:
488,76,67891,1,0,0:0:0:0:
360,184,68098,2,0,L|336:288,1,95,0|0,0:0|0:0,0:0:0:0:
380,352,68511,2,0,B|336:368|288:348|288:348|240:332|184:356,1,190,2|0,0:0|0:0,0:0:0:0:
108,368,69132,1,0,0:0:0:0:
136,288,69339,2,0,P|140:244|124:188,1,95,2|0,0:0|0:0,0:0:0:0:
104,112,69753,6,0,P|120:72|244:92,1,190,4|0,0:0|0:0,0:0:0:0:
296,176,70373,1,0,0:0:0:0:
396,212,70580,2,0,B|408:168|388:120|388:120|408:72|384:20,2,190,0|0|0,0:0|3:0|0:0,0:0:0:0:
488,264,71615,1,0,0:0:0:0:
400,316,71822,2,0,P|312:312|204:340,1,190,0|0,0:0|0:0,0:0:0:0:
108,328,72442,1,0,0:0:0:0:
48,168,72649,6,0,L|64:72,1,95,0|0,3:0|0:0,0:0:0:0:
168,60,73063,2,0,L|156:160,1,95,2|0,0:0|0:0,0:0:0:0:
260,136,73477,2,0,L|272:36,1,95,0|0,0:0|0:0,0:0:0:0:
376,36,73891,2,0,P|456:52|456:152,1,190,0|0,0:0|0:0,0:0:0:0:
348,260,74511,1,0,0:0:0:0:
512,288,74718,1,0,3:0:0:0:
512,288,75132,1,0,0:0:0:0:
256,344,75546,1,0,0:0:0:0:
0,288,75960,1,0,0:0:0:0:
36,188,76167,1,0,0:0:0:0:
12,88,76373,6,0,P|64:72|204:84,1,190,2|0,0:0|0:0,0:0:0:0:
296,116,76994,1,0,0:0:0:0:
400,100,77201,2,0,P|428:76|436:20,1,95,0|0,0:0|0:0,0:0:0:0:
360,184,77615,2,0,P|332:220|332:272,1,95,0|0,0:0|0:0,0:0:0:0:
368,368,78029,2,0,B|316:376|272:356|272:356|228:344|176:368,1,190,0|0,3:0|0:0,0:0:0:0:
80,376,78649,1,0,0:0:0:0:
44,276,78856,2,0,P|40:216|64:80,1,190,0|0,0:0|0:0,0:0:0:0:
156,44,79477,1,0,0:0:0:0:
300,96,79684,6,0,P|260:116|228:164,1,95,2|0,0:0|0:0,0:0:0:0:
328,200,80098,2,0,P|372:176|400:132,1,95,0|0,0:0|0:0,0:0:0:0:
380,36,80511,1,0,0:0:0:0:
288,300,80925,1,0,0:0:0:0:
200,244,81132,1,0,0:0:0:0:
92,236,81339,1,0,3:0:0:0:
368,212,81753,2,0,P|432:220|500:128,1,190,0|0,0:0|0:0,0:0:0:0:
492,24,82373,1,0,0:0:0:0:
404,80,82580,2,0,L|304:68,1,95,0|0,0:0|0:0,0:0:0:0:
148,48,82994,6,0,P|124:108|208:184,1,190,2|0,0:0|0:0,0:0:0:0:
312,180,83615,1,0,0:0:0:0:
416,172,83822,2,0,P|472:200|456:324,1,190,0|0,0:0|0:0,0:0:0:0:
364,328,84442,1,0,0:0:0:0:
260,352,84649,2,0,P|192:344|72:356,1,190,0|0,3:0|0:0,0:0:0:0:
4,276,85270,1,0,0:0:0:0:
56,184,85477,2,0,P|88:176|248:180,1,190,0|0,0:0|0:0,0:0:0:0:
340,132,86098,1,0,0:0:0:0:
308,32,86304,5,2,0:0:0:0:
412,52,86511,1,0,0:0:0:0:
436,152,86718,1,0,0:0:0:0:
368,232,86925,1,0,0:0:0:0:
340,132,87132,2,0,P|272:124|148:132,1,190,0|0,0:0|0:0,0:0:0:0:
68,68,87753,1,0,0:0:0:0:
56,172,87960,6,0,P|48:240|64:360,1,190,0|0,3:0|0:0,0:0:0:0:
160,316,88580,1,0,0:0:0:0:
260,340,88787,1,0,0:0:0:0:
464,380,89201,1,0,0:0:0:0:
496,264,89408,1,0,0:0:0:0:
412,176,89615,1,2,0:0:0:0:
224,80,90029,2,0,P|96:68|56:280,1,380,0|0,0:0|0:0,0:0:0:0:
152,376,91063,1,0,0:0:0:0:
240,280,91270,6,0,P|308:268|448:296,2,190,0|0|0,0:0|3:0|0:0,0:0:0:0:
80,144,92511,1,0,0:0:0:0:
256,32,92925,6,0,P|284:100|392:92,1,190,2|0,3:0|0:0,0:0:0:0:
468,68,93546,1,0,0:0:0:0:
448,152,93753,2,0,P|372:192|264:184,1,190,0|2,0:0|0:0,0:0:0:0:
200,140,94373,1,0,0:0:0:0:
144,76,94580,6,0,P|118:122|192:228,1,190,0|2,0:0|0:0,0:0:0:0:
368,76,95408,2,0,P|394:122|320:228,1,190,0|2,0:0|0:0,0:0:0:0:
256,184,96029,1,0,0:0:0:0:
264,268,96236,2,0,B|216:272|184:232|184:232|148:184|80:184,1,190,2|0,3:0|0:0,0:0:0:0:
24,220,96856,1,0,0:0:0:0:
96,264,97063,2,0,B|144:268|176:228|176:228|212:180|280:180,1,190,0|2,0:0|0:0,0:0:0:0:
336,220,97684,1,0,0:0:0:0:
420,212,97891,6,0,L|456:16,1,190,0|2,0:0|0:0,0:0:0:0:
368,36,98511,1,0,0:0:0:0:
352,128,98718,2,0,P|308:108|280:56,1,95,0|0,0:0|0:0,0:0:0:0:
204,108,99132,2,0,P|256:188|344:220,2,190,2|2|2,0:0|3:0|0:0,0:0:0:0:
128,60,100167,1,0,0:0:0:0:
84,132,100373,2,0,L|52:324,1,190,0|2,0:0|0:0,0:0:0:0:
128,360,100994,1,0,0:0:0:0:
256,192,101201,12,2,104511,0:0:0:0:
