osu file format v12

[General]
AudioFilename: Lenka - Everything At Onceee.mp3
AudioLeadIn: 1500
PreviewTime: 20074
Countdown: 0
SampleSet: Soft
StackLeniency: 0.7
Mode: 0
LetterboxInBreaks: 0
EpilepsyWarning: 1

[Editor]
Bookmarks: 67248
DistanceSpacing: 1.1
BeatDivisor: 2
GridSize: 4

[Metadata]
Title:Everything At Once
TitleUnicode:Everything At Once
Artist:Lenka
ArtistUnicode:Lenka
Creator:-Bakari-
Version:Easy
Source:
Tags:windows 8 Kripac two indie Gabe Collab Collaboration
BeatmapID:241097
BeatmapSetID:88118

[Difficulty]
HPDrainRate:1
CircleSize:3
OverallDifficulty:1
ApproachRate:2
SliderMultiplier:0.9
SliderTickRate:1

[Events]
//Background and Video events
0,0,"ggg.jpg",0,0
//Break Periods
//Storyboard Layer 0 (Background)
//Storyboard Layer 1 (Fail)
//Storyboard Layer 2 (Pass)
//Storyboard Layer 3 (Foreground)
//Storyboard Sound Samples
//Background Colour Transformations
3,100,163,162,255

[TimingPoints]
236,413.793103448276,4,2,0,35,1,0
20098,-100,4,2,0,65,0,1
26511,-100,4,2,0,65,0,0
26718,-100,4,2,0,65,0,1
33132,-100,4,2,0,65,0,0
33339,-100,4,2,0,65,0,1
41615,-100,4,2,0,65,0,0
43270,-100,4,2,0,39,0,0
56511,-100,4,3,0,65,0,0
69753,-100,4,2,0,65,0,1
76167,-100,4,2,0,65,0,0
76373,-100,4,2,0,65,0,1
82787,-100,4,2,0,65,0,0
82994,-100,4,2,0,65,0,1
92925,-100,4,3,0,65,0,0

[Colours]
Combo1 : 207,245,160
Combo2 : 171,240,252
Combo3 : 120,201,114
Combo4 : 94,168,251

[HitObjects]
104,316,236,2,0,L|96:188,1,90,2|0,0:0|0:0,0:0:0:0:
40,148,1063,1,0,0:0:0:0:
96,64,1477,1,0,0:0:0:0:
184,108,1891,2,0,L|296:108,2,90,2|0|0,0:0|0:0|0:0,0:0:0:0:
184,208,3132,1,0,0:0:0:0:
232,296,3546,6,0,P|292:312|380:224,2,180,2|0|2,0:0|0:0|0:0,0:0:0:0:
132,292,5615,1,0,0:0:0:0:
140,192,6029,1,0,0:0:0:0:
88,108,6442,1,0,0:0:0:0:
172,56,6856,6,0,L|356:64,1,180,2|0,0:0|0:0,0:0:0:0:
428,124,8098,1,0,0:0:0:0:
344,176,8511,2,0,L|144:168,1,180,2|0,0:0|0:0,0:0:0:0:
88,232,9753,1,0,0:0:0:0:
180,268,10167,6,0,L|196:368,1,90,2|0,0:0|0:0,0:0:0:0:
284,316,10994,2,0,L|272:224,1,90
192,168,11822,2,0,P|228:140|354:173,1,180,2|0,0:0|0:0,0:0:0:0:
436,208,13063,1,0,0:0:0:0:
496,128,13477,6,0,L|488:24,2,90,2|0|0,0:0|0:0|0:0,0:0:0:0:
436,208,14718,1,0,0:0:0:0:
384,292,15132,2,0,L|288:300,1,90,2|0,0:0|0:0,0:0:0:0:
220,364,15960,1,0,0:0:0:0:
176,276,16373,1,0,0:0:0:0:
76,288,16787,6,0,B|80:216|80:208|64:160|64:160|128:168|204:120,1,270,2|0,0:0|0:0,0:0:0:0:
240,36,18442,1,2,0:0:0:0:
340,44,18856,2,0,P|380:64|368:184,1,180
324,268,20098,6,0,P|228:236|52:276,1,270,2|0,0:0|3:0,0:0:0:0:
40,172,21753,2,0,L|48:68,1,90,0|0,0:0|3:0,0:0:0:0:
140,52,22580,2,0,L|132:152,1,90,0|0,0:0|3:0,0:0:0:0:
132,240,23408,6,0,P|168:288|368:268,1,270,2|0,0:0|0:0,0:0:0:0:
420,204,25063,2,0,P|436:160|364:32,1,180
288,24,26304,1,0,3:0:0:0:
192,52,26718,6,0,P|152:116|300:152,1,270,2|0,0:0|3:0,0:0:0:0:
364,232,28373,2,0,P|300:280|112:248,1,270,0|0,0:0|3:0,0:0:0:0:
80,168,30029,5,2,0:0:0:0:
144,88,30442,1,0,3:0:0:0:
240,112,30856,2,0,P|260:72|260:24,2,90,0|0|0,0:0|3:0|0:0,0:0:0:0:
292,196,32098,2,0,P|352:204|404:320,1,180,0|0,3:0|3:0,0:0:0:0:
308,292,33339,6,0,P|248:284|244:112,1,270,2|0,0:0|3:0,0:0:0:0:
336,80,34994,2,0,P|380:76|432:52,2,90
256,19,36236,1,0,0:0:0:0:
172,72,36649,6,0,P|120:136|164:312,1,270,2|0,0:0|3:0,0:0:0:0:
252,340,38304,1,0,0:0:0:0:
352,340,38718,1,0,3:0:0:0:
428,276,39132,2,0,P|440:224|436:184,1,90,0|0,0:0|3:0,0:0:0:0:
256,192,39960,12,2,41615,0:0:0:0:
108,128,43270,6,0,P|80:216|124:312,1,180,0|2,0:0|0:0,0:0:0:0:
196,344,44511,1,0,0:0:0:0:
280,288,44925,2,0,L|472:280,1,180,0|2,0:0|0:0,0:0:0:0:
488,184,46167,1,0,0:0:0:0:
420,112,46580,6,0,B|368:108|368:108|312:76|312:76|240:72,1,180,0|2,0:0|0:0,0:0:0:0:
164,20,47822,1,0,0:0:0:0:
100,96,48236,2,0,P|108:164|88:284,1,180,0|2,0:0|0:0,0:0:0:0:
148,356,49477,1,0,0:0:0:0:
224,292,49891,6,0,P|316:284|420:320,1,180,0|2,0:0|0:0,0:0:0:0:
488,348,51132,1,0,0:0:0:0:
480,248,51546,2,0,L|496:140,1,90
440,76,52373,2,0,L|340:64,1,90,2|0,0:0|0:0,0:0:0:0:
252,48,53201,6,0,P|164:36|88:96,1,180,0|2,0:0|0:0,0:0:0:0:
24,160,54442,1,0,0:0:0:0:
84,240,54856,2,0,L|120:332,1,90
212,304,55684,1,2,0:0:0:0:
304,344,56098,1,0,0:0:0:0:
388,292,56511,6,0,P|432:212|432:116,2,180,0|0|0,0:0|0:0|0:0,0:0:0:0:
292,264,58580,1,2,0:0:0:0:
192,256,58994,2,0,L|80:244,1,90,0|2,0:0|0:0,0:0:0:0:
4,252,59822,6,0,P|8:156|160:72,1,270,0|2,0:0|0:0,0:0:0:0:
228,124,61477,1,0,0:0:0:0:
320,84,61891,1,2,0:0:0:0:
396,144,62304,2,0,P|416:168|432:232,1,90,0|2,0:0|0:0,0:0:0:0:
436,324,63132,6,0,P|324:308|160:336,1,270,0|2,0:0|0:0,0:0:0:0:
72,344,64787,1,0,0:0:0:0:
92,248,65201,1,2,0:0:0:0:
68,152,65615,2,0,P|56:112|68:52,1,90,0|2,0:0|0:0,0:0:0:0:
156,96,66442,6,0,P|248:80|400:156,1,270,0|2,0:0|0:0,0:0:0:0:
376,252,68098,1,0,0:0:0:0:
412,344,68511,1,2,0:0:0:0:
316,324,68925,2,0,L|220:316,1,90,0|2,0:0|0:0,0:0:0:0:
132,348,69753,6,0,P|144:252|-12:148,1,270,4|0,0:0|3:0,0:0:0:0:
16,48,71408,2,0,P|96:60|232:188,1,270,0|0,0:0|3:0,0:0:0:0:
276,272,73063,6,0,P|324:288|448:232,1,180,2|0,0:0|0:0,0:0:0:0:
480,152,74304,1,0,0:0:0:0:
396,100,74718,2,0,L|316:56,1,90,0|0,3:0|0:0,0:0:0:0:
228,96,75546,2,0,L|136:40,1,90
52,60,76373,6,0,P|32:164|128:296,1,270,2|0,0:0|0:0,0:0:0:0:
216,320,78029,2,0,P|296:308|344:136,1,270,0|0,3:0|0:0,0:0:0:0:
252,124,79684,6,0,P|292:64|448:132,1,270,2|0,0:0|0:0,0:0:0:0:
396,208,81339,1,0,3:0:0:0:
408,308,81753,1,0,0:0:0:0:
312,332,82167,2,0,L|192:320,1,90
128,348,82994,6,0,P|100:288|196:100,1,270,2|0,0:0|0:0,0:0:0:0:
260,64,84649,2,0,P|344:40|448:60,1,180,0|0,3:0|0:0,0:0:0:0:
496,132,85891,1,0,0:0:0:0:
436,208,86304,6,0,L|448:300,2,90,2|0|0,0:0|0:0|0:0,0:0:0:0:
340,176,87546,1,0,0:0:0:0:
276,252,87960,2,0,P|144:232|72:340,1,270,0|0,3:0|0:0,0:0:0:0:
0,280,89615,6,0,P|56:192|208:136,1,270,2|0,0:0|0:0,0:0:0:0:
300,164,91270,2,0,P|276:204|224:232,2,90,2|0|0,0:0|0:0|0:0,0:0:0:0:
304,56,92511,1,0,0:0:0:0:
392,32,92925,6,0,P|440:136|352:280,1,270,2|2,2:0|0:0,0:0:0:0:
280,240,94580,1,0,0:0:0:0:
184,256,94994,2,0,L|92:244,2,90,2|0|2,0:0|0:0|0:0,0:0:0:0:
220,164,96236,6,0,P|300:148|352:296,1,270,0|2,0:0|0:0,0:0:0:0:
416,372,97891,1,0,0:0:0:0:
460,284,98304,2,0,P|464:220|408:108,2,180,2|2|2,0:0|0:0|0:0,0:0:0:0:
364,260,100373,2,0,P|364:216|332:172,1,90,0|2,0:0|0:0,0:0:0:0:
256,192,101201,12,2,104511,0:0:0:0:
