osu file format v9

[General]
AudioFilename: Leningrad - Net i esche raz net.mp3
AudioLeadIn: 0
PreviewTime: 19904
Countdown: 0
SampleSet: Normal
StackLeniency: 0.7
Mode: 0
LetterboxInBreaks: 1

[Editor]
Bookmarks: 106016
DistanceSpacing: 0.8
BeatDivisor: 4
GridSize: 8

[Metadata]
Title:No and No Again
Artist:Leningrad
Creator:serobor
Version:Normal
Source:
Tags:russian shnurov

[Difficulty]
HPDrainRate:4
CircleSize:4
OverallDifficulty:4
ApproachRate:4
SliderMultiplier:1.20000000596046
SliderTickRate:1

[Events]
//Background and Video events
0,0,"shnur.jpg"
//Break Periods
2,47325,60049
2,107755,120481
//Storyboard Layer 0 (Background)
//Storyboard Layer 1 (Fail)
//Storyboard Layer 2 (Pass)
//Storyboard Layer 3 (Foreground)
//Storyboard Sound Samples
//Background Colour Transformations
3,100,163,162,255

[TimingPoints]
938,431.654676258993,4,1,0,40,1,0
16477,-100,4,2,0,80,0,0
19815,-100,4,1,0,65,0,1
33449,-100,4,1,0,75,0,0
74750,-100,4,2,0,80,0,0
80350,-100,4,1,0,65,0,1
94012,-100,4,1,0,75,0,0
121789,-100,4,2,0,70,0,0
131729,-100,4,2,0,80,0,0
140782,-100,4,1,0,65,0,1
154409,-76.9230769230769,4,1,0,80,0,0

[Colours]
Combo1 : 240,145,0
Combo2 : 87,254,52
Combo3 : 90,67,254
Combo4 : 252,84,84

[HitObjects]
48,80,938,85,0
160,32,1369,1,0
272,72,1801,1,0
384,32,2232,1,0
480,88,2664,2,0,B|488:168|400:184|400:184,1,120.000000596046
400,272,3527,2,0,B|320:296|272:224,1,120.000000596046
152,200,4391,70,0,B|128:280|200:320,1,120.000000596046
288,248,5254,1,0
352,160,5686,1,0
232,152,6117,2,0,B|288:104|248:32,1,120.000000596046
144,72,6981,1,0
80,160,7412,5,0
160,224,7844,1,0
232,144,8276,1,0
312,216,8707,1,0
368,128,9139,2,0,B|376:200|464:208,1,120.000000596046
464,296,10002,1,0
376,328,10434,2,0,B|352:256|272:256,1,120.000000596046
440,176,11297,69,0
352,128,11729,2,0,B|296:160|232:120,1,120.000000596046
160,168,12592,1,0
232,216,13024,2,0,B|200:256|184:288|216:352,1,120.000000596046
328,320,13887,6,0,B|400:344|456:280,1,120.000000596046
400,216,14750,1,2
432,136,15182,1,2
344,144,15614,1,2
280,208,16045,1,0
256,104,16477,69,2
192,152,16909,1,2
112,136,17340,1,2
80,64,17772,1,2
256,192,18204,12,0,19499
272,240,19930,21,0
184,288,20362,1,0
112,224,20794,1,0
192,168,21225,1,0
264,88,21657,2,0,B|344:80|384:136,1,120.000000596046
432,200,22520,1,2
424,216,22952,1,2
392,320,23384,5,0
264,352,23815,1,0
136,312,24247,1,0
64,224,24679,2,0,B|48:184|48:128|112:104,1,120.000000596046
192,144,25542,1,0
280,184,25973,1,2
304,192,26405,1,2
448,232,26837,6,0,B|416:304|336:312,1,120.000000596046
320,240,27700,2,0,B|264:240|216:160,1,120.000000596046
312,144,28563,1,0
272,72,28995,2,0,B|344:32|400:96,1,120.000000596046
432,168,29858,1,2
416,272,30290,6,0,B|368:320|296:312,1,120.000000596046
280,232,31153,1,0
192,200,31585,2,0,B|168:128|240:80,1,120.000000596046
336,48,32448,1,0
408,128,32880,1,4
408,128,33312,1,4
256,112,33743,37,0
168,200,34175,1,0
352,200,34607,1,0
256,288,35038,1,6
160,336,35470,5,0
352,336,35902,1,0
256,232,36333,1,0
256,232,36765,1,6
256,192,37196,12,0,38491
48,48,38923,6,0,B|128:104|120:168,1,120.000000596046
72,208,39786,1,0
144,272,40218,1,6
232,216,40650,6,0,B|304:240|360:176,1,120.000000596046
432,232,41513,1,0
440,136,41945,1,6
296,168,42376,54,0,B|224:192|176:144,1,120.000000596046
200,64,43240,1,0
96,112,43671,1,6
256,192,44103,12,0,45398
256,192,45830,12,0,47125
112,70,61369,38,0,B|56:144|136:192,1,120.000000596046
208,160,62232,1,0
256,224,62664,1,0
328,272,63096,2,0,B|384:216|336:147,1,120.000000596046
400,88,63959,1,0
312,40,64391,1,0
194,48,64822,6,0,B|152:48|104:56|88:128,1,120.000000596046
168,200,65686,2,0,B|165:286|253:294,1,120.000000596046
296,184,66549,1,0
408,240,66981,2,0,B|488:200|480:136,1,120.000000596046
376,96,67844,69,0
288,56,68276,2,0,B|232:24|152:72,1,120.000000596046
136,144,69139,1,0
224,192,69571,1,0
152,272,70002,1,0
264,312,70434,2,0,B|344:280|360:232,1,120.000000596046
432,192,71297,1,0
456,96,71729,5,0
376,64,72161,1,0
304,112,72592,1,0
216,80,73024,2,0,B|176:128|216:192,1,120.000000596046
128,288,73887,2,0,B|134:290|176:344|248:304,1,120.000000596046
336,320,74750,70,2,B|373:263|341:199,1,120.000000596046
424,128,75614,2,2,B|381:88|301:112,1,120.000000596046
176,72,76477,6,2,B|140:135|177:192,1,120.000000596046
120,256,77340,2,2,B|160:296|256:264,1,120.000000596046
328,304,78204,70,2,B|368:248|344:184,1,120.000000596046
384,112,79067,2,2,B|328:88|256:104,1,120.000000596046
183,133,79930,1,6
72,157,80362,22,0,B|48:240|120:272,1,120.000000596046
192,240,81225,1,0
264,296,81657,2,0,B|320:248|304:176,1,120.000000596046
392,144,82520,1,0
336,80,82952,1,0
248,88,83384,1,2
136,48,83815,5,0
64,112,84247,2,0,B|16:176|80:240,1,120.000000596046
168,272,85110,2,0,B|232:312|303:257,1,120.000000596046
312,192,85973,1,0
408,152,86405,1,0
328,96,86837,1,2
192,48,87268,6,0,B|128:48|88:128,1,120.000000596046
152,224,88132,2,0,B|176:296|264:296,1,120.000000596046
320,224,88995,2,0,B|416:223|424:152,1,120.000000596046
344,112,89858,2,0,B|311:60|223:44,1,120.000000596046,2|2
136,72,90722,5,0
72,152,91153,1,0
168,192,91585,1,0
104,280,92017,1,0
216,336,92448,1,0
336,320,92880,1,0
424,224,93312,1,2
424,224,93743,1,2
256,192,94175,12,0,95470
206,45,95902,38,0,B|136:72|112:144,1,120.000000596046
200,168,96765,2,0,B|216:232|312:240,1,120.000000596046,0|2
336,176,97628,2,0,B|408:168|432:80,1,120.000000596046
336,88,98491,2,0,B|320:24|232:24,1,120.000000596046,0|2
256,192,99355,12,0,100650
72,48,101081,5,2
176,104,101513,1,0
272,48,101945,2,0,B|354:71|378:135,1,120.000000596046,0|2
453,261,102808,5,2
352,320,103240,1,0
248,248,103671,2,0,B|176:248|124:178,1,120.000000596046,0|2
104,104,104535,5,2
208,80,104966,1,0
298,42,105398,2,0,B|368:64|408:128,1,120.000000596046,0|2
256,192,106261,12,6,107555
432,77,121801,5,0
472,184,122232,1,0
400,264,122664,1,2
296,232,123096,2,0,B|224:248|176:176,1,120.000000596046
256,208,123959,1,2
216,128,124391,2,0,B|280:96|336:136,1,120.000000596046
428,82,125254,5,2
448,176,125686,2,0,B|440:248|368:280,1,120.000000596046
272,304,126549,2,2,B|192:296|152:227,1,120.000000596046
112,176,127412,2,2,B|121:106|201:66,1,120.000000596046
320,56,128276,69,0
432,128,128707,1,2
408,240,129139,1,2
288,296,129571,1,2
176,320,130002,2,2,B|96:296|88:216,1,120.000000596046
160,144,130866,1,2
224,56,131297,1,2
320,112,131729,6,2,B|393:76|441:132,1,120.000000596046
384,200,132592,2,2,B|344:248|248:240,1,120.000000596046
200,184,133455,1,2
120,136,133887,1,2
192,80,134319,1,2
288,80,134750,1,2
448,104,135182,70,2,B|432:184|368:208,1,120.000000596046
344,304,136045,2,2,B|272:312|208:256,1,120.000000596046
96,216,136909,6,2,B|88:144|160:96,1,120.000000596046
280,64,137772,2,2,B|360:72|400:128,1,120.000000596046
256,192,138635,12,0,139930
456,80,140794,6,0,B|400:112|340:60,1,120.000000596046
248,104,141657,1,0
168,168,142089,2,0,B|112:216|138:298,1,120.000000596046
248,280,142952,1,0
344,296,143384,1,2
344,296,143815,1,2
376,200,144247,6,0,B|456:152|448:80,1,120.000000596046
352,104,145110,2,0,B|280:133|249:198,1,120.000000596046
192,280,145973,1,0
88,200,146405,1,0
160,80,146837,1,2
160,80,147268,1,2
286,40,147700,6,0,B|353:53|392:112,1,120.000000596046
464,136,148563,2,0,B|440:216|360:216,1,120.000000596046
376,304,149427,2,0,B|294:285|262:221,1,120.000000596046
176,208,150290,1,2
176,208,150722,1,2
192,88,151153,6,0,B|280:72|312:128,1,120.000000596046
432,112,152017,2,0,B|409:199|344:216,1,120.000000596046
304,296,152880,2,0,B|232:264|248:184,1,120.000000596046
328,120,153743,1,2
328,120,154175,1,2
216,64,154607,38,0,B|128:88|104:160,1,150.000000745058
184,240,155470,2,0,B|232:312|335:306,1,155.999993633747
360,232,156333,2,0,B|435:187|446:109,1,150.000000745057
336,88,157196,2,0,B|290:27|192:40,1,150.000000745057
256,192,158060,12,0,159355
256,192,159786,12,0,161081
85,109,161513,6,0,B|159:60|256:73,1,150.000000745057
361,82,162376,1,0
361,82,162808,1,2
424,216,163240,6,0,B|373:284|293:298,1,150.000000745057
157,260,164103,1,0
157,260,164535,1,2
81,147,164966,6,0,B|107:69|177:34,1,150.000000745057
272,80,165830,2,0,B|386:106|402:158,1,150.000000745057,0|2
443,234,166693,69,0
259,313,167125,1,0
75,213,167556,1,0
256,192,167988,12,6,168420
