osu file format v9

[General]
AudioFilename: Leningrad - Net i esche raz net.mp3
AudioLeadIn: 0
PreviewTime: 19850
Countdown: 0
SampleSet: Soft
StackLeniency: 0.7
Mode: 0
LetterboxInBreaks: 1

[Editor]
Bookmarks: 106016
DistanceSpacing: 0.8
BeatDivisor: 4
GridSize: 8

[Metadata]
Title:No and No Again
Artist:Leningrad
Creator:serobor
Version:Easy
Source:
Tags:russian shnurov

[Difficulty]
HPDrainRate:2
CircleSize:3
OverallDifficulty:1
ApproachRate:2
SliderMultiplier:1.50000000596046
SliderTickRate:1

[Events]
//Background and Video events
0,0,"shnur.jpg"
//Break Periods
2,40418,59809
2,101281,120241
//Storyboard Layer 0 (Background)
//Storyboard Layer 1 (Fail)
//Storyboard Layer 2 (Pass)
//Storyboard Layer 3 (Foreground)
//Storyboard Sound Samples
//Background Colour Transformations
3,100,163,162,255

[TimingPoints]
938,431.654676258993,4,2,0,40,1,0
19815,-133.333333333333,4,1,0,80,0,1
33449,-100,4,1,0,75,0,0
74750,-100,4,2,0,80,0,0
80350,-133.333333333333,4,1,0,80,0,1
94012,-100,4,1,0,75,0,0
121789,-100,4,2,0,70,0,0
140782,-133.333333333333,4,1,0,80,0,1
154409,-100,4,1,0,80,0,0

[Colours]
Combo1 : 240,145,0
Combo2 : 87,254,52
Combo3 : 90,67,254
Combo4 : 252,84,84

[HitObjects]
72,64,938,69,0
112,144,1369,1,0
224,64,2232,2,0,B|296:0|392:72,1,150.000000596046
368,152,3096,2,0,B|288:200|224:152,1,150.000000596046
96,136,4391,5,0
176,192,4822,2,0,B|104:256|184:336,1,150.000000596046
400,320,6117,2,0,B|448:248|368:152,1,150.000000596046
320,96,6981,1,0
216,152,7844,70,0,B|160:120|104:128|56:168,1,150.000000596046
40,256,8707,1,0
144,304,9139,2,0,B|200:336|256:328|304:288,1,150.000000596046
392,248,10002,2,0,B|408:184|384:136|328:112,1,150.000000596046
192,56,11297,6,0,B|136:144|200:208|200:208|200:208,1,150.000000596046
288,216,12161,1,0
360,152,12592,1,0
464,224,13024,70,0,B|496:144|440:64,1,150.000000596046
352,48,13887,1,0
272,120,14750,6,0,B|192:88|112:136,1,150.000000596046
80,224,15614,1,0
224,296,16477,70,0,B|304:344|392:296,1,150.000000596046
424,224,17340,1,0
400,96,18204,6,0,B|328:32|248:64,1,150.000000596046
184,120,19067,1,0
248,192,19499,1,0
184,280,19930,6,0,B|288:320|408:240,1,224.999994188547
432,176,21225,2,0,B|480:112|416:56,1,112.499997094273
264,96,22520,1,2
192,144,22952,1,2
96,240,23384,6,0,B|176:312|312:256,1,224.999994188547
416,208,24679,1,0
368,136,25110,1,0
208,88,25973,1,2
128,128,26405,1,2
64,200,26837,6,0,B|64:280|136:296,1,112.499997094273
200,296,27700,2,0,B|272:288|296:208,1,112.499997094273
352,184,28563,2,0,B|368:112|288:96,1,112.499997094273
208,80,29427,1,2
144,136,29858,1,2
56,200,30290,38,0,B|64:336|208:344,1,224.999994188547
288,344,31585,2,0,B|408:328|440:184,1,224.999994188547
408,96,32880,1,2
320,128,33312,1,6
136,80,33743,6,0,B|72:128|112:240,1,150.000000596046
368,304,35038,1,4
376,184,35470,6,0,B|360:128|264:64,1,150.000000596046
88,184,36765,1,4
216,304,37196,6,0,B|296:312|376:256,1,150.000000596046
432,112,38491,1,4
288,72,38923,6,0,B|224:72|144:152,1,150.000000596046
312,296,40218,1,4
96,80,61369,5,0
40,168,61800,2,0,B|48:256|152:296,1,150.000000596046
232,320,62663,2,0,B|336:312|376:232,1,150.000000596046
440,184,63527,2,0,B|400:120|288:88,1,150.000000596046
160,64,64823,6,0,B|64:112|80:216,1,150.000000596046
144,280,65686,1,0
424,280,66549,2,0,B|392:160|312:144,1,150.000000596046
224,128,67413,1,0
64,200,68276,69,0
168,256,68708,2,0,B|208:312|248:336|304:320,1,150.000000596046
392,224,70003,2,0,B|480:160|456:64,1,150.000000596046
360,64,70866,1,0
256,192,71729,6,0,B|176:144|96:200,1,150.000000596046
72,288,72593,1,0
256,192,73024,12,0,73887
120,40,74750,70,2,B|32:72|32:160,1,150.000000596046
104,200,75614,2,2,B|104:304|216:320,1,150.000000596046
280,320,76477,6,2,B|376:304|416:224,1,150.000000596046
464,176,77341,1,2
384,128,77772,1,2
256,192,78204,12,0,79499
184,32,80362,6,0,B|120:72|96:136,3,112.499997094273
96,192,82089,2,0,B|112:264|176:296,1,112.500004738569
272,280,82952,1,2
272,280,83384,1,2
392,304,83816,6,0,B|472:264|448:192,1,112.500004738569
440,128,84679,2,0,B|400:48|336:56,1,112.500004738569
120,168,86405,1,2
120,168,86837,1,2
296,248,87268,6,0,B|360:232|400:200|448:72,1,225.000009477138
320,64,88564,1,0
224,104,88995,1,0
144,288,89859,1,2
144,288,90290,1,2
96,160,90722,6,0,B|152:104|208:96,1,112.499997094273
288,48,91585,2,0,B|368:80|376:120,1,112.499997094273
416,216,92449,1,0
144,240,93312,1,2
144,240,93744,1,2
272,312,94175,6,0,B|352:296|408:208,1,150.000000596046
240,112,95470,1,4
72,208,95902,6,0,B|136:288|208:288,1,150.000000596046
376,176,97196,1,4
240,80,97628,6,0,B|168:40|88:64,1,150.000000596046
72,224,98923,1,4
168,304,99355,6,0,B|256:288|312:208,1,150.000000596046
264,56,100650,2,0,B|424:56,1,150.000000596046
176,48,121801,6,0,B|80:88|48:176,1,150.000000596046
112,232,122664,1,2
344,304,123528,2,0,B|432:272|488:200,1,150.000000596046
400,128,124391,1,2
80,264,125254,6,2,B|160:192|160:120,1,150.000000596046
240,72,126118,2,2,B|296:128|384:128,1,150.000000596046
368,296,127413,1,2
224,256,127844,1,2
136,112,128276,70,2,B|64:176|24:248,1,150.000000596046
72,320,129139,1,0
152,256,129571,1,2
368,312,130434,2,0,B|448:256|464:192,1,150.000000596046
448,112,131298,1,2
288,56,132161,6,2,B|240:72|208:112|184:168,1,150.000000596046
120,216,133024,1,2
56,272,133456,1,2
128,328,133887,2,2,B|248:328|296:288,1,150.000000596046
400,216,135614,70,2,B|448:160|456:56,1,150.000000596046
192,136,137341,6,2,B|104:80|24:96,1,150.000000596046
256,192,139067,12,0,140362
72,128,140794,6,0,B|184:72|296:80,1,224.999994188547
384,128,142089,2,0,B|424:216|440:248,1,112.499997094273
272,296,143384,1,2
272,296,143816,1,2
80,256,144247,6,0,B|120:152|224:56,1,224.999994188547
320,80,145542,1,0
384,144,145974,1,0
96,232,146837,1,2
96,232,147269,1,2
160,328,147700,6,0,B|304:320|376:240,1,225.000009477138
432,176,148995,2,0,B|424:48|256:32,1,225.000009477138
160,104,150290,1,2
160,104,150722,1,2
256,192,151154,12,0,152880
248,184,153744,5,2
248,184,154175,1,2
