osu file format v13

[General]
AudioFilename: Inori~You Raise Me Up~.mp3
AudioLeadIn: 0
PreviewTime: 33425
Countdown: 0
SampleSet: Soft
StackLeniency: 0.7
Mode: 0
LetterboxInBreaks: 0
WidescreenStoryboard: 0

[Editor]
Bookmarks: 25465,33207,70909
DistanceSpacing: 0.8
BeatDivisor: 4
GridSize: 4
TimelineZoom: 0.7

[Metadata]
Title:Inori~You Raise Me Up (TV Size)
TitleUnicode:祈り~You Raise Me Up (TV サイズ)
Artist:Lena Park
ArtistUnicode:박정현
Creator:samplefish
Version:Risen
Source:Romeo x Juliet
Tags:lanturn julie tari opening
BeatmapID:445615
BeatmapSetID:172662

[Difficulty]
HPDrainRate:7
CircleSize:4
OverallDifficulty:7
ApproachRate:8
SliderMultiplier:1.7
SliderTickRate:2

[Events]
//Background and Video events
Video,0,"madokervid.avi"
0,0,"madokaThing.jpg",0,0
//Break Periods
//Storyboard Layer 0 (Background)
//Storyboard Layer 1 (Fail)
//Storyboard Layer 2 (Pass)
//Storyboard Layer 3 (Foreground)
//Storyboard Sound Samples
//Background Colour Transformations
3,100,163,162,255

[TimingPoints]
295,500,4,2,1,75,1,0
295,-129.032258064516,4,2,1,75,0,0
1295,480,4,2,1,75,1,8
1295,-134.408602150538,4,2,1,75,0,8
2255,480,4,2,1,75,1,0
2975,-125,4,2,1,15,0,0
4175,483.870967741935,4,2,1,75,1,0
4175,-133.333333333333,4,2,1,35,0,0
6110,491.803278688525,4,2,1,75,1,0
6110,-131.233595800525,4,2,1,35,0,0
8077,458.015267175573,4,2,1,75,1,0
8077,-141.043723554302,4,2,1,35,0,0
8993,480,4,2,1,35,1,8
8993,-135.135135135135,4,2,1,35,0,8
9953,495.867768595041,4,2,1,35,1,0
9953,-130.208333333333,4,2,1,35,0,0
11936,476.190476190476,4,2,1,35,1,0
11936,-135.50135501355,4,2,1,35,0,0
13840,487.80487804878,4,2,1,35,1,0
13840,-132.275132275132,4,2,1,35,0,0
15791,480,4,2,1,35,1,0
15791,-135.135135135135,4,2,1,35,0,0
18671,521.739130434783,4,2,1,35,1,8
18671,-123.762376237624,4,2,1,35,0,8
19714,483.870967741935,4,2,1,35,1,0
19714,-133.333333333333,4,2,1,35,0,0
20681,451.127819548872,4,2,1,35,1,8
20681,-143.061516452074,4,2,1,35,0,8
21583,495.867768595041,4,2,1,75,1,0
21583,-129.87012987013,4,2,1,35,0,0
23566,451.127819548872,4,2,1,75,1,0
23566,-142.857142857143,4,2,1,35,0,0
24468,500,4,2,1,75,1,8
24468,-128.205128205128,4,2,1,35,0,8
25468,487.80487804878,4,2,1,75,1,0
25468,-131.578947368421,4,2,1,35,0,0
27419,451.127819548872,4,2,1,75,1,0
27419,-142.857142857143,4,2,1,35,0,0
27870,487.80487804878,4,2,1,75,1,8
27870,-131.578947368421,4,2,1,35,0,8
28357,500,4,2,1,35,1,8
28357,-128.205128205128,4,2,1,35,0,8
29357,468.75,4,2,1,35,1,0
29357,-137.741046831956,4,2,1,35,0,0
29825,521.739130434783,4,2,1,35,1,8
29825,-123.762376237624,4,2,1,35,0,8
30346,451.127819548872,4,2,1,35,1,8
30346,-142.857142857143,4,2,1,35,0,8
31248,483.870967741935,4,2,1,35,1,0
31248,-133.333333333333,4,2,1,35,0,0
32215,-100,4,2,1,40,0,0
34877,521.739130434783,4,2,1,45,1,8
34877,-92.7643784786642,4,2,1,55,0,8
35137,491.803278688525,4,2,1,60,1,1
35137,-98.4251968503937,4,2,1,75,0,1
35628,451.127819548872,4,2,1,75,1,9
35628,-107.296137339056,4,2,1,75,0,9
36079,486.223662884927,4,2,1,75,1,9
36079,-100,4,2,1,75,0,9
37051,486.223662884927,4,2,1,75,1,1
41913,-100,4,2,1,75,0,0
42156,-100,4,2,1,75,0,0
42885,483.870967741935,4,2,1,75,1,1
44820,480,4,2,1,75,1,1
44820,-100.806451612903,4,2,1,75,0,1
48660,483.870967741935,4,2,1,75,1,1
48660,-100,4,2,1,75,0,1
49627,495.867768595041,4,2,1,75,1,9
49627,-97.65625,4,2,1,75,0,9
50122,517.241379310345,4,2,1,75,1,9
50122,-93.6329588014981,4,2,1,75,0,9
50380,495.867768595041,4,2,1,75,1,9
50380,-97.65625,4,2,1,75,0,8
50627,481.927710843374,4,2,1,75,1,1
50627,-100.502512562814,4,2,1,75,0,1
55928,521.739130434783,4,2,1,75,1,9
55928,-92.7643784786642,4,2,1,75,0,9
56449,478.08764940239,4,2,1,75,1,1
56449,-101.214574898785,4,2,1,75,0,1
58361,485.82995951417,4,2,1,75,1,1
58361,-100,4,2,1,75,0,1
59818,476.190476190476,4,2,1,75,1,9
59818,-101.626016260163,4,2,1,75,0,9
60294,476.190476190476,4,2,1,75,1,1
62198,495.867768595041,4,2,1,75,1,1
62198,-97.65625,4,2,1,75,0,1
62693,481.154771451484,4,2,1,75,1,9
62693,-100.603621730382,4,2,1,75,0,9
64136,500,4,2,1,75,1,1
64136,-96.8054211035818,4,2,1,75,0,1
64636,483.870967741935,4,2,1,75,1,9
64636,-100,4,2,1,75,0,9
66086,487.80487804878,4,2,1,75,1,1
66086,-99.2063492063492,4,2,1,75,0,0
67061,495.867768595041,4,2,1,75,1,8
67061,-97.65625,4,2,1,75,0,8
67556,487.80487804878,4,2,1,75,1,8
67556,-99.009900990099,4,2,1,75,0,8
68043,483.870967741935,4,2,1,75,1,0
68043,-200,4,2,1,30,0,0
76268,478.468899521531,4,2,1,75,1,8
76268,-200,4,2,1,75,0,8
77703,478.468899521531,4,2,1,75,1,0
78181,487.80487804878,4,2,1,75,1,8
78668,508.474576271186,4,2,1,75,1,8
79176,517.241379310345,4,2,1,75,1,8
79693,530.973451327434,4,2,1,75,1,0
80223,576.923076923077,4,2,1,75,1,8
80799,750,4,2,1,20,1,8
80799,-172.117039586919,4,2,1,20,0,8
81549,895.522388059701,4,2,1,75,1,8
81549,-144.092219020173,4,2,1,20,0,8
82444,1558.44155844156,4,2,1,75,1,0
82444,-82.8500414250207,4,2,1,20,0,0
84002,1666.66666666667,4,2,1,75,1,8
89002,600,4,2,1,20,1,0

[Colours]
Combo1 : 255,128,192
Combo2 : 128,128,192
Combo3 : 255,128,255
Combo4 : 128,128,255

[HitObjects]
84,56,295,5,2,0:0:0:0:
180,292,1295,1,2,0:0:0:0:
328,84,2255,1,2,0:0:0:0:
424,248,2975,5,0,0:0:0:0:
424,248,3215,2,0,L|344:236,1,68,0|0,0:0|0:0,0:0:0:0:
428,92,3695,2,0,L|408:164,1,68,0|0,0:0|0:0,0:0:0:0:
280,308,4175,6,0,P|260:244|276:160,1,127.500004863739,4|0,0:0|0:0,0:0:0:0:
360,140,4900,1,0,0:0:0:0:
480,224,5142,2,0,L|344:236,1,127.500004863739,2|0,0:0|0:0,0:0:0:0:
280,308,5868,1,0,0:0:0:0:
172,232,6110,6,0,L|168:316,1,64.7699995058441,2|0,0:0|0:0,0:0:0:0:
44,264,6601,1,0,0:0:0:0:
208,124,6847,2,0,P|252:152|272:232,1,129.539999011688,0|0,0:0|0:0,0:0:0:0:
96,180,7585,2,0,L|84:97,1,64.7699995058441,0|0,0:0|0:0,0:0:0:0:
308,28,8077,6,0,L|297:91,1,60.2650030437799,2|0,0:0|0:0,0:0:0:0:
448,212,8535,1,0,0:0:0:0:
412,84,8764,1,0,0:0:0:0:
316,188,8993,2,0,P|288:188|248:170,1,62.9000015356446,0|0,0:0|0:0,0:0:0:0:
164,56,9473,2,0,P|208:92|212:113,1,62.9000015356446,2|0,0:0|0:0,0:0:0:0:
8,152,9953,6,0,L|138:135,1,130.5600051,2|0,0:0|0:0,0:0:0:0:
232,248,10696,1,0,0:0:0:0:
444,332,10944,2,0,L|312:348,1,130.5600051,0|0,3:0|0:0,0:0:0:0:
184,356,11688,1,0,0:0:0:0:
324,232,11936,6,0,P|332:192|327:152,1,62.7299986025116,4|0,0:0|0:0,0:0:0:0:
192,32,12412,2,0,P|184:72|189:118,1,62.7299986025116,0|0,0:0|0:0,0:0:0:0:
232,248,12888,2,0,L|90:231,1,125.459997205023,2|0,0:0|0:0,0:0:0:0:
36,104,13602,1,0,0:0:0:0:
36,104,13721,1,0,0:0:0:0:
36,104,13840,6,0,L|23:24,1,64.2600005098755,2|0,0:0|0:0,0:0:0:0:
0,212,14327,2,0,P|-8:272|5:351,1,128.520001019751,0|0,0:0|0:0,0:0:0:0:
160,287,15059,2,0,P|167:224|157:161,1,128.520001019751,0|0,0:0|0:0,0:0:0:0:
120,32,15791,6,0,L|205:23,1,62.9000015356446,2|0,0:0|0:0,0:0:0:0:
282,175,16271,2,0,L|158:161,1,125.800003071289,0|0,0:0|0:0,0:0:0:0:
12,133,16991,1,0,0:0:0:0:
76,264,17231,2,0,L|67:185,1,62.9000015356446,2|0,0:0|0:0,0:0:0:0:
20,324,17711,6,0,P|80:340|144:306,1,125.800003071289,2|0,0:0|0:0,0:0:0:0:
208,208,18431,1,2,0:0:0:0:
55,128,18671,2,0,L|76:264,1,137.360001509082,0|0,3:0|0:0,0:0:0:0:
228,296,19453,1,0,0:0:0:0:
284,132,19714,6,0,P|256:116|206:104,1,63.7500024318696,4|0,0:0|0:0,0:0:0:0:
320,292,20197,2,0,P|348:308|402:320,1,63.7500024318696,0|0,0:0|0:0,0:0:0:0:
396,152,20681,2,0,P|420:92|406:21,1,118.829994197754,2|0,0:0|0:0,0:0:0:0:
272,28,21357,1,0,0:0:0:0:
136,120,21583,6,0,L|-10:107,1,130.899997403412,2|0,0:0|0:0,0:0:0:0:
266,285,22326,2,0,L|136:296,1,130.899997403412,0|0,0:0|0:0,0:0:0:0:
440,264,23070,2,0,P|439:296|436:331,1,65.449998701706,0|0,0:0|0:0,0:0:0:0:
266,285,23566,6,0,P|266:222|276:158,1,118.999996368408,2|0,0:0|0:0,0:0:0:0:
405,165,24242,1,0,0:0:0:0:
319,59,24468,2,0,P|265:51|232:61,1,66.300002225647,0|0,0:0|0:0,0:0:0:0:
96,136,24968,2,0,P|64:137|30:126,1,66.300002225647,2|0,0:0|0:0,0:0:0:0:
180,96,25468,6,0,L|192:249,1,129.199998422852,2|0,0:0|0:0,0:0:0:0:
240,336,26199,1,0,0:0:0:0:
320,200,26443,2,0,P|376:180|450:204,1,129.199998422852,0|0,3:0|0:0,0:0:0:0:
380,288,27175,1,0,0:0:0:0:
256,136,27419,6,0,P|260:100|250:55,1,59.4999981842042,4|0,0:0|0:0,0:0:0:0:
80,40,27870,2,0,P|73:97|86:169,1,129.199998422852,0|2,0:0|0:0,0:0:0:0:
152,248,28607,1,0,0:0:0:0:
240,308,28857,2,0,L|310:299,1,66.300002225647,0|0,0:0|0:0,0:0:0:0:
336,296,29232,1,0,0:0:0:0:
384,292,29357,6,0,P|381:261|375:230,1,61.7100016760834,2|0,0:0|0:0,0:0:0:0:
284,88,29825,2,0,P|349:61|414:63,1,137.360001509082,2|0,0:0|0:0,0:0:0:0:
488,203,30571,2,0,P|435:228|376:231,1,118.999996368408,0|0,0:0|0:0,0:0:0:0:
236,192,31248,6,0,L|231:272,1,63.7500024318696,2|0,0:0|0:0,0:0:0:0:
140,134,31731,2,0,L|135:218,1,63.7500024318696,0|0,0:0|0:0,0:0:0:0:
60,80,32215,2,0,P|108:48|181:47,1,127.5,2|0,0:0|0:0,0:0:0:0:
204,72,32699,2,0,P|220:108|261:133,1,85,2|0,0:0|0:0,0:0:0:0:
336,32,33183,1,2,0:0:0:0:
336,32,33667,5,4,3:0:0:0:
476,120,33909,1,0,3:0:0:0:
476,120,34030,1,0,3:0:0:0:
476,120,34151,1,8,3:0:0:0:
368,180,34393,2,0,L|376:264,1,85,8|0,3:0|0:0,0:0:0:0:
492,356,34877,1,4,3:0:0:0:
304,344,35137,6,0,P|232:336|126:340,1,172.720005376416,4|0,0:0|0:0,0:0:0:0:
4,324,35853,1,0,0:0:0:0:
92,216,36079,2,0,L|80:121,1,85,8|0,0:0|0:0,0:0:0:0:
256,72,36565,2,0,L|267:163,1,85,0|0,0:0|0:0,0:0:0:0:
404,248,37051,6,0,P|344:236|236:294,1,170,0|0,3:0|3:0,0:0:0:0:
344,352,37780,1,0,0:0:0:0:
504,212,38023,2,0,L|492:36,1,170,8|0,0:0|0:0,0:0:0:0:
384,68,38752,1,0,0:0:0:0:
272,136,38995,6,0,P|252:84|252:48,1,85,0|0,3:0|0:0,0:0:0:0:
396,212,39482,2,0,P|416:264|416:300,1,85,0|0,0:0|0:0,0:0:0:0:
288,280,39968,2,0,L|112:296,1,170,8|0,0:0|0:0,0:0:0:0:
72,176,40697,1,0,3:0:0:0:
96,52,40940,1,0,3:0:0:0:
276,144,41183,5,8,0:0:0:0:
276,144,41670,1,0,3:0:0:0:
276,144,41913,2,0,L|368:136,1,85,8|0,0:0|0:0,0:0:0:0:
452,220,42399,1,0,3:0:0:0:
352,304,42642,1,0,3:0:0:0:
232,260,42885,6,0,P|180:200|176:112,1,170,4|0,0:0|3:0,0:0:0:0:
328,44,43610,1,0,0:0:0:0:
452,48,43852,2,0,P|460:88|460:148,1,85,8|0,0:0|0:0,0:0:0:0:
328,288,44336,2,0,P|336:248|336:188,1,85,0|0,0:0|0:0,0:0:0:0:
196,104,44820,5,0,3:0:0:0:
328,44,45060,1,0,0:0:0:0:
448,176,45300,2,0,P|432:264|408:346,1,168.640002882031,0|8,3:0|0:0,0:0:0:0:
157,267,46020,2,0,P|171:184|196:104,1,168.640002882031,0|0,0:0|0:0,0:0:0:0:
328,44,46740,5,0,0:0:0:0:
400,188,46980,1,0,0:0:0:0:
264,112,47220,1,0,0:0:0:0:
408,92,47460,1,2,0:0:0:0:
304,204,47700,2,0,P|284:248|282:291,1,84.3200014410156,8|0,0:0|0:0,0:0:0:0:
400,348,48180,1,0,3:0:0:0:
488,216,48420,5,8,0:0:0:0:
488,216,48540,1,8,0:0:0:0:
488,216,48660,2,0,P|508:171|512:127,1,85,8|8,0:0|0:0,0:0:0:0:
416,64,49143,2,0,L|428:0,2,42.5,8|8|8,3:0|3:0|3:0,0:0:0:0:
288,92,49627,1,0,0:0:0:0:
272,120,49750,1,0,3:0:0:0:
268,148,49874,1,0,0:0:0:0:
276,176,49998,1,0,0:0:0:0:
292,200,50122,2,0,P|304:248|288:297,1,90.7800013020813,0|0,0:0|3:0,0:0:0:0:
128,320,50627,6,0,P|132:260|119:116,1,169.150004194164,4|0,0:0|3:0,0:0:0:0:
16,64,51349,1,0,0:0:0:0:
176,52,51590,2,0,L|272:44,1,84.5750020970822,8|0,0:0|0:0,0:0:0:0:
392,164,52072,2,0,L|296:172,1,85,0|0,3:0|0:0,0:0:0:0:
192,280,52554,6,0,P|264:328|370:340,1,169.150004194164,0|0,3:0|3:0,0:0:0:0:
496,264,53277,1,0,0:0:0:0:
448,88,53518,2,0,P|375:40|272:27,1,169.150004194164,8|0,0:0|3:0,0:0:0:0:
164,124,54241,1,0,0:0:0:0:
40,252,54482,6,0,P|48:300|52:344,1,85,4|0,0:0|0:0,0:0:0:0:
64,136,54964,2,0,P|56:88|52:44,1,85,0|0,0:0|0:0,0:0:0:0:
164,264,55446,2,0,L|343:273,1,169.150004194164,8|0,0:0|0:0,0:0:0:0:
464,168,56188,1,0,3:0:0:0:
376,24,56449,5,0,3:0:0:0:
272,168,56688,1,0,0:0:0:0:
472,68,56927,1,0,0:0:0:0:
284,60,57166,1,0,0:0:0:0:
372,208,57405,2,0,P|384:304|346:388,1,167.959996975818,8|0,0:0|3:0,0:0:0:0:
208,280,58122,1,0,0:0:0:0:
64,232,58361,6,0,P|48:172|44:64,1,170,4|0,3:0|0:0,0:0:0:0:
184,48,59089,1,0,0:0:0:0:
280,184,59332,2,0,L|364:176,1,85,8|0,0:0|0:0,0:0:0:0:
456,368,59818,1,2,0:0:0:0:
344,308,60056,1,0,3:0:0:0:
468,204,60294,6,0,L|472:92,2,85,0|0|0,3:0|0:0|3:0,0:0:0:0:
360,44,61008,1,0,0:0:0:0:
280,184,61246,2,0,P|192:184|100:176,1,170,8|0,0:0|0:0,0:0:0:0:
168,44,61960,1,0,0:0:0:0:
384,140,62198,6,0,P|368:248|365:320,1,174.08,4|0,3:0|0:0,0:0:0:0:
484,228,62933,1,0,0:0:0:0:
490,112,63174,2,0,L|480:29,1,84.4899994069611,8|0,0:0|0:0,0:0:0:0:
296,68,63655,2,0,L|308:169,1,84.4899994069611,0|0,0:0|0:0,0:0:0:0:
224,292,64136,1,8,0:0:0:0:
60,224,64386,5,8,0:0:0:0:
60,224,64877,1,8,3:0:0:0:
60,224,65119,2,0,P|40:144|70:53,1,170,8|0,0:0|0:0,0:0:0:0:
200,16,65846,1,0,0:0:0:0:
272,176,66086,6,0,P|352:178|462:193,1,171.359994770508,4|0,0:0|0:0,0:0:0:0:
336,256,66817,1,0,0:0:0:0:
184,212,67061,1,8,3:0:0:0:
276,344,67308,1,8,3:0:0:0:
272,176,67556,1,8,3:0:0:0:
184,316,67799,1,8,3:0:0:0:
80,216,68043,6,0,B|96:148|76:96|76:96|128:136,2,170
340,348,70946,2,0,P|400:352|456:268,1,170
384,56,72881,5,0,0:0:0:0:
256,196,73365,1,0,0:0:0:0:
256,192,73849,12,4,79693,0:0:0:0:
136,112,80799,6,0,P|116:172|123:209,1,98.7700026826569,2|0,0:0|0:0,0:0:0:0:
256,192,82444,12,4,89002,0:0:0:0:
