osu file format v13

[General]
AudioFilename: Inori~You Raise Me Up~.mp3
AudioLeadIn: 0
PreviewTime: 33425
Countdown: 0
SampleSet: Soft
StackLeniency: 0.7
Mode: 0
LetterboxInBreaks: 0
WidescreenStoryboard: 0

[Editor]
Bookmarks: 25465,33207,70909
DistanceSpacing: 1
BeatDivisor: 4
GridSize: 4
TimelineZoom: 1

[Metadata]
Title:Inori~You Raise Me Up (TV Size)
TitleUnicode:祈り~You Raise Me Up (TV サイズ)
Artist:Lena Park
ArtistUnicode:박정현
Creator:samplefish
Version:Hard
Source:Romeo x Juliet
Tags:lanturn julie tari opening
BeatmapID:417250
BeatmapSetID:172662

[Difficulty]
HPDrainRate:6
CircleSize:4
OverallDifficulty:5
ApproachRate:7
SliderMultiplier:1.4
SliderTickRate:1

[Events]
//Background and Video events
Video,0,"madokervid.avi"
0,0,"madokaThing.jpg",0,0
//Break Periods
//Storyboard Layer 0 (Background)
//Storyboard Layer 1 (Fail)
//Storyboard Layer 2 (Pass)
//Storyboard Layer 3 (Foreground)
//Storyboard Sound Samples
//Background Colour Transformations
3,100,163,162,255

[TimingPoints]
295,500,4,2,1,20,1,0
295,-129.032258064516,4,2,1,20,0,0
1295,480,4,2,1,20,1,8
1295,-134.408602150538,4,2,1,20,0,8
2255,480,4,2,1,20,1,0
2255,-135.135135135135,4,2,1,20,0,0
4175,483.870967741935,4,2,1,20,1,0
4175,-133.333333333333,4,2,1,20,0,0
6110,491.803278688525,4,2,1,20,1,0
6110,-131.233595800525,4,2,1,20,0,0
8077,458.015267175573,4,2,1,20,1,0
8077,-141.043723554302,4,2,1,20,0,0
8993,480,4,2,1,20,1,8
8993,-135.135135135135,4,2,1,20,0,8
9953,495.867768595041,4,2,1,20,1,0
9953,-130.208333333333,4,2,1,20,0,0
11936,476.190476190476,4,2,1,20,1,0
11936,-135.50135501355,4,2,1,20,0,0
13840,487.80487804878,4,2,1,20,1,0
13840,-132.275132275132,4,2,1,20,0,0
15791,480,4,2,1,20,1,0
15791,-135.135135135135,4,2,1,20,0,0
18671,521.739130434783,4,2,1,20,1,8
18671,-123.762376237624,4,2,1,20,0,8
19714,483.870967741935,4,2,1,20,1,0
19714,-133.333333333333,4,2,1,20,0,0
20681,451.127819548872,4,2,1,20,1,8
20681,-143.061516452074,4,2,1,20,0,8
21583,495.867768595041,4,2,1,20,1,0
21583,-129.87012987013,4,2,1,20,0,0
23566,451.127819548872,4,2,1,20,1,0
23566,-142.857142857143,4,2,1,20,0,0
24468,500,4,2,1,20,1,8
24468,-128.205128205128,4,2,1,20,0,8
25468,487.80487804878,4,2,1,20,1,0
25468,-131.578947368421,4,2,1,20,0,0
27419,451.127819548872,4,2,1,20,1,0
27419,-142.857142857143,4,2,1,20,0,0
27870,487.80487804878,4,2,1,20,1,8
27870,-131.578947368421,4,2,1,20,0,8
28357,500,4,2,1,20,1,8
28357,-128.205128205128,4,2,1,20,0,8
29357,468.75,4,2,1,20,1,0
29357,-137.741046831956,4,2,1,20,0,0
29825,521.739130434783,4,2,1,20,1,8
29825,-123.762376237624,4,2,1,20,0,8
30346,451.127819548872,4,2,1,20,1,8
30346,-142.857142857143,4,2,1,20,0,8
31248,483.870967741935,4,2,1,20,1,0
31248,-133.333333333333,4,2,1,20,0,0
32215,-100,4,2,1,30,0,0
34877,521.739130434783,4,2,1,50,1,8
34877,-92.7643784786642,4,2,1,50,0,8
35137,491.803278688525,4,2,1,65,1,1
35137,-98.4251968503937,4,2,1,65,0,1
35628,451.127819548872,4,2,1,65,1,9
35628,-107.296137339056,4,2,1,65,0,9
36079,486.223662884927,4,2,1,65,1,9
36079,-100,4,2,1,65,0,9
37051,486.223662884927,4,2,1,65,1,1
41913,-100,4,2,1,65,0,0
42885,483.870967741935,4,2,1,65,1,1
44820,480,4,2,1,65,1,1
44820,-100.806451612903,4,2,1,65,0,1
48660,483.870967741935,4,2,1,65,1,1
48660,-100,4,2,1,65,0,1
49627,495.867768595041,4,2,1,65,1,9
49627,-97.65625,4,2,1,65,0,9
50122,517.241379310345,4,2,1,50,1,9
50122,-93.6329588014981,4,2,1,50,0,9
50380,495.867768595041,4,2,1,50,1,9
50380,-97.65625,4,2,1,50,0,8
50627,481.927710843374,4,2,1,65,1,1
50627,-100.502512562814,4,2,1,65,0,1
55928,521.739130434783,4,2,1,65,1,9
55928,-92.7643784786642,4,2,1,65,0,9
56449,478.08764940239,4,2,1,65,1,1
56449,-101.214574898785,4,2,1,65,0,1
58361,485.82995951417,4,2,1,65,1,1
58361,-100,4,2,1,65,0,1
59818,476.190476190476,4,2,1,65,1,9
59818,-101.626016260163,4,2,1,65,0,9
60294,476.190476190476,4,2,1,65,1,1
62198,495.867768595041,4,2,1,65,1,1
62198,-97.65625,4,2,1,65,0,1
62693,481.154771451484,4,2,1,65,1,9
62693,-100.603621730382,4,2,1,65,0,9
64136,500,4,2,1,55,1,1
64136,-96.8054211035818,4,2,1,55,0,1
64636,483.870967741935,4,2,1,55,1,9
66086,487.80487804878,4,2,1,55,1,0
66086,-99.2063492063492,4,2,1,55,0,0
67061,495.867768595041,4,2,1,55,1,8
67061,-97.65625,4,2,1,55,0,8
67556,487.80487804878,4,2,1,55,1,8
67556,-99.009900990099,4,2,1,55,0,8
68043,483.870967741935,4,2,1,55,1,0
68043,-200,4,2,1,55,0,0
76268,478.468899521531,4,2,1,75,1,8
76268,-200,4,2,1,75,0,8
77703,478.468899521531,4,2,1,75,1,0
78181,487.80487804878,4,2,1,75,1,8
78668,508.474576271186,4,2,1,75,1,8
78668,-100,4,2,1,20,0,8
79176,517.241379310345,4,2,1,20,1,8
79693,530.973451327434,4,2,1,20,1,0
79693,-182.481751824818,4,2,1,20,0,0
80223,576.923076923077,4,2,1,20,1,8
80799,750,4,2,1,20,1,8
80799,-172.117039586919,4,2,1,20,0,8
81549,895.522388059701,4,2,1,20,1,8
81549,-144.092219020173,4,2,1,20,0,8
82444,1558.44155844156,4,2,1,20,1,0
82444,-82.8500414250207,4,2,1,20,0,0
84002,1666.66666666667,4,2,1,20,1,8
89002,600,4,2,1,20,1,0

[Colours]
Combo1 : 255,128,192
Combo2 : 128,128,192
Combo3 : 255,128,255
Combo4 : 128,128,255

[HitObjects]
120,192,295,5,0,0:0:0:0:
92,148,1295,1,0,0:0:0:0:
64,108,2255,1,0,0:0:0:0:
45,71,2975,1,0,0:0:0:0:
45,71,3215,2,0,P|100:104|160:92,1,103.600002529297
236,48,4175,6,0,L|246:152,2,105.000004005432,2|0|0,0:0|0:0|0:0,0:0:0:0:
176,176,5868,1,0,0:0:0:0:
176,176,6110,2,0,P|208:216|276:216,1,106.679999186096,2|0,0:0|0:0,0:0:0:0:
308,204,6847,1,0,0:0:0:0:
176,176,7831,1,0,0:0:0:0:
176,176,8077,6,0,P|144:256|184:300,1,148.890007519927,2|0,0:0|0:0,0:0:0:0:
240,300,8993,2,0,P|268:296|296:300,1,51.8000012646485
342,306,9473,1,2,0:0:0:0:
444,340,9953,1,2,0:0:0:0:
444,340,10696,2,0,L|448:276,1,53.7600021000001
453,182,11440,1,0,0:0:0:0:
444,72,11936,6,0,B|384:80|356:136|356:136|299:135|264:180,1,206.639995396509,4|0,0:0|0:0,0:0:0:0:
184,312,13602,1,0,0:0:0:0:
184,312,13840,2,0,P|142:283|124:232,1,105.840000839795,2|0,0:0|0:0,0:0:0:0:
40,100,15059,2,0,P|87:80|144:84,1,105.840000839795
186,106,15791,6,0,P|241:114|296:84,1,103.600002529297,2|0,0:0|0:0,0:0:0:0:
368,30,16751,1,0,0:0:0:0:
368,30,17231,2,0,L|373:136,1,103.600002529297,2|2,0:0|0:0,0:0:0:0:
432,246,18431,1,2,0:0:0:0:
432,246,18671,2,0,P|383:262|320:250,1,113.120001242773
375,153,19714,22,0,P|275:160|224:248,1,210.000008010865,4|0,0:0|0:0,0:0:0:0:
136,376,21357,1,0,0:0:0:0:
136,376,21583,2,0,B|80:340|75:275,1,107.799997861633,2|0,0:0|0:0,0:0:0:0:
64,241,22326,2,0,P|63:211|50:184,1,53.8999989308167
24,96,23070,2,0,P|52:96|82:79,1,53.8999989308167
124,68,23566,6,0,B|166:70|191:49|191:49|228:121|313:89,1,195.999994018555,2|0,0:0|0:0,0:0:0:0:
396,29,24968,1,2,0:0:0:0:
410,175,25468,1,2,0:0:0:0:
240,316,26199,1,0,0:0:0:0:
240,316,26443,2,0,P|184:332|122:308,1,106.399998701172,2|0,0:0|0:0,0:0:0:0:
36,316,27419,6,0,B|32:264|76:232|76:232|8:200|21:151,1,204,4|0,0:0|0:0,0:0:0:0:
192,32,29107,1,0,0:0:0:0:
192,32,29357,2,0,P|268:38|312:43,1,101.640002760608,2|0,0:0|0:0,0:0:0:0:
452,64,30571,2,0,P|456:120|425:171,1,97.9999970092774
396,200,31248,6,0,B|368:220|360:260|360:260|308:268|308:268|308:320|277:351,1,210.000008010865,2|2,0:0|0:0,0:0:0:0:
156,268,32699,1,2,0:0:0:0:
236,100,33183,1,2,0:0:0:0:
380,216,33667,5,8,3:0:0:0:
472,280,33909,2,0,P|494:290|512:316,2,35,8|8|8,3:0|3:0|3:0,0:0:0:0:
367,313,34393,1,8,3:0:0:0:
257,336,34635,1,8,3:0:0:0:
147,313,34877,1,8,3:0:0:0:
57,245,35137,6,0,P|93:117|218:74,1,273,4|8,0:0|0:0,0:0:0:0:
433,93,36808,1,0,0:0:0:0:
486,145,37051,2,0,B|464:168|436:168|436:168|424:224|386:227,1,140,4|0,0:0|0:0,0:0:0:0:
360,156,37780,1,0,0:0:0:0:
312,216,38023,2,0,P|339:284|423:291,1,140,8|0,0:0|0:0,0:0:0:0:
387,227,38752,1,0,0:0:0:0:
312,216,38995,6,0,B|264:224|240:260|240:260|192:160|80:166,2,280,2|8|0,0:0|0:0|0:0,0:0:0:0:
312,216,41183,1,8,0:0:0:0:
152,316,41670,2,0,P|136:294|125:231,1,70,0|8,0:0|0:0,0:0:0:0:
200,96,42399,1,0,3:0:0:0:
298,41,42642,1,0,3:0:0:0:
380,120,42885,6,0,P|360:240|215:291,1,280,4|8,0:0|0:0,0:0:0:0:
52,208,44578,1,0,0:0:0:0:
52,208,44820,2,0,P|46:149|41:64,1,138.880002373438
180,68,45780,1,8,0:0:0:0:
180,68,46020,2,0,P|248:96|326:59,1,138.880002373438
380,88,46740,6,0,B|376:124|338:146|338:146|396:252|290:324,1,277.760004746875,4|8,0:0|0:0,0:0:0:0:
148,332,48180,1,0,0:0:0:0:
72,260,48420,5,8,0:0:0:0:
72,260,48540,1,8,0:0:0:0:
72,260,48660,1,8,0:0:0:0:
136,176,48901,1,8,0:0:0:0:
56,108,49143,2,0,P|31:117|6:115,2,35,8|8|8,3:0|3:0|3:0,0:0:0:0:
156,68,49627,1,8,3:0:0:0:
176,64,49750,1,0,0:0:0:0:
196,68,49874,1,8,3:0:0:0:
216,72,49998,1,0,0:0:0:0:
236,68,50122,1,8,3:0:0:0:
340,52,50380,1,2,3:0:0:0:
412,280,50627,6,0,P|299:357|154:322,1,278.600006908035,4|8,0:0|0:0,0:0:0:0:
56,144,52313,1,0,0:0:0:0:
192,80,52554,2,0,P|208:140|176:217,1,139.300003454018,2|0,0:0|0:0,0:0:0:0:
44,320,53277,1,0,0:0:0:0:
44,320,53518,2,0,P|108:344|184:318,1,139.300003454018,8|0,0:0|0:0,0:0:0:0:
308,288,54482,6,0,B|380:276|444:316|444:316|432:236|444:171,2,284.25,4|8|4,0:0|0:0|0:0,0:0:0:0:
92,372,57166,1,0,0:0:0:0:
92,372,57405,2,0,P|71:262|63:231,1,138.319997509497,8|0,0:0|0:0,0:0:0:0:
48,160,58122,1,0,0:0:0:0:
32,84,58361,6,0,P|92:40|176:65,1,140,0|0,0:0|0:0,0:0:0:0:
280,124,59332,1,8,0:0:0:0:
484,68,60056,1,0,0:0:0:0:
484,68,60294,2,0,P|508:144|472:193,1,140
410,215,61008,1,0,0:0:0:0:
344,243,61246,2,0,P|309:302|345:366,1,140,8|0,0:0|0:0,0:0:0:0:
384,304,61960,1,0,0:0:0:0:
343,243,62198,6,0,P|281:216|207:233,1,143.36
98,310,63174,1,8,0:0:0:0:
5,196,63655,2,0,P|70:149|147:177,1,139.15999902323,0|0,0:0|0:0,3:0:0:0:
214,231,64386,1,8,3:0:0:0:
214,231,64877,5,8,3:0:0:0:
82,227,65119,2,0,L|50:78,1,140,8|0,0:0|0:0,3:0:0:0:
196,76,66086,6,0,P|272:183|401:149,1,282.239991386719,4|8,0:0|3:0,0:0:0:0:
408,32,67308,1,8,3:0:0:0:
292,64,67556,1,8,3:0:0:0:
264,180,67799,1,8,3:0:0:0:
360,276,68043,6,0,P|178:324|140:130,1,420
256,120,72881,2,0,L|256:192,1,70
256,192,73849,12,2,78668,0:0:0:0:
128,200,79693,6,0,P|152:252|181:268,1,76.7200005619141,4|2,0:0|0:0,0:0:0:0:
296,288,80799,2,0,P|324:288|385:265,1,81.3400022092469,2|2,0:0|0:0,0:0:0:0:
256,192,82444,12,4,89002,0:0:0:0:
