osu file format v9

[General]
AudioFilename: Esc 2010 Germany - Lena Meyer-Landrut - Satellite.mp3
AudioLeadIn: 0
PreviewTime: 29590
Countdown: 1
SampleSet: Normal
StackLeniency: 0.7
Mode: 0
LetterboxInBreaks: 1

[Editor]
DistanceSpacing: 0.83
BeatDivisor: 4
GridSize: 4

[Metadata]
Title:Satellite
Artist:Lena
Creator:Ekaru
Version:Hard
Source:Eurovision Song Contest 2010
Tags:Meyer-Landrut My Casette Player Larto Lilac MarioBros777 lepidopodus

[Difficulty]
HPDrainRate:6
CircleSize:4
OverallDifficulty:7
ApproachRate:7
SliderMultiplier:2
SliderTickRate:2

[Events]
//Background and Video events
0,0,"new-earth.jpg"
//Break Periods
2,49685,53637
2,121527,123111
//Storyboard Layer 0 (Background)
//Storyboard Layer 1 (Fail)
//Storyboard Layer 2 (Pass)
//Storyboard Layer 3 (Foreground)
//Storyboard Sound Samples
//Background Colour Transformations
3,100,163,162,255

[TimingPoints]
222,315.789473684211,4,1,0,60,1,0
49248,-100,4,2,0,70,0,0
52011,-100,4,2,0,80,0,0
59274,-100,4,1,0,60,0,0
112169,-100,4,2,0,60,0,0
114064,-100,4,1,0,60,0,0
119037,-100,4,2,0,75,0,0
120222,-100,4,1,0,60,0,0
135379,-100,4,1,0,60,0,1
163169,-100,4,1,0,60,0,0

[Colours]
Combo1 : 255,255,0
Combo2 : 5,240,5
Combo3 : 0,255,255
Combo4 : 255,0,128

[HitObjects]
264,80,10327,1,0
112,32,10643,1,8
112,112,10801,2,0,B|168:232|272:248,1,200
376,144,11432,1,0
504,240,11748,1,0
376,336,12064,1,0
220,360,12379,1,0
220,360,12538,1,8
146,359,12696,6,0,B|144:304|204:260|268:284|284:336,1,200
216,200,13327,1,0
272,48,13643,1,0
112,72,13959,1,0
260,130,14275,1,0
332,162,14432,2,0,B|423:214|356:321|282:288,1,200,8|0
270,216,14906,1,0
191,201,15064,1,8
216,276,15222,5,0
137,260,15379,1,0
112,104,15695,1,8
264,64,16011,1,0
264,64,16169,1,0
400,152,16485,1,0
248,184,16800,2,0,B|328:224|184:296|256:368,1,200
250,361,17274,1,8
88,320,17590,6,0,B|56:204|96:88|200:24|312:24|416:88|456:204|424:320,1,700,8|0
340,353,18853,1,0
256,380,19011,2,2,B|256:180,1,200
256,32,20432,5,0
160,160,20748,1,8
8,200,21064,1,0
8,200,21222,1,0
56,48,21537,1,0
88,204,21853,1,0
145,260,22011,2,0,B|256:235|272:112,1,200,8|0
408,40,22643,5,8
448,112,22800,1,0
432,192,22958,1,0
288,128,23274,1,8
288,128,23432,1,0
168,240,23748,1,0
312,312,24064,1,0
160,368,24379,1,0
80,352,24537,2,0,B|24:240|120:168,1,200,8|0
240,72,25169,1,8
80,56,25485,5,0
208,144,25800,1,8
360,88,26116,1,0
360,168,26274,1,0
360,248,26432,1,8
232,344,26748,2,0,B|120:344,1,100
88,272,27064,2,0,B|208:272,1,100,8|0
64,168,27537,6,0,B|72:64|184:16|184:16|184:176|184:176|280:176|256:16|328:-16|400:8|440:64,1,700
472,128,28800,1,0
448,208,28958,1,8
368,240,29116,1,0
136,240,29590,1,8
136,240,29748,1,0
136,80,30064,1,0
136,160,30222,1,8
256,56,30537,6,0,B|256:272,1,200,2|0
392,344,31169,2,0,B|392:128,1,200,2|0
392,64,31643,2,0,B|480:80|512:120|512:192|504:216|472:240|448:256|456:312|488:328,1,300,2|0
232,296,32590,6,0,B|240:232|176:208,1,100
152,288,32906,2,0,B|101:269|109:205,1,100
152,136,33222,1,0
224,96,33379,1,0
280,32,33537,1,0
360,48,33695,2,0,B|448:56|472:168|400:208,1,200,0|2
344,168,34169,2,0,B|328:248|384:296|456:304|512:232|512:176|512:144,1,300,0|2
504,80,34800,1,2
496,352,35116,6,0,B|280:352,1,200
208,352,35590,1,2
208,192,35906,1,0
320,80,36222,2,0,B|248:112|208:48|208:48|128:48,1,200,2|0
64,80,36695,2,0,B|48:200|160:256,1,200,2|0
224,272,37169,1,2
304,256,37327,2,0,B|432:256|472:360,1,200,2|2
304,344,37958,6,0,B|192:384|128:304|152:264,1,200,2|0
152,200,38432,1,2
168,120,38590,1,0
312,56,38906,1,0
440,144,39222,1,2
440,144,39379,1,2
256,24,40643,5,2
80,160,40958,1,0
208,336,41274,2,0,B|312:336|312:336|312:224,1,200,2|0
232,264,41748,2,0,B|232:160|232:160|360:160,1,200,2|0
440,48,42379,5,0
280,24,42695,1,2
208,48,42853,1,2
184,120,43011,2,0,B|184:240|328:240,1,200
392,240,43485,1,2
432,312,43643,1,2
360,352,43800,2,0,B|232:352|232:208,1,200
152,216,44274,2,0,B|24:216|24:80,1,200
176,48,44906,1,2
312,128,45222,6,0,B|416:160|456:272,1,200,2|0
464,344,45695,1,0
304,320,46011,1,2
208,192,46327,1,0
168,120,46485,1,2
104,176,46643,1,2
147,246,46800,2,0,B|80:272|24:240|8:192|24:144|48:120,1,200
152,32,47432,1,2
304,104,47748,1,2
472,96,48064,5,0
472,176,48222,2,2,B|464:240|408:264,1,100
344,296,48537,1,0
264,264,48695,1,0
104,120,49011,1,0
104,336,49327,1,2
104,336,49485,1,0
112,328,54537,5,0
280,304,54853,1,0
232,144,55169,1,0
288,80,55327,1,0
424,176,55643,1,0
264,224,55958,1,0
184,216,56116,2,0,B|96:152|120:32,1,200,2|0
288,80,56748,5,0
328,152,56906,2,0,B|368:264,1,100,2|0
464,112,57379,1,0
464,112,57537,1,0
440,280,57853,1,0
288,344,58169,1,0
160,240,58485,1,0
96,288,58643,2,0,B|24:208|40:96,2,200,2|2|0
160,344,59432,5,0
224,288,59590,1,0
224,120,59906,1,8
400,120,60222,1,0
400,288,60537,1,8
312,288,60695,1,0
312,120,61011,1,0
136,120,61327,1,0
136,120,61485,1,8
48,288,61800,6,0,B|136:232,1,100,8|0
160,320,62116,2,0,B|224:232,1,100
232,160,62432,2,0,B|240:48,1,100,8|0
408,80,62906,2,0,B|360:128|360:128|400:160|400:216|336:232,1,200
256,192,64643,5,0
88,168,64958,1,8
200,40,65274,1,0
352,104,65590,1,8
352,272,65906,1,0
352,272,66064,1,0
200,328,66379,1,0
232,176,66695,1,0
232,176,66853,1,8
168,32,67169,1,0
328,88,67485,6,0,B|434:112|389:192|389:192|491:227|431:331,1,300
272,352,68274,1,8
96,224,68590,1,8
240,80,68906,1,8
400,168,69222,5,0
384,240,69379,1,8
320,272,69537,1,0
248,256,69695,2,0,B|184:352,1,100
128,304,70011,2,0,B|184:216,1,100,8|0
160,56,70485,1,0
328,56,70800,1,0
432,184,71116,1,0
264,184,71432,1,0
264,184,71590,1,8
96,184,71906,5,8
176,328,72222,1,0
256,320,72379,1,0
320,272,72537,1,8
336,192,72695,1,0
264,40,73011,1,0
184,48,73169,1,8
120,104,73327,2,2,B|264:264,1,200
156,372,74748,6,0,B|364:372,1,200,2|0
356,232,75379,2,0,B|132:232,1,200,2|0
256,160,75853,2,0,B|256:48,3,100,2|0|2|0
176,312,76800,6,0,B|72:264|64:136,1,200
88,72,77274,1,2
160,120,77432,2,0,B|232:48|352:48,1,200
320,128,77906,2,2,B|440:176|392:320,1,200
328,256,78379,2,0,B|216:208|120:240|64:344,1,300,2|2
16,272,79011,2,2,B|16:64,1,200
256,32,79643,5,0
336,64,79800,2,0,B|432:128|432:264,1,200,2|0
296,128,80432,2,0,B|184:160|168:296,1,200,2|0
256,272,80906,2,0,B|384:272,3,100,2|0|2|0
272,40,81853,6,0,B|384:-8|464:80,1,200,2|0
488,152,82327,1,0
448,224,82485,1,0
368,232,82643,1,2
408,304,82800,1,2
128,256,83116,1,2
352,112,83432,1,0
352,112,83590,1,2
256,344,84853,5,8
256,176,85169,1,8
256,8,85485,2,0,B|128:32|72:160,1,200,2|0
96,200,85958,2,0,B|192:264|296:272|408:264,1,300,0|2
464,256,86590,1,0
408,104,86906,1,0
328,112,87064,1,2
248,120,87222,6,0,B|32:128,1,200
64,208,87695,1,2
88,288,87853,2,0,B|296:296,1,200
336,224,88327,1,2
392,280,88485,2,2,B|448:80,1,200
288,144,89116,1,2
136,72,89432,5,0
136,152,89590,1,2
152,232,89748,1,0
208,296,89906,2,0,B|400:176,1,200,0|2
408,24,90537,1,0
464,88,90695,1,0
496,168,90853,1,2
504,248,91011,2,2,B|392:232|336:112,1,200
200,56,91643,6,8,B|200:264,1,200
288,112,92274,2,0,B|376:192|352:320|232:384|120:336,1,400
64,184,93222,1,4
256,24,93695,6,0,B|256:248,1,200,2|0
356,356,94327,2,0,B|148:356,1,200,2|0
72,356,94800,2,0,B|72:251,3,100,2|0|2|0
176,32,95748,5,0
184,112,95906,2,0,B|392:112,1,200,2|0
392,192,96379,1,0
400,272,96537,2,0,B|80:272,1,300,2|0
88,352,97169,1,2
171,352,97327,2,0,B|283:352,1,100,0|2
354,352,97643,1,0
436,352,97800,1,2
436,352,97958,1,2
0,192,98748,6,0,B|232:192,1,200,2|0
333,93,99379,2,0,B|333:309,1,200,2|0
408,192,99853,2,0,B|512:192,2,100,2|0|2
424,336,100485,5,0
256,336,100800,1,0
88,336,101116,1,8
88,336,101274,1,0
176,192,101590,1,0
176,192,101748,1,8
336,16,102064,1,8
480,192,102379,1,4
256,32,103800,5,0
256,136,104116,1,0
256,136,104274,1,8
256,240,104590,1,8
256,352,105064,5,0
144,352,105379,1,0
144,352,105537,1,8
40,320,105853,1,8
24,192,106327,5,0
160,192,106643,1,0
160,192,106800,1,8
304,192,107116,1,8
440,152,107432,1,4
428,292,107748,2,0,B|396:368|308:372|308:372|312:308|256:272|200:308|204:372|204:372|116:368|84:292,1,500,0|2
40,224,108695,1,2
128,112,109011,5,0
168,264,109327,1,0
320,208,109643,1,0
464,336,110116,5,4
160,192,110748,1,4
464,48,111379,1,4
128,88,112327,5,2
128,160,112958,1,2
128,232,113590,1,2
440,336,114222,5,0
440,336,114379,1,8
272,336,114695,1,8
440,48,115485,5,0
440,48,115643,1,8
272,48,115958,1,8
40,192,116748,5,0
40,192,116906,1,2
208,192,117222,1,0
376,192,117537,2,2,B|360:304|248:336,1,200
176,304,118011,1,0
120,240,118169,1,2
120,160,118327,1,0
240,40,118643,1,0
240,40,118800,1,2
408,24,119116,5,0
408,192,119432,1,2
408,360,119748,1,4
72,264,120537,5,0
256,88,120853,1,0
256,88,121011,1,0
440,264,121327,1,4
496,32,124011,5,0
248,32,124485,1,0
80,32,124800,1,8
80,32,124958,1,8
32,192,125274,5,0
280,192,125748,1,0
448,192,126064,1,8
448,192,126222,1,8
480,352,126537,5,0
232,352,127011,1,0
64,352,127327,1,8
64,352,127485,1,8
144,208,127800,5,0
344,56,128274,1,0
176,56,128590,1,8
176,56,128748,1,8
296,176,129064,5,0
472,352,129537,1,0
352,240,129853,1,8
352,240,130011,1,8
216,208,130327,5,0
40,32,130800,1,0
152,152,131116,1,8
152,152,131274,1,8
256,368,131590,5,0
256,120,132064,1,0
256,288,132379,1,8
256,288,132537,1,8
256,40,132853,5,4
96,192,134116,5,0
424,192,134432,1,0
424,192,134590,1,0
256,32,135379,6,0,B|256:240,1,200,2|0
356,364,136011,2,0,B|148:364,1,200,2|0
80,336,136485,1,2
72,256,136643,1,0
144,216,136800,1,2
152,296,136958,1,0
376,192,137432,5,0
312,144,137590,2,0,B|192:144,1,100,2|0
160,80,137906,1,0
240,72,138064,2,0,B|352:72,1,100,0|2
416,40,138379,1,0
480,96,138537,2,2,B|480:304,1,200
408,256,139011,2,2,B|336:352|224:288,1,200
144,152,139643,1,2
256,368,140432,5,2
256,32,141064,1,2
256,272,141537,1,2
336,272,141695,1,0
416,272,141853,1,2
496,272,142011,1,0
480,192,142169,1,2
480,192,142485,1,0
312,192,142800,5,0
232,184,142958,1,2
152,168,143116,1,0
72,144,143274,1,2
0,112,143432,1,2
208,32,143748,1,2
400,112,144064,1,0
400,112,144222,1,2
128,304,145485,5,2
296,304,145800,1,0
440,216,146116,2,0,B|224:216,1,200,2|0
216,296,146590,2,0,B|184:272|160:240|144:184|200:144|240:136|240:136|240:32,1,300,2|0
328,88,147222,1,2
296,248,147537,5,0
280,328,147695,1,0
341,383,147853,2,0,B|413:383|477:343|477:255,1,200
400,248,148327,1,2
448,184,148485,1,0
400,112,148643,2,2,B|176:112,1,200
120,112,149116,1,2
120,112,149274,1,0
120,280,149590,1,0
120,280,149748,1,2
464,40,150537,5,2
296,216,150853,1,0
96,72,151169,1,2
56,144,151327,1,0
48,224,151485,1,0
104,280,151643,2,2,B|128:160|256:152,1,200
432,64,152274,1,0
440,312,152590,1,2
280,344,152906,5,0
248,264,153064,1,2
216,184,153222,1,0
192,104,153379,1,2
160,24,153537,1,2
32,208,153853,1,2
256,24,154327,6,0,B|256:248,1,200,2|0
156,356,154959,2,0,B|364:356,1,200,2|0
440,356,155432,2,0,B|440:251,3,100,2|0|2|0
336,32,156380,5,0
328,112,156538,2,0,B|120:112,1,200,2|0
120,192,157011,1,0
112,272,157169,2,0,B|432:272,1,300,2|0
424,352,157801,1,2
341,352,157959,2,0,B|229:352,1,100,0|2
158,352,158275,1,0
76,352,158432,1,2
76,352,158590,1,2
512,192,159380,6,0,B|280:192,1,200,2|0
179,93,160011,2,0,B|179:309,1,200,2|0
104,192,160485,2,0,B|0:192,2,100,2|0|2
88,336,161117,5,0
256,336,161432,1,0
424,336,161748,1,8
424,336,161906,1,0
336,192,162222,1,0
336,192,162380,1,8
176,16,162696,1,8
32,192,163011,1,4
32,272,163169,5,0
200,272,163485,1,8
200,272,163643,1,0
200,104,163958,1,0
200,104,164116,1,0
368,104,164432,5,0
368,272,164748,1,8
368,272,164906,1,0
288,128,165222,1,0
288,128,165379,1,0
128,80,165695,5,0
16,208,166011,2,0,B|96:200|152:240|112:320|112:320|328:320,1,400,8|0
360,80,166958,5,0
192,80,167274,1,0
192,248,167590,1,0
360,248,167906,1,0
256,192,168222,12,4,172327
