osu file format v9

[General]
AudioFilename: U.N. Owen was her Metal Remix.mp3
AudioLeadIn: 2000
PreviewTime: 24666
Countdown: 0
SampleSet: Normal
StackLeniency: 0.7
Mode: 0
LetterboxInBreaks: 1

[Editor]
DistanceSpacing: 0.8
BeatDivisor: 4
GridSize: 8

[Metadata]
Title:U.N. Owen was her?
Artist:Len
Creator:Louis Cyphre
Version:Normal
Source:Touhou
Tags:Flandre Scarlet lepidon lepidopodus

[Difficulty]
HPDrainRate:3
CircleSize:4
OverallDifficulty:2
ApproachRate:3
SliderMultiplier:1.2
SliderTickRate:1

[Events]
//Background and Video events
0,0,"BG.jpg"
//Break Periods
2,46215,49908
2,82884,87241
2,93555,103241
//Storyboard Layer 0 (Background)
//Storyboard Layer 1 (Fail)
//Storyboard Layer 2 (Pass)
//Storyboard Layer 3 (Foreground)
//Storyboard Sound Samples
//Background Colour Transformations
3,100,163,162,255

[TimingPoints]
682,333.333333333333,5,1,1,55,1,0
14015,333.333333333333,4,1,1,55,1,0
14648,-100,4,2,0,45,0,0
19249,-100,4,1,1,45,0,0
24681,-100,4,1,1,45,0,1
46014,-100,4,1,1,45,0,0
51249,-100,4,1,1,45,0,0
61999,-100,4,2,0,45,0,0
66916,-100,4,1,1,45,0,0
104681,-100,4,1,1,45,0,1
107333,-100,4,1,2,45,0,1
109814,-100,4,1,1,55,0,1
112666,-100,4,1,2,55,0,1
114014,-100,4,1,2,55,0,0
115348,-100,4,1,1,55,0,1
117999,-100,4,1,2,55,0,1
120564,-100,4,1,1,55,0,1
127348,-100,4,1,1,55,0,0

[Colours]
Combo1 : 128,0,128
Combo2 : 255,0,0
Combo3 : 255,100,26
Combo4 : 0,255,0

[HitObjects]
120,248,682,2,0,B|119:365|391:365|391:245,1,360,4|8
376,56,2348,6,4,B|320:88|256:192|256:192|192:88|136:56,1,360,4|12
80,240,4015,6,0,B|80:352,4,90,4|0|0|0|4
88,48,5681,2,0,B|231:48|231:176|279:-63|279:48|440:48,1,360,4|12
416,240,7348,6,4,B|416:344,4,90,4|0|0|0|4
416,48,9015,2,0,B|48:48,1,360,4|8
56,240,10682,6,0,B|432:240,1,360,4|8
256,192,12348,8,4,14015
64,328,14682,6,0,B|184:328,1,120,2|0
256,264,15348,2,0,B|256:144,1,120,2|2
352,144,16015,1,2
448,144,16348,1,0
448,48,16682,6,0,B|312:48,1,120,2|0
256,112,17348,2,0,B|256:240,1,120,2|0
160,232,18015,2,0,B|24:232,2,120,2|2|6
256,64,19348,5,8
256,160,19682,1,0
256,256,20015,1,8
256,352,20348,1,0
176,304,20681,2,0,B|56:304,3,120,8|0|8|0
56,208,22015,5,8
56,112,22348,1,0
152,112,22681,2,0,B|248:208,1,120,8|0
336,208,23348,1,8
336,112,23681,1,0
432,112,24015,2,0,B|432:216|432:216|416:296|312:304,1,240,12|4
256,248,25015,6,0,B|120:248,2,120,8|0|8
256,152,26015,1,0
256,56,26348,2,0,B|128:56,1,120,8|0
120,152,27015,1,8
168,232,27348,6,0,B|168:320|344:320|344:224,2,240,8|8|8
256,192,29015,2,0,B|256:72,1,120,8|0
448,72,30015,6,0,B|448:208,1,120,12|0
352,192,30681,2,0,B|352:72,1,120,8|0
272,128,31348,1,8
192,72,31681,2,0,B|192:200,2,120,4|8|0
112,128,32681,5,8
40,192,33015,1,0
112,256,33348,1,8
184,312,33681,1,0
184,216,34015,2,0,B|288:216|232:368|368:368,1,240
448,352,35015,1,0
400,264,35348,5,0
464,192,35681,1,8
464,192,36015,2,0,B|344:192,1,120,0|8
256,144,36681,1,0
168,192,37015,2,0,B|48:192,2,120,8|0|8
256,144,38015,6,0,B|256:272,3,120,0|8|0|8
160,264,39348,2,0,B|32:264,2,120,0|8|0
336,336,40682,5,4
336,240,41015,1,8
432,240,41348,1,0
432,144,41682,1,8
336,144,42015,1,0
240,144,42348,2,0,B|168:144,2,60,8|0|8
240,240,43015,1,0
240,336,43348,6,0,B|40:336|40:32|248:32,1,480,12|0
256,192,44848,8,4,46015
48,192,51348,5,0
128,144,51682,1,8
128,240,52015,1,0
208,192,52348,1,8
304,192,52682,2,0,B|448:192,2,120,0|8|0
304,288,53682,1,8
208,288,54015,5,4
112,288,54348,1,8
112,192,54682,1,0
208,192,55015,1,8
160,112,55348,1,0
112,32,55682,1,8
208,32,56015,1,0
256,112,56348,1,8
312,32,56682,6,0,B|432:32,1,120,4|8
488,112,57348,2,0,B|360:112,1,120,0|8
312,192,58015,2,0,B|432:192,2,120,0|8|0
256,272,59015,1,8
200,352,59348,6,0,B|80:352,1,120,4|8
24,272,60015,2,0,B|144:272,1,120,4|8
200,192,60682,2,0,B|80:192,2,120,4|8|4
392,192,62015,6,0,B|392:40|248:40,1,240,12|0
128,192,63348,6,0,B|128:344|272:344,1,240,8|0
200,168,64682,6,0,B|200:280|352:216|352:360,1,240,8|0
464,176,66015,6,0,B|464:56|313:121|313:9,1,240,8|0
248,192,67348,6,0,B|104:192|104:32,1,240,12|0
272,128,68682,6,0,B|416:128|416:288,1,240,8|0
248,192,70015,6,0,B|248:304|97:244|96:360,1,240,8|0
200,192,71348,6,0,B|199:84|350:142|350:30,1,240,8|0
456,192,72682,6,0,B|456:320,1,120,4|8
360,312,73348,2,0,B|288:312|288:232,1,120,0|8
384,224,74015,5,0
360,128,74348,2,0,B|288:128|288:204,2,120,8|0|8
336,32,75348,6,0,B|208:32,1,120,4|8
216,128,76015,2,0,B|80:128,1,120,0|8
96,224,76682,2,0,B|96:344,2,120,0|8|0
256,328,78015,5,4
256,232,78348,1,8
256,136,78682,1,0
336,192,79015,1,8
416,248,79348,6,0,B|416:328|328:328,2,120,0|8|0
416,152,80348,1,8
336,104,80681,6,0,B|256:104|256:32,1,120,4|8
184,104,81348,2,0,B|104:104|104:184,1,120,0|8
192,208,82015,2,0,B|272:208|272:288,2,120,0|8|0
256,192,88681,12,4,93348
48,192,104681,5,4
128,144,105015,1,8
208,192,105348,1,0
288,144,105681,1,8
368,192,106015,1,0
368,288,106348,2,0,B|288:288|288:208,2,120,8|0|8
464,288,107348,6,0,B|464:32,3,240,0|0|0|0
336,192,110015,5,4
240,192,110348,1,8
144,192,110681,1,0
48,192,111015,1,8
48,96,111348,1,0
144,96,111681,2,0,B|272:96,2,120,8|0|8
144,192,112681,6,0,B|144:352|320:352,1,240
368,304,113681,1,0
384,208,114015,6,0,B|384:48|208:48,1,240
56,96,115348,5,0
136,144,115681,1,8
56,192,116015,1,0
56,192,116348,1,8
136,240,116681,1,0
216,192,117015,1,8
216,192,117348,1,0
296,240,117681,1,8
312,144,118015,6,0,B|288:80|216:56|152:80|128:144,3,240,4|0|0|0
256,288,120681,6,0,B|376:288,1,120,4|8
464,240,121348,1,0
376,192,121681,2,0,B|256:192,1,120,8|4
176,144,122348,1,8
96,96,122681,1,0
176,48,123015,1,8
256,96,123348,5,4
256,192,123681,1,8
344,240,124015,1,4
432,192,124348,1,8
432,96,124681,1,4
256,192,124848,8,4,127348
