osu file format v9

[General]
AudioFilename: U.N. Owen was her Metal Remix.mp3
AudioLeadIn: 2000
PreviewTime: 24666
Countdown: 0
SampleSet: Normal
StackLeniency: 0.7
Mode: 0
LetterboxInBreaks: 1

[Editor]
DistanceSpacing: 0.8
BeatDivisor: 3
GridSize: 8

[Metadata]
Title:U.N. Owen was her?
Artist:Len
Creator:Louis Cyphre
Version:Insane
Source:Touhou
Tags:Flandre Scarlet lepidon lepidopodus

[Difficulty]
HPDrainRate:6
CircleSize:5
OverallDifficulty:8
ApproachRate:8
SliderMultiplier:2.2
SliderTickRate:0.5

[Events]
//Background and Video events
0,0,"BG.jpg"
//Break Periods
2,84881,87931
2,98881,103931
//Storyboard Layer 0 (Background)
//Storyboard Layer 1 (Fail)
//Storyboard Layer 2 (Pass)
//Storyboard Layer 3 (Foreground)
//Storyboard Sound Samples
//Background Colour Transformations
3,100,163,162,255

[TimingPoints]
682,333.333333333333,5,1,1,55,1,0
14015,333.333333333333,4,2,0,55,1,0
14015,-200,4,2,0,55,0,0
19041,-100,4,1,1,55,0,0
24682,-100,4,1,1,55,0,1
29249,-200,4,1,1,55,0,1
29666,-100,4,1,1,55,0,1
39916,-200,4,1,1,55,0,1
40451,-100,4,1,1,55,0,1
46015,-100,4,2,1,55,0,0
51291,-100,4,1,1,55,0,0
61958,-200,4,1,1,55,0,0
66916,-100,4,1,1,55,0,0
88624,-84.7457627118644,4,1,1,55,0,0
92791,-100,4,1,1,55,0,0
104682,-100,4,1,1,55,0,1
109291,-200,4,1,1,55,0,1
109785,-100,4,1,1,55,0,1
114015,-100,4,1,1,55,0,0
115348,-100,4,1,1,55,0,1
119916,-200,4,1,1,55,0,1
120333,-100,4,1,1,55,0,1
127348,-100,4,1,1,55,0,0

[Colours]
Combo1 : 128,0,128
Combo2 : 255,0,0
Combo3 : 255,100,26
Combo4 : 0,255,0

[HitObjects]
376,56,682,5,4
408,80,765,1,0
368,160,932,1,0
344,200,1015,1,0
432,208,1182,1,4
480,216,1265,1,0
448,296,1431,1,0
432,336,1515,1,0
344,320,1681,6,8,B|240:320|320:256|184:256,1,165,12|8
80,296,2181,1,8
88,208,2348,5,4
48,200,2432,1,0
64,112,2598,1,0
80,72,2682,1,0
168,48,2848,1,4
208,40,2932,1,0
280,88,3098,1,0
304,56,3182,1,0
352,128,3348,6,8,B|456:128|384:200|512:200,2,165,12|8|8
352,216,4015,6,4,B|392:256,1,55,4|0
304,272,4265,2,0,B|304:328,1,55
216,304,4515,2,0,B|176:344,1,55,4|0
120,272,4765,2,0,B|64:272,1,55
64,184,5015,5,12
136,72,5265,1,8
256,136,5515,1,8
328,88,5681,5,4
376,88,5765,2,0,L|432:88|464:152,1,110
456,184,6015,2,0,L|431:232|375:232,1,110,0|4
328,232,6265,2,0,L|272:232|240:296,1,110
200,280,6515,2,0,L|144:280|112:216,1,110,0|12
120,96,6931,6,0,L|168:24|264:24,1,165,8|8
216,104,7348,6,0,L|216:168,1,55,4|0
296,128,7598,1,0
304,168,7681,1,0
368,112,7848,2,0,L|392:160,1,55,4|0
440,88,8098,1,0
472,120,8181,1,0
472,208,8348,6,0,L|472:296|392:328,2,165,12|8|8
384,232,9015,5,4
344,256,9098,1,0
264,208,9265,1,0
224,232,9348,1,0
152,176,9515,1,4
112,200,9598,1,0
56,136,9765,1,0
24,160,9848,1,0
96,112,10015,6,8,L|144:40|248:40,2,165,12|8|8
184,120,10682,5,4
224,96,10765,1,0
312,120,10932,1,0
336,160,11015,1,0
336,248,11182,1,4
352,288,11265,1,0
264,288,11432,1,0
248,248,11515,1,0
168,288,11682,5,12
72,192,11932,1,8
144,80,12182,1,8
208,144,12348,5,4
240,112,12432,1,0
312,168,12598,1,0
360,168,12682,1,0
344,256,12848,1,4
376,280,12932,1,0
296,328,13098,1,0
256,344,13182,1,0
200,272,13348,6,0,L|152:320,2,55,12|0|0
160,264,13598,2,0,L|104:272,2,55,8|0|0
160,216,13848,1,8
128,184,13932,1,0
128,136,14015,6,0,B|88:88|128:24,1,110,6|0
296,32,14682,2,0,B|352:64|416:32,1,110,2|0
400,216,15348,6,0,B|434:270|394:318,1,110,2|0
216,320,16015,2,0,B|166:345|110:313,1,110,2|0
168,248,16515,1,4
120,176,16682,6,0,B|169:150|225:182,1,110,6|0
400,192,17348,2,0,B|350:217|294:185,1,110,2|0
400,48,18015,6,0,B|344:16|295:42,1,110,2|0
120,64,18682,2,2,B|175:95|224:69,1,110,2|0
248,104,19098,2,0,B|200:144,2,55
288,128,19348,6,0,B|376:128|376:128|376:208|464:208,1,220,0|8
288,184,20015,2,0,B|200:184|200:184|200:264|112:264,1,220,0|8
288,248,20681,6,0,B|376:248|376:248|376:328|464:328,3,220,0|8|8|0
392,168,22015,6,0,B|392:96|392:96|312:96|240:24,1,220,12|0
120,144,22681,2,0,B|120:216|120:216|200:216|272:288,1,220,8|0
192,104,23348,5,8
328,216,23681,1,8
256,56,24015,2,4,B|312:112|184:232|272:272,1,220,4|4
96,184,24681,5,4
256,264,25015,1,8
416,184,25348,1,0
256,104,25681,1,8
168,256,26015,1,0
344,256,26348,1,8
256,232,26515,1,0
256,320,26681,1,8
256,144,27015,1,8
80,160,27348,5,8
96,72,27515,1,0
160,136,27681,1,8
176,48,27848,1,0
256,48,28015,1,8
336,40,28181,1,8
376,56,28265,1,0
408,88,28348,6,0,B|488:168,1,110,8|0
338,138,28681,2,0,B|416:216,1,110,8|0
258,178,29015,2,0,B|336:256,1,110,8|0
176,216,29348,2,0,B|253:293,1,110,8|0
448,232,30015,5,4
400,64,30348,1,8
352,232,30681,1,0
304,64,31015,1,8
256,232,31348,1,0
200,64,31681,1,8
160,144,31848,1,0
120,64,32015,1,8
64,232,32348,1,8
64,56,32681,5,8
144,88,32848,1,0
224,56,33015,1,8
304,88,33181,1,8
384,56,33348,1,8
456,104,33515,1,8
464,144,33598,1,0
488,176,33681,1,8
472,264,33848,1,0
384,240,34015,5,8
312,192,34181,2,0,B|224:192,2,55
312,240,34431,2,0,B|272:280,2,55
344,272,34681,6,4,B|344:352|408:352,1,110,4|4
416,264,35015,2,0,B|448:320|507:309,2,110,4|4|4
464,96,35681,5,8
296,136,36015,1,0
128,88,36348,1,8
80,256,36681,1,0
248,304,37015,2,0,L|306:304|344:344,2,110,8|0|8
392,200,37681,1,8
256,96,38015,6,0,L|144:96,1,110,8|0
88,160,38348,2,0,L|240:160,1,110,8|0
256,232,38681,2,0,L|256:352,1,110,8|8
256,342,38931,1,0
256,342,39015,2,0,L|376:344,1,110,8|0
376,256,39348,2,0,L|416:216|416:160,1,110,8|0
328,192,39682,2,0,L|288:152|288:96,1,110,8|0
376,112,40015,2,0,L|416:72|416:16,1,110,8|4
256,96,40681,5,4
256,96,41014,1,8
256,96,41347,1,0
256,96,41681,1,8
104,192,42014,1,4
256,288,42348,1,8
256,288,42514,1,0
256,288,42681,1,8
408,192,43014,1,8
256,288,43348,5,12
216,208,43515,1,0
256,128,43682,1,8
296,208,43848,1,0
360,144,44015,1,8
320,64,44182,1,8
288,96,44265,1,0
256,128,44348,1,0
184,80,44515,1,8
120,144,44682,5,4
80,160,44765,2,0,L|16:160,3,55
40,200,45098,2,0,L|0:248,3,55,0|0|0|4
48,256,45432,2,0,L|48:312,3,55
88,296,45765,2,0,L|88:360,3,55
144,344,46126,5,6
192,304,46237,1,0
240,344,46348,1,2
288,304,46459,1,0
336,344,46570,1,0
384,304,46681,5,2
384,248,46793,1,0
336,208,46904,1,0
288,248,47015,1,2
240,208,47126,1,0
192,248,47237,5,0
144,208,47348,1,2
144,152,47459,1,0
192,112,47570,1,0
240,152,47682,1,2
288,112,47793,5,0
336,152,47904,1,0
384,112,48015,1,2
384,56,48126,1,0
336,16,48237,1,0
288,56,48348,5,2
240,16,48459,1,4
192,56,48570,1,0
144,16,48682,1,6
96,56,48793,1,0
40,80,48904,5,0
24,136,49015,1,2
48,192,49126,1,0
104,216,49237,1,0
160,192,49348,1,2
160,136,49459,5,0
200,88,49570,1,0
256,64,49682,1,2
312,88,49793,1,0
352,136,49904,1,0
360,192,50015,5,6
416,216,50126,1,0
472,192,50237,1,0
496,136,50348,1,2
480,80,50459,1,0
424,56,50570,5,4
368,80,50681,1,6
312,88,50793,1,4
256,112,50904,1,0
200,88,51015,1,2
256,112,51348,5,4
216,152,51459,1,0
256,192,51570,1,0
296,240,51682,1,8
296,240,51793,1,0
296,240,51904,1,0
256,288,52015,5,0
216,328,52126,1,0
176,288,52237,1,0
136,248,52348,1,8
136,248,52459,1,0
136,248,52570,1,0
96,288,52682,5,0
56,248,52793,1,0
16,208,52904,1,0
16,208,53015,1,8
56,168,53126,5,0
96,128,53237,1,0
56,88,53348,1,0
168,32,53682,1,8
248,72,53848,5,0
272,112,53932,1,0
296,152,54015,1,4
256,192,54126,1,0
216,240,54237,1,0
216,240,54348,1,8
216,240,54459,1,0
256,288,54570,1,0
296,328,54682,5,0
336,288,54793,1,0
376,248,54904,1,0
376,248,55015,1,8
376,248,55126,1,0
416,288,55237,1,0
456,248,55348,5,0
496,208,55459,1,0
496,208,55570,1,0
496,208,55682,1,8
456,160,55793,1,0
416,112,55904,6,0,L|416:32,1,73.3333333333333
336,200,56348,1,8
240,344,56682,6,0,L|208:320|192:288,2,73.3333333333333,4|0|0
264,288,57015,2,0,L|296:264|312:232,2,73.3333333333333,8|0|0
240,232,57348,2,0,L|208:208|192:176,2,73.3333333333333
264,176,57682,2,0,L|296:152|312:120,2,73.3333333333333,8|0|0
240,120,58015,2,0,L|208:96|192:64,2,73.3333333333333
264,64,58348,2,0,L|296:40|312:8,2,73.3333333333333,8|0|0
240,8,58682,1,0
72,64,59015,1,8
104,152,59182,5,0
88,192,59265,1,0
72,232,59348,5,4
104,280,59459,1,4
136,328,59570,1,0
168,280,59682,1,8
200,232,59793,1,0
232,280,59904,1,0
264,328,60015,5,4
296,280,60126,1,0
328,232,60237,1,0
360,280,60348,1,8
392,328,60459,1,0
424,280,60570,1,0
456,232,60682,5,0
424,184,60793,1,0
392,136,60904,1,0
360,184,61015,1,8
328,232,61126,1,0
296,184,61237,1,0
240,184,61348,5,12
112,216,61598,1,12
128,88,61848,1,12
200,40,62015,6,0,B|256:-16|368:96|432:32,1,220
248,112,63348,2,0,B|325:95|358:250|446:231,1,220
248,192,64682,6,0,B|322:194|317:352|382:350,1,220
232,264,66015,2,0,B|168:264|168:104|96:104,1,220
256,24,67015,5,8
296,48,67098,1,8
336,72,67182,1,8
376,96,67265,1,8
416,120,67348,2,0,B|416:232|256:232|96:232|96:368,1,440,12|0
88,16,68682,2,0,B|88:127|248:127|408:127|407:261,1,440,0|4
256,192,70015,8,4,72015
88,192,72682,5,4
256,144,73015,1,8
424,192,73348,1,0
256,248,73682,1,8
152,104,74015,1,0
152,280,74348,1,8
256,136,74682,1,0
360,280,75015,1,8
360,104,75348,5,12
208,192,75682,1,0
360,280,76015,1,8
256,136,76348,1,0
152,280,76682,5,8
304,192,77015,1,0
152,96,77348,1,8
152,184,77515,2,0,B|80:184,3,55
152,184,77848,2,0,B|224:184,2,55,0|0|12
256,328,78348,5,0
368,192,78682,2,0,B|232:192|232:56,1,220,8|0
56,64,79348,1,8
184,184,79681,2,0,B|183:319|47:319,2,220,0|8|0
256,344,80681,5,8
328,184,81015,1,0
256,24,81348,1,8
184,184,81681,1,0
328,184,82015,6,0,B|328:319|464:319,2,220,8|0|12
448,56,83015,1,8
416,88,83098,1,8
384,120,83181,1,8
352,88,83265,1,0
320,56,83348,1,8
256,192,83515,8,4,84681
32,344,88681,6,0,B|96:344,3,64.8999984526635,4|0|0|0
64,280,89015,2,0,B|128:280,3,64.8999984526635,8|0|0|0
96,216,89348,2,0,B|160:216,3,64.8999984526635
128,152,89681,2,0,B|192:152,3,64.8999984526635,8|0|0|0
160,88,90015,6,0,B|224:88,3,64.8999984526635
192,152,90348,2,0,B|256:152,3,64.8999984526635,8|0|0|0
224,216,90681,2,0,B|288:216,3,64.8999984526635
256,280,91015,2,0,B|320:280,3,64.8999984526635,8|0|0|0
288,344,91348,6,0,B|352:344,3,64.8999984526635
320,280,91681,2,0,B|384:280,3,64.8999984526635,8|0|0|0
352,216,92015,2,0,B|416:216,3,64.8999984526635
376,152,92348,2,0,B|440:152,3,64.8999984526635,8|0|0|0
408,96,92681,1,0
320,112,92848,6,0,B|320:48,2,55,0|0|8
280,136,93098,2,0,B|232:88,3,55,0|0|0|4
256,192,93515,5,4
256,192,93598,1,0
256,192,93681,1,4
256,192,93848,1,4
256,280,94015,6,4,B|184:352|184:352|128:296|48:296|48:296|128:280|128:176|40:176,1,440
48,88,94848,2,4,B|93:42|195:144|257:82,1,220
312,16,95348,6,4,B|464:16|264:264|464:264,1,330
360,304,96015,2,4,B|256:352|144:304,1,220
144,216,96515,1,0
144,128,96681,6,4,B|216:128|216:128|216:232|296:232,1,220
456,152,97348,2,4,B|384:152|384:152|384:48|304:48,1,220
304,136,97848,5,0
304,224,98015,1,0
152,320,98348,5,8
128,280,98431,1,8
104,240,98515,1,8
80,200,98598,1,0
56,160,98681,1,8
56,192,104681,5,0
160,336,105015,1,8
256,192,105348,1,0
360,336,105681,1,8
456,192,106015,1,0
344,56,106348,1,8
256,72,106515,1,0
168,56,106681,1,8
56,192,107015,1,8
216,112,107348,5,8
256,32,107515,1,0
296,112,107681,1,8
272,152,107765,1,0
256,192,107848,1,8
168,200,108015,6,0,B|112:296,1,110,8|0
200,320,108348,2,0,B|328:320,1,110,8|0
399,295,108681,6,0,B|344:200,1,110,8|0
360,112,109015,2,0,B|440:192,1,110,8|0
152,112,109348,2,0,B|72:192,1,110,8|0
168,40,110015,5,4
336,80,110348,1,8
168,120,110681,1,0
336,160,111015,1,8
168,208,111348,1,0
336,248,111681,1,8
256,280,111848,1,0
336,336,112015,1,8
256,184,112348,1,8
336,32,112681,6,8,B|336:176,1,110,0|8
248,144,113015,2,8,B|120:144,1,110,0|8
48,144,113348,2,0,B|48:256,1,110,0|8
48,254,113598,1,0
48,256,113681,2,0,B|176:256,1,110,8|8
256,192,114015,8,4,115015
472,232,115348,6,0,B|424:304|424:304|400:232|320:232,1,220,0|8
472,144,116015,2,0,B|394:144|370:72|370:72|322:144,1,220,0|8
224,288,116681,2,0,B|146:288|122:216|122:216|112:264|74:288,1,220,0|8
40,208,117181,1,0
80,128,117348,1,8
256,96,117681,2,0,B|256:192|336:192|336:304,1,220,8|0
424,304,118181,5,0
472,232,118348,1,8
448,192,118431,1,0
472,152,118515,1,8
424,80,118681,1,0
376,152,118848,1,8
328,80,119015,1,0
280,152,119181,1,8
232,80,119348,6,0,B|112:80,1,110,0|8
176,152,119681,2,0,B|96:232,1,110,0|8
184,248,120015,2,0,B|184:360,1,110,8|4
256,200,120681,5,12
256,200,121015,1,0
256,200,121348,1,8
256,200,121681,1,0
256,200,122015,1,8
344,48,122348,1,8
256,72,122515,1,0
168,48,122681,1,8
256,200,123015,1,8
104,112,123348,5,0
176,160,123515,1,0
256,200,123681,1,8
256,200,123765,1,0
256,200,123848,1,8
336,160,124015,1,12
376,136,124098,1,0
416,112,124181,1,0
376,88,124265,1,0
336,64,124348,1,12
256,24,124515,1,0
176,64,124681,1,12
256,192,124765,8,4,127348
