osu file format v9

[General]
AudioFilename: U.N. Owen was her Metal Remix.mp3
AudioLeadIn: 2000
PreviewTime: 24666
Countdown: 0
SampleSet: Normal
StackLeniency: 0.7
Mode: 0
LetterboxInBreaks: 1

[Editor]
Bookmarks: 72642
DistanceSpacing: 0.8
BeatDivisor: 4
GridSize: 8

[Metadata]
Title:U.N. Owen was her?
Artist:Len
Creator:Louis Cyphre
Version:Easy
Source:Touhou
Tags:Flandre Scarlet lepidon lepidopodus

[Difficulty]
HPDrainRate:2
CircleSize:3
OverallDifficulty:0
ApproachRate:2
SliderMultiplier:0.6
SliderTickRate:0.5

[Events]
//Background and Video events
0,0,"BG.jpg"
//Break Periods
2,46215,49788
2,82881,87121
2,94214,103121
//Storyboard Layer 0 (Background)
//Storyboard Layer 1 (Fail)
//Storyboard Layer 2 (Pass)
//Storyboard Layer 3 (Foreground)
//Storyboard Sound Samples
//Background Colour Transformations
3,100,163,162,255

[TimingPoints]
682,333.333333333333,5,1,1,55,1,0
14015,333.333333333333,4,2,1,55,1,0
19249,-100,4,1,1,45,0,0
24681,-100,4,1,1,45,0,1
46014,-100,4,1,1,45,0,0
51249,-100,4,1,1,45,0,0
61833,-100,4,2,1,45,0,0
67249,-100,4,1,1,45,0,0
104681,-100,4,1,1,45,0,1
107916,-100,4,1,2,45,0,1
108083,-100,4,1,1,45,0,1
114014,-100,4,1,2,55,0,0
115348,-100,4,1,1,55,0,1
117999,-100,4,1,2,55,0,1
120564,-100,4,1,1,55,0,1
123916,-100,4,1,2,55,0,1
124083,-100,4,1,1,55,0,1
127348,-100,4,1,1,55,0,0

[Colours]
Combo1 : 128,0,128
Combo2 : 255,0,0
Combo3 : 255,100,26
Combo4 : 0,255,0

[HitObjects]
176,192,682,2,0,B|176:288,2,90,4|4|4
256,136,2348,6,4,B|256:40,2,90,4|4|4
344,192,4015,6,0,B|344:288,2,90,4|4|4
256,224,5681,6,0,B|256:334|144:334,1,180,4|4
80,264,7348,2,0,B|79:153|191:153,1,180,4|4
280,120,9015,6,4,B|280:232|392:232,1,180,0|0
456,160,10681,2,0,B|456:48|344:48,1,180,4|4
256,88,12348,6,0,B|224:128|296:216|248:272,1,180,4|4
168,232,14015,6,0,B|104:216|88:144,1,120,6|0
184,120,15348,2,0,B|248:104|264:32,1,120,2|0
328,104,16681,6,0,B|392:120|408:192,1,120,2|0
336,256,18014,2,0,B|321:322|257:338,1,120,2|0
184,272,19348,6,0,B|184:192|256:192,1,120,8|0
344,176,20681,2,0,B|344:99|272:99,1,120,8|0
176,96,22014,6,0,B|99:95|99:167,1,120,8|0
96,264,23348,2,0,B|172:264|172:192,1,120,8|0
256,136,24681,6,0,B|256:256,1,120,4|8
328,320,26014,1,0
400,256,26681,1,8
328,192,27348,6,0,B|328:136|368:136|368:72,1,120,0|8
272,96,28681,2,0,B|216:96|215:56|152:56,1,120,0|8
176,152,30014,5,4
120,232,30681,1,8
184,304,31348,2,0,B|304:304,1,120,0|8
256,192,32681,8,4,35348
72,336,36681,5,0
168,336,37348,2,0,B|296:336,1,120,8|0
352,264,38681,6,0,B|352:144,1,120,8|0
288,72,40014,2,0,B|168:72,1,120,8|4
104,144,41348,6,0,B|128:160|128:240|104:264,1,120,8|0
200,296,42681,2,0,B|208:280|312:280|320:304,1,120,8|4
400,256,44015,6,0,B|381:238|381:158|405:142,1,120,8|4
256,192,44848,8,4,46015
56,192,51348,6,0,B|56:312,3,120,4|8|0|8
152,312,54015,6,0,B|152:192,3,120,4|8|0|8
248,192,56681,6,0,B|248:312,3,120,12|0|8|0
344,312,59348,6,0,B|344:192,3,120,12|0|8|4
256,144,62015,6,0,B|312:88|248:24,1,120,6|0
160,40,63348,2,0,B|128:72|128:124|160:152,1,120,2|0
256,144,64681,6,0,B|288:200|256:264,1,120,2|0
160,256,66015,2,0,B|130:196|162:140,1,120,2|0
256,144,67348,6,0,B|304:144|304:96|368:96,1,120,8|0
440,160,68681,2,0,B|381:159|381:207|333:207,1,120,10|4
328,304,70015,6,0,B|269:303|269:351|221:351,1,120,8|2
160,280,71348,2,0,B|208:280|208:232|272:232,1,120,8|4
256,136,72681,5,4
160,136,73348,1,0
152,232,74015,2,0,B|152:304|192:344,1,120,8|0
256,272,75348,5,4
320,344,76015,2,0,B|358:305|358:233,1,120,8|0
352,136,77348,1,8
256,112,78015,6,0,B|256:40|168:40,2,120,12|0|8
160,136,80014,1,0
160,232,80681,5,12
256,256,81348,2,0,B|256:328|344:328,2,120,0|8|4
256,192,88681,12,4,94014
80,192,104681,5,4
176,192,105348,1,8
128,272,106014,1,0
224,272,106681,1,8
296,328,107348,6,0,B|432:328|432:160,1,240,4|0
336,168,109348,1,8
256,112,110014,6,0,B|256:192|176:192,2,120,4|8|0
160,104,112014,1,8
256,192,112681,8,4,115348
456,144,116681,6,0,B|456:272,1,120,0|8
368,304,118014,2,0,B|320:352|200:232|136:296,2,240,4|0|4
456,264,121348,5,8
368,216,122014,1,4
456,168,122681,1,8
368,120,123348,2,0,B|308:180|188:60|140:108,1,240,4|4
256,192,124848,8,4,127348
