osu file format v11

[General]
AudioFilename: U.N. Owen was her Metal Remix.mp3
AudioLeadIn: 2000
PreviewTime: 57199
Countdown: 0
SampleSet: Normal
StackLeniency: 0.4
Mode: 0
LetterboxInBreaks: 1
CountdownOffset: 3

[Editor]
Bookmarks: 25216,51883,73216,94549,105199
DistanceSpacing: 0.9
BeatDivisor: 4
GridSize: 8

[Metadata]
Title:U.N. Owen was Her?
TitleUnicode:U.N. Owen was Her?
Artist:Len
ArtistUnicode:Len
Creator:winber1
Version:Normal
Source:Touhou
Tags:ZUN OnosakiHito Flandre embodiment of scarlet devil th06 koumakyou
BeatmapID:92442
BeatmapSetID:27575

[Difficulty]
HPDrainRate:3
CircleSize:3
OverallDifficulty:3
ApproachRate:4
SliderMultiplier:1.2
SliderTickRate:1

[Events]
//Background and Video events
0,0,"bg.jpeg"
//Break Periods
2,14663,15644
2,46664,50477
//Storyboard Layer 0 (Background)
//Storyboard Layer 1 (Fail)
//Storyboard Layer 2 (Pass)
//Storyboard Layer 3 (Foreground)
//Storyboard Sound Samples
//Background Colour Transformations
3,100,163,162,255

[TimingPoints]
1131,333.333333333333,5,1,1,55,1,0
2118,-100,5,1,1,80,0,0
2951,-100,5,1,1,55,0,0
3785,-100,5,1,1,80,0,0
4618,-100,5,1,1,55,0,0
5451,-100,5,1,1,80,0,0
6285,-100,5,1,1,55,0,0
7118,-100,5,1,1,80,0,0
7951,-100,5,1,1,55,0,0
8868,-100,5,1,1,80,0,0
9535,-100,5,1,1,55,0,0
10535,-100,5,1,1,80,0,0
11201,-100,5,1,1,55,0,0
12201,-100,5,1,1,80,0,0
12868,-100,5,1,1,55,0,0
13868,-100,5,1,1,80,0,0
14464,333.333333333333,4,2,1,100,1,0
16956,-100,4,1,1,60,0,0
17126,-100,4,2,1,60,0,0
19797,-100,4,1,1,60,0,0
35797,-100,4,1,1,60,0,1
46463,-100,4,1,1,60,0,0
105130,-100,4,1,1,60,0,1
125130,-100,4,1,1,60,0,0
127797,-100,4,1,1,60,0,1
127880,-100,4,1,1,60,0,0

[Colours]
Combo1 : 223,0,0
Combo2 : 22,72,245
Combo3 : 68,176,21
Combo4 : 215,107,11

[HitObjects]
312,280,464,2,0,B|256:320|200:280,1,120
176,164,1131,6,2,B|180:92|256:64|332:92|336:164,1,240,2|0,0:0|0:0,0:0:0
416,256,2130,2,4,B|432:320|496:336,1,120
376,352,2797,6,2,B|256:336|128:352,1,240,2|0,0:0|0:0,0:0:0
40,288,3797,2,4,B|56:232|40:168,1,120
144,104,4464,6,2,B|256:60|256:60|368:104,1,240,2|0,0:0|0:0,0:0:0
472,168,5464,2,4,B|416:192|392:272,1,120
304,184,6130,6,2,B|344:116|256:48|168:116|208:184,1,240,2|0,0:0|0:0,0:0:0
192,304,7130,2,4,B|312:304,1,120
432,304,7797,6,0,B|432:176,2,120,0|2|0,0:0|0:0|0:0,0:0:0
312,304,8797,2,4,B|192:304,1,120,6|4,0:0|0:0,0:0:0
80,304,9464,6,0,B|80:176,2,120,0|2|0,0:0|0:0|0:0,0:0:0
192,304,10464,2,4,B|312:304,1,120,6|4,0:0|0:0,0:0:0
256,200,11130,5,0,0:0:0
256,80,11464,2,4,B|193:57|136:80,2,120,2|0|6,0:0|0:0|0:0,0:0:0
376,80,12464,1,4,0:0:0
320,184,12797,6,4,B|344:248|320:304,2,120,0|2|0,0:0|0:0|0:0,0:0:0
192,184,13797,2,4,B|168:248|192:304,2,120,6|4|4,0:0|0:0|0:0,0:0:0
128,296,16964,6,0,B|128:376,2,60,0|0|2,0:0|0:0|0:0,0:0:0
256,296,17630,2,0,B|328:296|384:296,2,120,0|2|0,0:0|0:0|0:0,0:0:0
256,168,18630,2,0,B|256:48,2,120,2|0|2,0:0|0:0|0:0,0:0:0
120,168,19630,5,2,0:0:0
120,168,19797,2,0,B|112:312|256:352,1,240,4|8,0:0|0:0,0:0:0
381,344,20797,1,0,0:0:0
392,216,21130,2,0,B|400:72|256:32,1,240,0|8,0:0|0:0,0:0:0
144,40,22130,1,0,0:0:0
255,128,22463,6,0,B|261:234|366:236|372:343,1,240,2|8,0:0|0:0,0:0:0
256,128,23797,2,0,B|250:234|145:236|139:343,1,240,2|8,0:0|0:0,0:0:0
256,336,24797,1,0,0:0:0
256,336,25130,6,0,B|256:96,1,240,4|8,0:0|0:0,0:0:0
256,96,26130,1,0,0:0:0
144,56,26463,2,0,B|256:-24|368:56,1,240,0|8,0:0|0:0,0:0:0
398,175,27463,1,0,0:0:0
423,294,27797,6,0,B|379:347|314:322,3,120,0|0|8|0,0:0|0:0|0:0|0:0,0:0:0
195,321,29130,2,0,B|130:345|86:292,3,120,0|0|8|0,0:0|0:0|0:0|0:0,0:0:0
162,222,30463,6,0,B|157:148|232:118|232:118|256:16,1,240,4|8,0:0|0:0,0:0:0
350,222,31797,2,0,B|355:148|280:118|280:118|256:16,1,240,0|8,0:0|0:0,0:0:0
163,223,33130,6,0,B|184:280|256:314|328:280|350:222,1,240
256,165,34130,1,0,0:0:0
163,100,34463,2,0,B|184:43|256:9|328:43|350:101,1,240,4|0,0:0|0:0,0:0:0
166,253,35797,6,0,B|86:245|62:173|86:109|166:101,1,240,2|8,0:0|0:0,0:0:0
256,24,36797,1,0,0:0:0
347,101,37130,2,0,B|426:109|450:173|426:245|346:253,1,240,2|8,0:0|0:0,0:0:0
256,24,38463,6,0,B|256:144,1,120,2|0,0:0|0:0,0:0:0
168,232,39130,1,8,0:0:0
256,320,39463,1,0,0:0:0
344,232,39797,1,2,0:0:0
256,320,40130,1,8,0:0:0
168,232,40464,1,4,0:0:0
344,96,41130,6,2,B|304:160|304:160|288:256|384:304,1,240,2|10,0:0|0:0,0:0:0
168,96,42464,2,2,B|208:160|208:160|224:256|128:304,1,240,2|10,0:0|0:0,0:0:0
256,336,43464,1,0,0:0:0
256,336,43797,5,4,0:0:0
312,224,44130,2,0,B|256:264|200:224,3,120,2|8|2|4,0:0|0:0|0:0|0:0,0:0:0
256,192,45297,12,4,46464,0:0:0
296,72,51797,6,0,B|296:136|296:192,2,120,2|2|8,0:0|0:0|0:0,0:0:0
424,72,52797,2,0,B|424:200,2,120,8|2|2,0:0|0:0|0:0,0:0:0
296,72,53797,1,4,0:0:0
216,312,54464,6,0,B|216:248|216:192,2,120,2|2|8,0:0|0:0|0:0,0:0:0
88,312,55464,2,0,B|88:184,2,120,8|2|2,0:0|0:0|0:0,0:0:0
216,312,56464,1,4,0:0:0
448,192,57130,5,2,0:0:0
448,312,57464,2,0,B|320:312,2,120,2|8|8,0:0|0:0|0:0,0:0:0
448,192,58464,2,0,B|320:192,2,120,2|2|4,0:0|0:0|0:0,0:0:0
64,192,59797,5,2,0:0:0
64,72,60130,2,0,B|192:72,2,120,2|8|8,0:0|0:0|0:0,0:0:0
64,192,61130,2,0,B|192:192,2,120,2|2|4,0:0|0:0|0:0,0:0:0
256,64,62464,5,4,0:0:0
256,192,63130,1,0,0:0:0
256,312,63797,1,0,0:0:0
256,192,64464,1,0,0:0:0
256,64,65130,5,4,0:0:0
208,192,65797,1,0,0:0:0
256,312,66464,1,0,0:0:0
304,192,67130,1,0,0:0:0
256,64,67797,5,4,0:0:0
344,192,68464,1,0,0:0:0
256,312,69130,1,4,0:0:0
168,192,69797,1,0,0:0:0
256,64,70464,5,4,0:0:0
144,192,71130,1,0,0:0:0
256,312,71797,1,4,0:0:0
368,192,72464,1,8,0:0:0
145,190,73130,6,0,B|256:112|368:192,1,240,0|8,0:0|0:0,0:0:0
256,312,74464,2,0,B|256:72,1,240,0|8,0:0|0:0,0:0:0
128,288,75797,6,0,B|144:152,2,120,0|0|8,0:0|0:0|0:0,0:0:0
384,288,77130,2,0,B|368:152,2,120,0|0|8,0:0|0:0|0:0,0:0:0
168,312,78463,6,0,B|96:216|96:216|88:144|160:96,1,240,4|8,0:0|0:0,0:0:0
344,312,79797,2,0,B|416:216|416:216|424:144|352:96,1,240,0|8,0:0|0:0,0:0:0
256,312,81130,6,0,B|256:176,1,120,0|0,0:0|0:0,0:0:0
312,88,81797,2,0,B|256:48|200:88,2,120,8|0|0,0:0|0:0|0:0,0:0:0
256,192,82797,2,0,B|256:312,1,120,8|4,0:0|0:0,0:0:0
96,112,83797,6,0,B|128:56|240:56|256:112|272:168|384:168|416:112,1,360
392,232,85130,2,0,B|432:288|392:344,1,120,0|8,0:0|0:0,0:0:0
256,304,85797,2,0,B|256:216,2,80
200,344,86463,6,0,P|96:320|72:192,1,240
224,144,87630,2,0,B|200:80|200:80|208:32|256:8|304:32|312:80|312:80|288:144,1,300,0|8,0:0|0:0,0:0:0
184,320,89130,6,0,B|155:253|107:222,1,120
256,192,89797,1,0,0:0:0
256,192,90130,1,8,0:0:0
328,320,90463,6,0,B|356:253|404:222,1,120
256,192,91130,1,0,0:0:0
256,192,91463,1,8,0:0:0
200,88,91797,6,0,B|256:48|312:88,1,120
256,192,92463,1,0,0:0:0
256,192,92797,1,8,0:0:0
256,312,93130,1,4,0:0:0
408,296,94463,6,0,B|344:240|440:144|360:64,1,240,4|8,0:0|0:0,0:0:0
143,71,95797,2,0,B|71:167|176:248|96:296,1,240,0|8,0:0|0:0,0:0:0
256,72,97130,6,0,B|256:312,1,240,0|8,0:0|0:0,0:0:0
256,312,98130,1,0,0:0:0
344,232,98463,2,0,B|256:200|168:232,2,180,0|8|8,0:0|0:0|0:0,0:0:0
376,128,99797,6,0,B|264:144|256:240|256:240|248:144|128:128,1,360,4|8,0:0|0:0,0:0:0
200,40,101130,2,0,B|256:0|312:40,1,120,0|8,0:0|0:0,0:0:0
327,142,101797,2,0,B|399:277|263:261|256:344|256:344|247:261|111:277|183:141,1,480,0|8,0:0|0:0,0:0:0
256,344,103797,1,4,0:0:0
328,72,105130,6,0,B|336:128|304:176|304:176|320:224|360:256|424:248,1,240,0|8,0:0|0:0,0:0:0
184,72,106463,2,0,B|176:128|208:176|208:176|192:224|152:256|88:248,1,240,0|8,0:0|0:0,0:0:0
136,368,107463,1,0,0:0:0
256,360,107797,6,0,B|303:305|208:184|256:128,1,240,0|8,0:0|0:0,0:0:0
255,128,108797,1,0,0:0:0
200,32,109130,2,0,B|256:-8|312:32,3,120,0|0|8|0,0:0|0:0|0:0|0:0,0:0:0
392,120,110463,6,0,B|368:192|400:256|400:256|346:269|312:320,1,240,4|8,0:0|0:0,0:0:0
120,120,111797,2,0,B|144:192|112:256|112:256|165:269|200:320,1,240,0|8,0:0|0:0,0:0:0
256,208,112797,1,0,0:0:0
200,104,113130,6,0,B|256:144|312:104,3,120,0|0|8|0,0:0|0:0|0:0|0:0,0:0:0
368,216,114463,2,0,B|312:280|200:152|144:216,1,240,4|8,0:0|0:0,0:0:0
316,128,115797,6,0,B|412:216,2,120,0|8|0,0:0|0:0|0:0,0:0:0
196,128,116797,2,0,B|100:216,2,120,8|0|8,0:0|0:0|0:0,0:0:0
256,32,117797,2,0,B|256:168,1,120,0|8,0:0|0:0,0:0:0
200,264,118463,6,0,B|256:304|312:264,1,120,0|8,0:0|0:0,0:0:0
312,144,119130,2,0,B|256:104|200:144,1,120,0|8,0:0|0:0,0:0:0
256,248,119797,2,0,B|256:368,1,120,0|8,0:0|0:0,0:0:0
256,368,120463,1,4,0:0:0
196,136,121130,6,0,B|100:48,2,120,0|8|0,0:0|0:0|0:0,0:0:0
316,136,122130,2,0,B|412:48,2,120,8|0|8,0:0|0:0|0:0,0:0:0
256,240,123130,2,0,B|256:104,1,120,0|8,0:0|0:0,0:0:0
312,208,123797,6,0,B|256:168|200:208,1,120,0|8,0:0|0:0,0:0:0
200,320,124463,2,0,B|256:360|312:320,1,120,0|8,0:0|0:0,0:0:0
256,240,125130,1,4,0:0:0
256,192,125297,12,4,127797,0:0:0
