osu file format v11

[General]
AudioFilename: U.N. Owen was her Metal Remix.mp3
AudioLeadIn: 2000
PreviewTime: 57199
Countdown: 0
SampleSet: Normal
StackLeniency: 0.4
Mode: 0
LetterboxInBreaks: 1
CountdownOffset: 3

[Editor]
Bookmarks: 25216,51883,73216,94549
DistanceSpacing: 1
BeatDivisor: 4
GridSize: 4

[Metadata]
Title:U.N. Owen was Her?
TitleUnicode:U.N. Owen was Her?
Artist:Len
ArtistUnicode:Len
Creator:winber1
Version:Hard
Source:Touhou
Tags:ZUN OnosakiHito Flandre embodiment of scarlet devil th06 koumakyou
BeatmapID:92440
BeatmapSetID:27575

[Difficulty]
HPDrainRate:5
CircleSize:4
OverallDifficulty:6
ApproachRate:6
SliderMultiplier:1.5
SliderTickRate:1

[Events]
//Background and Video events
0,0,"bg.jpeg"
//Break Periods
2,14664,15914
2,46497,50747
//Storyboard Layer 0 (Background)
//Storyboard Layer 1 (Fail)
//Storyboard Layer 2 (Pass)
//Storyboard Layer 3 (Foreground)
//Storyboard Sound Samples
//Background Colour Transformations
3,100,163,162,255

[TimingPoints]
1131,333.333333333333,5,1,1,55,1,0
2118,-100,5,1,1,80,0,0
2951,-100,5,1,1,55,0,0
3785,-100,5,1,1,80,0,0
4618,-100,5,1,1,55,0,0
5451,-100,5,1,1,80,0,0
6285,-100,5,1,1,55,0,0
7118,-100,5,1,1,80,0,0
7951,-100,5,1,1,55,0,0
8868,-100,5,1,1,80,0,0
9535,-100,5,1,1,55,0,0
10535,-100,5,1,1,80,0,0
11201,-100,5,1,1,55,0,0
12201,-100,5,1,1,80,0,0
12868,-100,5,1,1,55,0,0
13868,-100,5,1,1,80,0,0
14464,333.333333333333,4,2,1,100,1,0
16956,-100,4,1,1,60,0,0
17126,-100,4,2,1,60,0,0
19797,-100,4,1,1,60,0,0
35797,-100,4,1,1,60,0,1
46463,-100,4,1,1,60,0,0
105130,-100,4,1,1,60,0,1
125130,-100,4,1,1,60,0,0
127797,-100,4,1,1,60,0,1
127880,-100,4,1,1,60,0,0

[Colours]
Combo1 : 223,0,0
Combo2 : 22,72,245
Combo3 : 68,176,21
Combo4 : 215,107,11

[HitObjects]
256,272,464,2,0,B|256:360,2,75
312,80,1131,6,2,B|256:96|200:79,3,112.5,2|0|0|0,0:0|0:0|0:0|0:0,0:0:0
112,160,2130,2,4,B|72:208|88:280,2,112.5
176,224,2797,6,2,B|176:360,2,112.5,0|0|0,0:0|0:0|0:0,0:0:0
288,192,3547,1,0,0:0:0
400,160,3797,2,4,B|440:208|424:280,2,112.5
336,224,4464,6,2,B|336:360,2,112.5,2|0|0,0:0|0:0|0:0,0:0:0
224,192,5214,1,0,0:0:0
152,96,5464,2,4,B|64:208,2,112.5
200,168,6130,6,2,B|256:152|312:168,2,112.5
256,64,6880,1,0,0:0:0
360,96,7130,2,4,B|448:208,2,112.5
312,168,7797,6,8,B|376:224|344:312,2,150,0|8|0,0:0|0:0|0:0,0:0:0
256,352,8797,2,4,B|256:232,2,112.5
165,304,9464,6,0,B|136:224|200:168,2,150,0|8|0,0:0|0:0|0:0,0:0:0
184,80,10464,2,4,B|80:128,2,112.5
256,152,11130,5,0,0:0:0
256,152,11297,2,0,B|256:304,2,150,2|2|2,0:0|0:0|0:0,0:0:0
328,80,12131,2,4,B|432:128,2,112.5
256,152,12797,5,0,0:0:0
256,152,12964,2,0,B|256:312,2,150,2|2|2,0:0|0:0|0:0,0:0:0
200,72,13797,2,4,B|312:72,2,112.5
200,72,14464,1,4,0:0:0
144,128,16964,6,0,B|144:208,2,75,0|0|2,0:0|0:0|0:0,0:0:0
192,288,17630,2,0,B|256:248|336:240,2,150,0|2|0,0:0|0:0|0:0,0:0:0
256,136,18630,2,0,B|416:136,2,150,2|0|2,0:0|0:0|0:0,0:0:0
80,128,19630,5,2,0:0:0
80,128,19797,2,0,B|80:200|80:288,1,150,4|8,0:0|0:0,0:0:0
232,352,20463,2,0,B|210:252|328:225,2,150,0|8|0,0:0|0:0|0:0,0:0:0
448,304,21463,2,0,B|385:377|290:302,1,150,8|0,0:0|0:0,0:0:0
448,128,22130,1,8,0:0:0
448,128,22296,1,8,0:0:0
448,128,22463,6,0,B|360:288,1,150,2|8,0:0|0:0,0:0:0
240,208,23130,2,0,B|328:200|392:280,1,150,2|10,0:0|0:0,0:0:0
192,304,23797,2,0,B|160:216,1,75,0|0,0:0|0:0,0:0:0
128,168,24130,2,0,B|64:232,2,75,8|0|4,0:0|0:0|0:0,0:0:0
40,64,24797,1,8,0:0:0
184,40,25130,6,0,B|208:104|216:200,2,150,4|8|0,0:0|0:0|0:0,0:0:0
328,40,26130,2,0,B|304:104|296:200,2,150,8|0|8,0:0|0:0|0:0,0:0:0
383,122,26963,1,8,0:0:0
328,208,27130,2,0,B|256:248|184:208,1,150,0|8,0:0|0:0,0:0:0
256,32,27797,6,0,B|256:96|256:208,1,150,0|8,0:0|0:0,0:0:0
280,320,28463,2,2,B|328:240|424:216,1,150,2|8,0:0|0:0,0:0:0
232,320,29130,2,2,B|184:240|88:216,1,150,2|8,0:0|0:0,0:0:0
256,152,29797,2,2,B|256:320,1,150,2|8,0:0|0:0,0:0:0
344,192,30463,6,0,B|408:184|424:136|424:136|408:72,2,150,4|8|0,0:0|0:0|0:0,0:0:0
168,192,31463,2,0,B|104:184|88:136|88:136|104:72,2,150,8|0|8,0:0|0:0|0:0,0:0:0
256,216,32296,1,0,0:0:0
312,144,32463,2,0,B|288:184|256:192|256:192|224:184|200:144,1,150,0|8,0:0|0:0,0:0:0
256,32,33130,6,0,B|256:128,2,75,2|0|8,0:0|0:0|0:0,0:0:0
112,176,33797,1,2,0:0:0
256,240,34130,1,8,0:0:0
400,176,34463,1,4,0:0:0
256,160,35130,6,0,B|256:40,2,112.5
176,192,35797,6,0,B|144:144|144:144|96:120|40:144,2,150,2|8|2,0:0|0:0|0:0,0:0:0
336,192,36797,2,0,B|368:144|368:144|416:120|472:144,2,150,8|2|8,0:0|0:0|0:0,0:0:0
296,112,37630,1,8,0:0:0
256,40,37797,2,2,B|256:216,2,150,2|8|0,0:0|0:0|0:0,0:0:0
408,112,38797,6,0,B|464:192,1,75,8|0,0:0|0:0,0:0:0
392,240,39130,2,0,B|336:160,2,75,2|0|8,0:0|0:0|0:0,0:0:0
184,296,39797,2,2,B|256:256|328:296,3,150,2|10|2|10,0:0|0:0|0:0|0:0,0:0:0
344,96,41130,6,0,B|376:168|376:168|392:200|432:208,2,150,4|8|0,0:0|0:0|0:0,0:0:0
168,96,42130,2,0,B|136:168|136:168|120:200|80:208,2,150,8|0|8,0:0|0:0|0:0,0:0:0
256,120,42964,1,8,0:0:0
256,208,43130,2,0,B|256:368,2,150,0|8|0,0:0|0:0|0:0,0:0:0
184,88,44130,2,0,B|256:48|328:88,2,150,8|0|8,0:0|0:0|0:0,0:0:0
256,192,45130,1,4,0:0:0
256,192,45214,12,4,46297,0:0:0
168,48,51797,6,0,B|112:88|56:168,1,150,2|2,0:0|0:0,0:0:0
216,192,52464,2,8,B|216:360,1,150
128,216,53130,2,0,B|200:256|272:256,1,150,2|2,0:0|0:0,0:0:0
400,104,53797,1,4,0:0:0
216,336,54464,6,0,B|264:272|272:192,1,150,2|2,0:0|0:0,0:0:0
312,336,55130,2,8,B|464:336,1,150
320,216,55797,2,0,B|256:256|144:256,1,150,2|2,0:0|0:0,0:0:0
36,116,56464,1,4,0:0:0
376,128,57130,5,2,0:0:0
256,248,57464,1,2,0:0:0
136,128,57797,1,8,0:0:0
320,192,58130,1,8,0:0:0
256,40,58464,1,2,0:0:0
192,192,58797,1,2,0:0:0
256,40,59130,1,4,0:0:0
144,248,59797,5,2,0:0:0
256,192,60130,1,2,0:0:0
256,312,60464,1,8,0:0:0
256,192,60797,1,8,0:0:0
368,248,61130,1,2,0:0:0
368,128,61464,1,2,0:0:0
256,64,61797,2,8,B|136:64,2,112.5,12|8|8,0:0|0:0|0:0,0:0:0
256,64,62464,5,4,0:0:0
256,192,63130,1,0,0:0:0
256,320,63797,1,0,0:0:0
256,192,64464,1,0,0:0:0
256,64,65130,5,4,0:0:0
144,192,65797,1,0,0:0:0
256,312,66464,1,0,0:0:0
368,192,67130,1,0,0:0:0
256,64,67797,5,4,0:0:0
344,104,68130,1,0,0:0:0
392,192,68464,1,0,0:0:0
344,280,68797,1,0,0:0:0
256,320,69130,1,4,0:0:0
168,280,69464,1,0,0:0:0
120,192,69797,1,0,0:0:0
168,104,70130,1,0,0:0:0
256,64,70464,5,4,0:0:0
256,160,70797,1,0,0:0:0
256,256,71130,1,0,0:0:0
256,352,71464,1,0,0:0:0
176,304,71797,1,4,0:0:0
256,256,72130,1,0,0:0:0
336,304,72464,1,0,0:0:0
424,280,72797,1,0,0:0:0
448,192,73130,6,0,B|384:144|376:32,1,150,0|8,0:0|0:0,0:0:0
232,40,73797,2,0,B|248:224,2,150,0|8|0,0:0|0:0|0:0,0:0:0
160,208,74797,2,0,B|112:48,1,150,8|0,0:0|0:0,0:0:0
64,256,75464,1,8,0:0:0
64,256,75630,1,8,0:0:0
64,256,75797,6,0,B|152:96,1,150,2|8,0:0|0:0,0:0:0
272,176,76464,2,0,B|184:184|120:104,1,150,2|10,0:0|0:0,0:0:0
320,80,77130,2,0,B|352:168,1,75,0|0,0:0|0:0,0:0:0
392,224,77464,2,0,B|424:184|440:160,2,75,10|0|4,0:0|0:0|0:0,0:0:0
184,48,78463,6,0,B|172:200,1,150,0|8,0:0|0:0,0:0:0
256,320,79130,2,0,B|320:272|328:160,2,150,0|8|0,0:0|0:0|0:0,0:0:0
140,224,80130,2,0,B|284:344,1,150,8|0,0:0|0:0,0:0:0
208,168,80797,1,8,0:0:0
208,168,80963,1,0,0:0:0
208,168,81130,6,0,B|240:96|320:48,1,150,2|8,0:0|0:0,0:0:0
208,168,81797,2,0,B|128:208|56:240,1,150,2|10,0:0|0:0,0:0:0
232,280,82463,2,0,B|272:216,1,75
328,272,82797,2,0,B|360:312|376:336,2,75,10|0|4,0:0|0:0|0:0,0:0:0
256,16,83797,6,0,B|256:48|256:48|264:56|264:56|248:56|248:56|264:64|264:64|248:64|248:64|264:72|264:72|248:72|248:72|264:80|264:80|248:80|248:80|264:88|264:88|248:88|248:88|264:96|264:96|248:96|248:96|264:104|264:104|248:104|248:104|256:112|256:112|256:152,1,300,0|8,0:0|0:0,0:0:0
364,172,84713,2,0,P|408:192,1,37.5
448,320,85130,2,0,B|376:288|288:288,1,150,0|8,0:0|0:0,0:0:0
160,328,85797,2,0,B|72:264,2,100,0|8|0,0:0|0:0|0:0,0:0:0
252,324,86463,6,0,B|278:284|278:284|274:274|274:274|290:281|290:281|279:267|279:267|296:272|296:272|286:258|286:258|303:263|303:263|290:252|290:252|297:255|297:255|300:242|300:242|288:196|320:160|320:160|312:128,1,300
286,48,87296,1,0,0:0:0
208,96,87463,1,0,0:0:0
160,176,87630,2,0,B|280:176|392:224,1,225,0|8,0:0|0:0,0:0:0
416,88,88463,2,0,B|328:88,1,75
176,72,89130,6,0,B|128:144,1,75,2|0,0:0|0:0,0:0:0
48,120,89463,2,0,B|72:208,1,75,8|0,0:0|0:0,0:0:0
144,248,89797,1,0,0:0:0
144,248,90130,1,8,0:0:0
304,248,90463,2,0,B|224:296,2,75,2|0|8,0:0|0:0|0:0,0:0:0
328,328,90963,2,0,B|408:320,1,75
472,192,91463,1,8,0:0:0
368,48,91797,6,0,B|320:120,3,75,2|0|8|0,0:0|0:0|0:0|0:0,0:0:0
240,120,92463,1,0,0:0:0
240,120,92797,1,8,0:0:0
104,56,93130,1,2,0:0:0
104,304,93797,1,4,0:0:0
384,304,94463,6,0,B|464:288|496:192|464:96|384:80,1,300,0|8,0:0|0:0,0:0:0
128,304,95797,2,0,B|48:288|16:192|48:96|128:80,1,300,0|8,0:0|0:0,0:0:0
256,304,97130,6,0,B|256:144,1,150,0|8,0:0|0:0,0:0:0
176,288,97797,1,0,0:0:0
176,288,97963,2,0,B|192:224|255:196|320:224|336:288,2,225,0|0|8,0:0|0:0|0:0,0:0:0
32,128,99463,1,8,0:0:0
144,16,99797,6,0,B|248:40|256:104|256:104|264:40|368:16,1,300,4|8,0:0|0:0,0:0:0
480,128,100797,1,0,0:0:0
392,256,101130,2,0,B|328:304|240:272,1,150,8|0,0:0|0:0,0:0:0
304,144,101797,2,0,B|344:64|264:72|256:16|256:16|248:72|168:64|208:144,2,300,8|4|8,0:0|0:0|0:0,0:0:0
256,336,103797,1,4,0:0:0
368,192,105130,6,0,B|392:256|456:232|488:304,2,150,6|8|2,0:0|0:0|0:0,0:0:0
144,192,106130,2,0,B|120:256|56:232|24:304,2,150,8|2|8,0:0|0:0|0:0,0:0:0
194,256,106963,1,8,0:0:0
181,336,107130,2,0,B|256:312|334:340,1,150,2|8,0:0|0:0,0:0:0
456,208,107797,6,0,B|448:120,3,75
384,72,108463,2,0,B|328:128|256:176,1,150,0|8,0:0|0:0,0:0:0
264,40,109130,2,0,B|200:104,3,75
128,56,109797,2,2,B|64:96|64:208,1,150,2|8,0:0|0:0,0:0:0
160,280,110463,6,0,B|192:224|192:224|136:176|176:120,2,150,6|8|2,0:0|0:0|0:0,0:0:0
352,280,111463,2,0,B|320:224|320:224|376:176|336:120,2,150,8|2|8,0:0|0:0|0:0,0:0:0
256,328,112296,1,8,0:0:0
256,224,112463,2,0,B|256:40,1,150,2|8,0:0|0:0,0:0:0
376,208,113130,6,0,B|388:244|412:296,2,75,0|0|8,0:0|0:0|0:0,0:0:0
272,88,113797,2,0,B|192:104|112:112,2,150,2|8|4,0:0|0:0|0:0,0:0:0
256,248,115130,6,0,B|256:360,2,112.5
344,216,115797,6,0,B|384:152|384:152|464:128,2,150,2|8|2,0:0|0:0|0:0,0:0:0
168,216,116797,2,0,B|128:152|128:152|48:128,2,150,8|2|8,0:0|0:0|0:0,0:0:0
208,139,117630,1,8,0:0:0
256,72,117797,2,0,B|256:248,2,150,2|8|2,0:0|0:0|0:0,0:0:0
416,104,118797,6,0,B|364:168,1,75,8|0,0:0|0:0,0:0:0
432,224,119130,2,0,B|352:232|280:256,1,150,2|8,0:0|0:0,0:0:0
56,192,119797,2,0,B|104:120,1,75,2|0,0:0|0:0,0:0:0
168,184,120130,2,0,B|232:232,1,75,8|2,0:0|0:0,0:0:0
144,280,120463,1,4,0:0:0
368,64,121130,6,0,B|312:96|312:96|296:144|352:184,2,150,2|8|2,0:0|0:0|0:0,0:0:0
144,64,122130,2,0,B|200:96|200:96|216:144|160:184,2,150,8|2|8,0:0|0:0|0:0,0:0:0
72,136,122963,1,8,0:0:0
88,232,123130,2,8,B|96:280|104:336,1,75,2|8,0:0|0:0,0:0:0
184,288,123463,2,0,B|256:248|328:288,1,150,0|4,0:0|0:0,0:0:0
464,192,124130,6,0,B|416:168|384:160,1,75,8|0,0:0|0:0,0:0:0
312,160,124463,2,0,B|280:120,8,37.5,0|0|0|0|8|0|0|0|4,0:0|0:0|0:0|0:0|0:0|0:0|0:0|0:0|0:0,0:0:0
256,192,125213,12,4,127630,0:0:0
