osu file format v11

[General]
AudioFilename: U.N. Owen was her Metal Remix.mp3
AudioLeadIn: 2000
PreviewTime: 57199
Countdown: 0
SampleSet: Normal
StackLeniency: 0.4
Mode: 0
LetterboxInBreaks: 1
CountdownOffset: 3

[Editor]
Bookmarks: 25216,51883,73216,94549
DistanceSpacing: 1
BeatDivisor: 3
GridSize: 4

[Metadata]
Title:U.N. Owen was Her?
TitleUnicode:U.N. Owen was Her?
Artist:Len
ArtistUnicode:Len
Creator:winber1
Version:Challenging
Source:Touhou
Tags:ZUN OnosakiHito Flandre embodiment of scarlet devil th06 koumakyou
BeatmapID:92881
BeatmapSetID:27575

[Difficulty]
HPDrainRate:5
CircleSize:4
OverallDifficulty:6
ApproachRate:7
SliderMultiplier:1.8
SliderTickRate:1

[Events]
//Background and Video events
0,0,"bg.jpeg"
//Break Periods
2,14664,16064
2,46664,50897
//Storyboard Layer 0 (Background)
//Storyboard Layer 1 (Fail)
//Storyboard Layer 2 (Pass)
//Storyboard Layer 3 (Foreground)
//Storyboard Sound Samples
//Background Colour Transformations
3,100,163,162,255

[TimingPoints]
1131,333.333333333333,5,1,1,55,1,0
2118,-100,5,1,1,80,0,0
2951,-100,5,1,1,55,0,0
3785,-100,5,1,1,80,0,0
4618,-100,5,1,1,55,0,0
5451,-100,5,1,1,80,0,0
6285,-100,5,1,1,55,0,0
7118,-100,5,1,1,80,0,0
7951,-100,5,1,1,55,0,0
8868,-100,5,1,1,80,0,0
9535,-100,5,1,1,55,0,0
10535,-100,5,1,1,80,0,0
11201,-100,5,1,1,55,0,0
12201,-100,5,1,1,80,0,0
12868,-100,5,1,1,55,0,0
13868,-100,5,1,1,80,0,0
14464,333.333333333333,4,2,1,100,1,0
16956,-100,4,1,1,60,0,0
17126,-100,4,2,1,60,0,0
19797,-100,4,1,1,60,0,0
35797,-100,4,1,1,60,0,1
46463,-100,4,1,1,60,0,0
105130,-100,4,1,1,60,0,1
125130,-100,4,1,1,60,0,0
127797,-100,4,1,1,60,0,1
127880,-100,4,1,1,60,0,0

[Colours]
Combo1 : 223,0,0
Combo2 : 22,72,245
Combo3 : 68,176,21
Combo4 : 215,107,11

[HitObjects]
208,96,464,5,0,0:0:0
264,160,631,2,0,B|304:120,2,45
184,176,964,1,0,0:0:0
160,256,1131,6,2,B|216:312|312:320,2,135,4|0|0,0:0|0:0|0:0,0:0:0
128,112,1880,1,0,0:0:0
288,72,2130,2,0,B|232:16|136:8,2,135,4|4|4,0:0|0:0|0:0,0:0:0
392,112,2797,6,2,B|344:160|312:224,1,135,0|0,0:0|0:0,0:0:0
208,136,3297,2,2,B|224:208|224:280,1,135,0|0,0:0|0:0,0:0:0
376,336,3797,1,4,0:0:0
376,336,4047,1,4,0:0:0
376,336,4297,1,4,0:0:0
448,272,4464,6,2,B|416:216|384:136,3,135,0|0|0|0,0:0|0:0|0:0|0:0,0:0:0
256,240,5464,1,4,0:0:0
256,240,5714,1,4,0:0:0
256,240,5964,1,4,0:0:0
160,192,6130,5,0,0:0:0
256,56,6380,1,0,0:0:0
352,192,6630,1,0,0:0:0
160,96,6880,1,0,0:0:0
352,96,7130,1,4,0:0:0
352,96,7380,1,4,0:0:0
352,96,7630,1,4,0:0:0
424,32,7797,6,0,B|440:104|448:144,2,90,0|2|0,0:0|0:0|0:0,0:0:0
352,96,8297,2,0,B|336:168|328:208,2,90,2|0|2,0:0|0:0|0:0,0:0:0
264,136,8797,2,4,B|248:64|272:-8,2,135,4|4|4,0:0|0:0|0:0,0:0:0
192,176,9464,6,0,B|216:216|240:272,2,90,0|2|0,0:0|0:0|0:0,0:0:0
108,155,9964,1,2,0:0:0
64,232,10130,2,0,B|112:248|168:264,1,90,0|2,0:0|0:0,0:0:0
192,336,10464,1,4,0:0:0
192,336,10714,1,4,0:0:0
192,336,10964,1,4,0:0:0
288,344,11130,6,0,B|320:296|344:264,1,90,0|2,0:0|0:0,0:0:0
416,240,11464,1,0,0:0:0
440,160,11631,1,2,0:0:0
368,112,11797,2,0,B|328:144|288:176,1,90,0|2,0:0|0:0,0:0:0
224,112,12131,1,4,0:0:0
224,112,12381,1,4,0:0:0
224,112,12631,1,4,0:0:0
144,72,12797,5,0,0:0:0
80,136,12964,1,2,0:0:0
120,216,13131,1,0,0:0:0
208,200,13297,1,2,0:0:0
232,280,13464,2,0,B|264:256|296:216,1,90,0|2,0:0|0:0,0:0:0
368,168,13797,1,4,0:0:0
368,168,14047,1,4,0:0:0
368,168,14297,1,4,0:0:0
312,96,14464,1,4,0:0:0
200,104,16964,6,0,B|176:144|152:192,1,90
208,264,17297,1,2,0:0:0
208,264,17630,1,0,0:0:0
368,256,17963,1,2,0:0:0
368,256,18297,1,0,0:0:0
368,96,18630,1,2,0:0:0
368,96,18963,1,0,0:0:0
256,192,19297,1,2,0:0:0
256,192,19630,1,2,0:0:0
176,152,19797,6,0,B|144:200|120:256,1,90,6|0,0:0|0:0,0:0:0
208,256,20130,2,0,B|240:304|256:352,1,90
312,280,20463,1,2,0:0:0
392,296,20630,1,2,0:0:0
448,240,20797,2,0,B|472:192|488:144,2,90,0|2|0,0:0|0:0|0:0,0:0:0
368,210,21297,1,2,0:0:0
360,128,21463,2,0,B|312:88|272:56,2,90,2|0|0,0:0|0:0|0:0,0:0:0
432,80,21963,1,2,0:0:0
432,80,22130,1,0,0:0:0
208,72,22463,6,0,B|168:144|120:232,1,180,6|0,0:0|0:0,0:0:0
121,228,22963,1,0,0:0:0
216,216,23130,2,0,B|320:176|393:281,1,180,2|2,0:0|0:0,0:0:0
377,260,23630,1,2,0:0:0
448,208,23797,2,0,B|424:112,1,90
360,64,24130,2,0,B|328:104|288:136,1,90,2|0,0:0|0:0,0:0:0
216,96,24463,1,0,0:0:0
88,160,25130,6,0,B|176:200|192:312,2,180,4|8|0,0:0|0:0|0:0,0:0:0
424,160,26130,2,0,B|336:200|320:312,2,180,8|0|8,0:0|0:0|0:0,0:0:0
428,77,26963,1,8,0:0:0
344,72,27130,2,2,B|256:96|164:72,1,180,2|8,0:0|0:0,0:0:0
72,320,27797,6,0,B|120:296|168:264,1,90
88,216,28130,2,0,B|136:176|160:152,1,90,8|0,0:0|0:0,0:0:0
224,200,28463,1,0,0:0:0
232,120,28630,2,0,B|280:136,2,45,0|0|8,0:0|0:0|0:0,0:0:0
168,80,28963,1,0,0:0:0
240,48,29130,2,0,B|280:88|304:128,1,90
248,32,29463,2,0,B|293:65|323:101,1,90,8|0,0:0|0:0,0:0:0
256,16,29797,2,2,B|336:48|424:120,1,180,2|0,0:0|0:0,0:0:0
360,296,30463,6,0,B|392:272|392:232|392:232|432:240|432:240|464:176,2,180,4|8|0,0:0|0:0|0:0,0:0:0
152,296,31463,2,0,B|120:272|120:232|120:232|80:240|80:240|48:176,2,180,8|0|8,0:0|0:0|0:0,0:0:0
152,296,32297,1,8,0:0:0
216,232,32463,2,0,B|200:208|216:176|256:168|256:168|296:176|312:208|296:232,1,180,0|8,0:0|0:0,0:0:0
152,64,33130,6,0,B|160:112|168:168,1,90,2|0,0:0|0:0,0:0:0
232,88,33463,2,0,B|280:112|336:120,1,90,8|2,0:0|0:0,0:0:0
376,56,33797,1,0,0:0:0
400,136,33963,2,0,B|384:184,2,45,0|0|2,0:0|0:0|0:0,0:0:0
464,80,34297,1,0,0:0:0
480,160,34463,1,4,0:0:0
256,248,35130,6,0,B|256:384,2,135
176,192,35797,6,2,B|144:168|144:168|104:176|104:176|48:152|40:96,2,180,6|8|2,0:0|0:0|0:0,0:0:0
336,192,36797,2,2,B|368:168|368:168|408:176|408:176|464:152|472:96,2,180,8|2|8,0:0|0:0|0:0,0:0:0
352,96,37630,1,8,0:0:0
256,80,37797,2,2,B|256:272,2,180,2|8|0,0:0|0:0|0:0,0:0:0
344,56,38630,6,0,B|440:48,2,90,0|8|0,0:0|0:0|0:0,0:0:0
332,145,39130,1,2,0:0:0
400,200,39297,2,0,B|432:168,2,45,0|0|8,0:0|0:0|0:0,0:0:0
352,272,39630,1,0,0:0:0
272,304,39797,2,0,B|248:264|224:208,2,90,2|0|8,0:0|0:0|0:0,0:0:0
200,344,40297,1,0,0:0:0
200,344,40464,2,0,B|160:256|40:264,1,180,2|0,0:0|0:0,0:0:0
144,64,41130,6,2,B|200:96|200:96|160:152|200:208,2,180,6|8|2,0:0|0:0|0:0,0:0:0
368,64,42130,2,2,B|312:96|312:96|352:152|312:208,2,180,8|2|8,0:0|0:0|0:0,0:0:0
456,56,42964,1,8,0:0:0
424,136,43130,2,0,B|416:184|392:256,1,90,2|0,0:0|0:0,0:0:0
340,300,43464,2,0,B|256:248|160:304,1,180,8|2,0:0|0:0,0:0:0
80,272,43964,5,0,0:0:0
48,192,44130,2,0,B|96:168|136:152,1,90,8|0,0:0|0:0,0:0:0
176,80,44464,1,2,0:0:0
216,160,44630,2,0,B|248:192,2,45,0|0|8,0:0|0:0|0:0,0:0:0
264,88,44964,2,0,B|304:136|328:160,1,90,0|4,0:0|0:0,0:0:0
256,192,45297,12,4,46464,0:0:0
72,128,51797,6,0,B|128:80|184:56,1,120,2|0,0:0|0:0,0:0:0
192,32,52130,2,0,B|248:144,1,120,2|0,0:0|0:0,0:0:0
280,144,52464,2,0,B|224:184|160:224,1,120,8|0,0:0|0:0,0:0:0
144,224,52797,1,8,0:0:0
224,320,53019,1,0,0:0:0
256,312,53130,2,0,B|328:336|384:352,1,120,2|0,0:0|0:0,0:0:0
392,320,53464,2,0,B|440:248|464:184,1,120
440,184,53797,1,4,0:0:0
64,184,54464,6,0,B|104:240|176:248,1,120,2|0,0:0|0:0,0:0:0
200,240,54797,2,0,B|240:192|265:123,1,120,2|0,0:0|0:0,0:0:0
264,100,55130,2,0,B|272:164|304:228,1,120,8|0,0:0|0:0,0:0:0
308,248,55464,2,0,B|372:264|404:320,1,120,8|0,0:0|0:0,0:0:0
424,344,55797,2,0,B|400:208,1,120,2|0,0:0|0:0,0:0:0
400,192,56130,2,0,B|472:200,3,60,2|0|0|4,0:0|0:0|0:0|0:0,0:0:0
200,144,57130,6,0,B|176:96|176:80,2,60,2|0|0,0:0|0:0|0:0,0:0:0
232,120,57464,2,0,B|240:56,2,60,2|0|0,0:0|0:0|0:0,0:0:0
272,112,57797,2,0,B|312:48,2,60,8|0|0,0:0|0:0|0:0,0:0:0
312,120,58130,2,0,B|376:96,2,60,8|0|0,0:0|0:0|0:0,0:0:0
344,144,58464,2,0,B|416:160,2,60,2|0|0,0:0|0:0|0:0,0:0:0
352,184,58797,2,0,B|408:240,3,60,2|0|0|4,0:0|0:0|0:0|0:0,0:0:0
256,288,59630,5,0,0:0:0
256,288,59714,1,0,0:0:0
256,288,59797,2,0,B|200:328,2,60,2|0|0,0:0|0:0|0:0,0:0:0
256,248,60130,2,0,B|312:208,2,60,2|0|0,0:0|0:0|0:0,0:0:0
256,208,60464,2,0,B|200:248,2,60,8|0|0,0:0|0:0|0:0,0:0:0
256,168,60797,2,0,B|312:128,2,60,8|0|0,0:0|0:0|0:0,0:0:0
256,128,61130,2,0,B|192:168,2,60,2|0|0,0:0|0:0|0:0,0:0:0
256,88,61464,1,2,0:0:0
256,88,61574,1,0,0:0:0
256,88,61686,1,0,0:0:0
256,88,61797,2,0,B|312:64|400:72,2,135
256,88,62464,5,4,0:0:0
256,192,63130,1,0,0:0:0
256,296,63797,1,0,0:0:0
256,192,64464,1,0,0:0:0
256,88,65130,5,4,0:0:0
176,112,65464,1,0,0:0:0
144,192,65797,1,0,0:0:0
176,272,66130,1,0,0:0:0
256,296,66464,1,0,0:0:0
336,272,66797,1,0,0:0:0
368,192,67130,1,0,0:0:0
336,112,67464,1,0,0:0:0
256,88,67797,5,4,0:0:0
336,112,67964,1,0,0:0:0
368,192,68130,1,0,0:0:0
336,272,68297,1,0,0:0:0
256,296,68464,1,0,0:0:0
176,272,68630,1,0,0:0:0
144,192,68797,1,0,0:0:0
176,112,68964,1,0,0:0:0
256,88,69130,5,4,0:0:0
176,112,69297,1,0,0:0:0
144,192,69464,1,0,0:0:0
176,272,69630,1,0,0:0:0
256,296,69797,1,0,0:0:0
336,272,69964,1,0,0:0:0
368,192,70130,1,0,0:0:0
336,112,70297,1,0,0:0:0
256,88,70464,5,4,0:0:0
256,88,70630,1,0,0:0:0
256,176,70797,1,0,0:0:0
256,176,70964,1,0,0:0:0
256,264,71130,1,0,0:0:0
256,264,71297,1,0,0:0:0
256,176,71464,1,0,0:0:0
256,176,71630,1,0,0:0:0
256,88,71797,5,4,0:0:0
256,320,72130,1,0,0:0:0
104,280,72464,1,0,0:0:0
80,200,72630,2,0,B|48:168,2,45
160,216,72964,1,0,0:0:0
184,136,73130,6,0,B|144:112|144:112|104:112|104:112|48:80|64:16,2,180,4|8|0,0:0|0:0|0:0,0:0:0
328,248,74130,2,0,B|368:272|368:272|408:272|408:272|464:304|448:368,2,180,8|0|8,0:0|0:0|0:0,0:0:0
256,112,75130,1,2,0:0:0
328,160,75297,2,0,B|336:104,2,45,0|0|8,0:0|0:0|0:0,0:0:0
328,160,75630,1,0,0:0:0
256,192,75797,6,2,B|224:232|192:272,1,90,2|0,0:0|0:0,0:0:0
152,200,76130,2,0,B|112:216|48:224,1,90,8|0,0:0|0:0,0:0:0
96,296,76464,1,2,0:0:0
152,352,76630,1,0,0:0:0
232,336,76797,1,8,0:0:0
312,312,76964,2,0,B|336:264|360:224,2,90,0|2|0,0:0|0:0|0:0,0:0:0
248,256,77464,1,10,0:0:0
232,336,77630,1,0,0:0:0
232,336,77797,1,4,0:0:0
152,88,78463,6,0,B|128:144|112:192,1,90,2|0,0:0|0:0,0:0:0
64,112,78797,1,8,0:0:0
152,88,78963,2,0,B|208:128|248:160,2,90,0|2|0,0:0|0:0|0:0,0:0:0
118,172,79463,2,0,B|134:228|150:276,1,90,8|0,0:0|0:0,0:0:0
224,224,79797,1,2,0:0:0
256,304,79963,1,0,0:0:0
224,224,80130,1,8,0:0:0
288,160,80297,2,0,B|336:208|368:232,2,90,0|2|0,0:0|0:0|0:0,0:0:0
288,160,80797,1,8,0:0:0
432,64,81130,5,2,0:0:0
360,112,81297,1,0,0:0:0
288,160,81463,2,0,B|248:144|192:112,1,90,8|0,0:0|0:0,0:0:0
288,82,81797,2,0,B|264:146|248:194,1,90,2|0,0:0|0:0,0:0:0
304,240,82130,2,0,B|256:240|192:256,1,90,8|0,0:0|0:0,0:0:0
152,192,82463,1,2,0:0:0
104,272,82630,1,0,0:0:0
48,208,82797,2,0,B|91:215|136:232,2,90,8|0|4,0:0|0:0|0:0,0:0:0
144,72,83463,5,0,0:0:0
232,104,83630,1,0,0:0:0
232,104,83713,1,0,0:0:0
232,104,83797,2,0,B|232:152|232:152|240:160|240:160|224:160|224:160|240:168|240:168|224:168|224:168|240:176|240:176|224:176|224:176|240:184|240:184|224:184|224:184|240:192|240:192|224:192|224:192|240:200|240:200|224:200|224:200|240:208|240:208|224:208|224:208|232:216|232:216|232:288,1,360,0|8,0:0|0:0,0:0:0
344,192,84713,2,0,B|352:240,1,45
448,328,85130,2,0,B|368:288|256:304,1,180,0|8,0:0|0:0,0:0:0
424,240,85797,2,0,B|392:288|336:336,2,120
448,144,86463,6,0,B|414:111|414:111|403:113|403:113|413:99|413:99|397:107|397:107|405:91|405:91|389:99|389:99|397:83|397:83|384:94|384:94|389:87|389:87|346:44|346:44|296:88|216:88,1,360
152,128,87297,2,0,B|192:176|216:224,1,90
128,264,87630,2,0,B|248:248|384:336,1,270
416,168,88463,1,0,0:0:0
416,168,88630,1,0,0:0:0
232,56,89130,6,0,B|200:96|152:136,1,90,2|0,0:0|0:0,0:0:0
248,144,89463,2,0,B|264:240,1,90,8|0,0:0|0:0,0:0:0
176,208,89797,1,2,0:0:0
176,224,89880,1,0,0:0:0
176,240,89963,1,0,0:0:0
176,256,90047,1,0,0:0:0
176,272,90130,2,0,B|176:312|176:312|176:344|216:360,1,90,8|0,0:0|0:0,0:0:0
292,360,90463,2,0,B|292:312,2,45,8|0|0,0:0|0:0|0:0,0:0:0
380,312,90797,2,0,B|380:360,2,45,8|0|0,0:0|0:0|0:0,0:0:0
432,224,91130,2,0,B|472:256,4,45,2|0|0|0|8,0:0|0:0|0:0|0:0|0:0,0:0:0
400,136,91630,1,0,0:0:0
336,80,91797,5,2,0:0:0
336,80,91880,1,0,0:0:0
336,80,91963,1,0,0:0:0
272,128,92130,2,0,B|216:152|168:176,1,90,8|0,0:0|0:0,0:0:0
232,96,92463,2,0,B|304:176,1,90,2|0,0:0|0:0,0:0:0
240,224,92797,1,8,0:0:0
224,224,92880,1,0,0:0:0
208,224,92963,1,0,0:0:0
192,224,93047,1,0,0:0:0
176,224,93130,1,4,0:0:0
32,120,93797,1,0,0:0:0
200,48,94463,6,0,B|248:88|248:88|288:88|320:128,2,135,2|8|8,0:0|0:0|0:0,0:0:0
176,136,95130,2,0,B|168:184|208:224|184:280,2,135,2|8|8,0:0|0:0|0:0,0:0:0
256,184,95797,2,0,B|313:160|313:160|332:125|382:115,2,135,2|8|8,0:0|0:0|0:0,0:0:0
264,96,96463,2,0,B|320:232,2,135,2|8|8,0:0|0:0|0:0,0:0:0
360,112,97130,6,0,B|440:176|400:272,2,180,2|8|0,0:0|0:0|0:0,0:0:0
360,112,97963,2,0,B|192:224,1,180,2|2,0:0|0:0,0:0:0
192,128,98463,2,0,B|232:312,1,180,0|8,0:0|0:0,0:0:0
152,320,98963,2,0,B|56:288|32:184,2,180
160,216,99797,6,0,B|244:200|257:134|257:134|268:202|352:216,1,270,4|0,0:0|0:0,0:0:0
304,288,100463,2,0,B|472:328,2,135,2|8|2,0:0|0:0|0:0,0:0:0
351,215,101130,2,0,B|368:152|432:72,2,135,0|8|0,0:0|0:0|0:0,0:0:0
304,144,101797,2,0,B|184:72|192:24|256:-32|320:24|328:72|208:144,2,360,4|0|8,0:0|0:0|0:0,0:0:0
325,288,103380,2,0,B|189:288,1,135,8|0,0:0|0:0,0:0:0
256,216,103797,1,4,0:0:0
424,160,105130,6,2,B|416:248|320:200|320:312,2,180,6|8|0,0:0|0:0|0:0,0:0:0
88,160,106130,2,2,B|96:248|192:200|192:312,2,180,8|2|8,0:0|0:0|0:0,0:0:0
84,77,106963,1,8,0:0:0
168,72,107130,2,2,B|256:96|348:72,1,180,2|8,0:0|0:0,0:0:0
440,320,107797,6,0,B|392:296|344:264,1,90,2|0,0:0|0:0,0:0:0
424,216,108130,2,0,B|376:176|352:152,1,90,8|0,0:0|0:0,0:0:0
288,200,108463,1,2,0:0:0
280,120,108630,2,0,B|232:136,2,45,0|0|8,0:0|0:0|0:0,0:0:0
360,80,108963,1,0,0:0:0
440,40,109130,2,0,B|400:80|376:120,1,90,2|0,0:0|0:0,0:0:0
348,36,109463,2,0,B|303:69|273:105,1,90,8|0,0:0|0:0,0:0:0
256,16,109797,2,2,B|176:48|88:120,1,180,2|8,0:0|0:0,0:0:0
152,296,110463,6,2,B|176:200|176:200|144:168|88:176,2,180,6|8|0,0:0|0:0|0:0,0:0:0
360,296,111463,2,2,B|336:200|336:200|368:168|424:176,2,180,8|2|8,0:0|0:0|0:0,0:0:0
296,248,112297,1,0,0:0:0
296,248,112463,2,2,B|312:272|296:304|256:312|256:312|216:304|200:272|216:248,1,180,2|8,0:0|0:0,0:0:0
360,64,113130,6,0,B|352:112|344:168,1,90
280,88,113463,2,0,B|232:112|176:120,1,90,8|0,0:0|0:0,0:0:0
136,56,113797,1,2,0:0:0
112,136,113963,2,0,B|128:184,2,45,0|0|8,0:0|0:0|0:0,0:0:0
48,80,114297,1,0,0:0:0
32,160,114463,1,4,0:0:0
256,64,115130,5,0,0:0:0
136,272,115380,1,0,0:0:0
376,272,115630,1,0,0:0:0
336,192,115797,6,2,B|400:200|416:144|416:144|448:112|496:96,2,180,2|8|0,0:0|0:0|0:0,0:0:0
176,192,116797,2,2,B|112:200|96:144|96:144|64:112|16:96,2,180,8|2|8,0:0|0:0|0:0,0:0:0
168,288,117630,1,0,0:0:0
256,256,117797,2,0,B|256:64,2,180,0|8|2,0:0|0:0|0:0,0:0:0
240,344,118630,5,0,0:0:0
168,288,118797,2,0,B|96:280|48:272,1,90,8|0,0:0|0:0,0:0:0
72,200,119130,1,2,0:0:0
160,200,119297,2,0,B|192:144,2,45,0|0|8,0:0|0:0|0:0,0:0:0
168,288,119630,1,0,0:0:0
256,256,119797,2,0,B|280:216|304:160,2,90,2|0|8,0:0|0:0|0:0,0:0:0
328,312,120297,1,0,0:0:0
328,312,120463,2,0,B|392:240|496:280,1,180,2|8,0:0|0:0,0:0:0
368,64,121130,6,0,B|312:96|312:96|352:152|312:208,2,180,4|8|0,0:0|0:0|0:0,0:0:0
144,64,122130,2,0,B|200:96|200:96|160:152|200:208,2,180,8|0|8,0:0|0:0|0:0,0:0:0
56,56,122963,1,8,0:0:0
88,136,123130,2,8,B|96:184|120:256,1,90,2|8,0:0|0:0,0:0:0
172,300,123463,2,0,B|256:248|352:304,1,180
432,272,123963,5,0,0:0:0
464,192,124130,2,0,B|416:168|376:152,1,90,8|0,0:0|0:0,0:0:0
336,80,124463,1,2,0:0:0
296,160,124630,2,0,B|264:192,2,45,0|0|8,0:0|0:0|0:0,0:0:0
248,88,124963,2,0,B|168:168,1,90,0|4,0:0|0:0,0:0:0
256,192,125297,12,4,127797,0:0:0
