osu file format v12

[General]
AudioFilename: brobro.mp3
AudioLeadIn: 0
PreviewTime: 27978
Countdown: 0
SampleSet: None
StackLeniency: 0.7
Mode: 0
LetterboxInBreaks: 1
WidescreenStoryboard: 0

[Editor]
Bookmarks: 2845,5797,28058,47446,68909,69148,69388,69547,69707,69867,70026,70186,89335,109792,114867,119973,125079,127633,130186,140398,145525,150631,160824,165930,169760,171037,174547,175904,177898,179973,182207,184760,185957,186037,186117,187234,188351,189148,189388,190345,190585,190824,191462,194015,201037,201675,209335,211888,212845,213484,214441,215239,215877,216994,217952,218590,219547,220505,221143,222101,223058,223696,224654,225611,226250,227207,228324,228962,229760,230877,231515,234867
DistanceSpacing: 1.1
BeatDivisor: 4
GridSize: 4

[Metadata]
Title:PEPPYQUEST
TitleUnicode:PEPPYQUEST
Artist:Lemon Demon
ArtistUnicode:Lemon Demon
Creator:Charles445
Version:CopyPasteForTheBored
Source:
Tags:brodyquest instrumental remix Neil Cicierega
BeatmapID:348675
BeatmapSetID:139597

[Difficulty]
HPDrainRate:2
CircleSize:4
OverallDifficulty:4
ApproachRate:6
SliderMultiplier:0.9
SliderTickRate:1

[Events]
//Background and Video events
0,0,"peppyquest.png",0,0
//Break Periods
2,109641,129136
2,170917,200625
//Storyboard Layer 0 (Background)
//Storyboard Layer 1 (Fail)
//Storyboard Layer 2 (Pass)
//Storyboard Layer 3 (Foreground)
//Storyboard Sound Samples
//Background Colour Transformations
3,100,163,162,255

[TimingPoints]
7633,319.148936170213,4,2,0,50,1,0
232154,-100,4,2,0,10,0,0

[Colours]
Combo1 : 255,150,0
Combo2 : 5,240,5
Combo3 : 5,5,240
Combo4 : 240,5,5

[HitObjects]
392,320,7632,6,0,P|432:336|488:332,2,90
304,272,8590,1,0,0:0:0:0:
212,304,8909,2,0,P|148:320|72:304,2,135
136,240,10186,6,0,P|128:192|136:144,1,90
188,68,10824,1,0,0:0:0:0:
284,44,11143,1,0,0:0:0:0:
384,40,11462,5,0,0:0:0:0:
320,172,11941,2,0,P|380:196|448:176,1,135
408,268,12739,1,0,0:0:0:0:
312,296,13058,1,0,0:0:0:0:
212,292,13377,1,0,0:0:0:0:
136,228,13696,1,0,0:0:0:0:
112,132,14015,5,0,0:0:0:0:
240,60,14494,2,0,L|368:104,1,135
284,160,15292,6,0,P|256:204|256:248,1,90
216,332,15930,2,0,P|260:340|308:328,1,90
352,244,16569,1,0,0:0:0:0:
448,128,17047,2,0,P|480:184|468:256,1,135
392,320,17845,6,0,P|432:336|488:332,2,90
304,272,18803,1,0,0:0:0:0:
212,304,19122,2,0,P|148:320|72:304,2,135
136,240,20398,6,0,P|128:192|136:144,1,90
188,68,21037,1,0,0:0:0:0:
284,44,21356,1,0,0:0:0:0:
384,40,21675,5,0,0:0:0:0:
320,172,22154,2,0,P|380:196|448:176,1,135
408,268,22952,1,0,0:0:0:0:
312,296,23271,1,0,0:0:0:0:
212,292,23590,1,0,0:0:0:0:
136,228,23909,1,0,0:0:0:0:
112,132,24228,5,0,0:0:0:0:
240,60,24707,2,0,L|368:104,1,135
284,160,25505,6,0,P|256:204|256:248,1,90
216,332,26143,2,0,P|260:340|308:328,1,90
352,244,26781,1,0,0:0:0:0:
448,128,27260,2,0,P|480:184|468:256,1,135
392,320,28058,6,0,P|432:336|488:332,2,90
304,272,29015,1,0,0:0:0:0:
212,304,29335,2,0,P|148:320|72:304,2,135
136,240,30611,6,0,P|128:192|136:144,1,90
188,68,31250,1,0,0:0:0:0:
284,44,31569,1,0,0:0:0:0:
384,40,31888,5,0,0:0:0:0:
320,172,32367,2,0,P|380:196|448:176,1,135
408,268,33164,1,0,0:0:0:0:
312,296,33484,1,0,0:0:0:0:
212,292,33803,1,0,0:0:0:0:
136,228,34122,1,0,0:0:0:0:
112,132,34441,5,0,0:0:0:0:
240,60,34920,2,0,L|368:104,1,135
284,160,35718,6,0,P|256:204|256:248,1,90
216,332,36356,2,0,P|260:340|308:328,1,90
352,244,36994,1,0,0:0:0:0:
448,128,37473,2,0,P|480:184|468:256,1,135
392,320,38271,6,0,P|432:336|488:332,2,90
304,272,39228,1,0,0:0:0:0:
212,304,39547,2,0,P|148:320|72:304,2,135
136,240,40824,6,0,P|128:192|136:144,1,90
188,68,41462,1,0,0:0:0:0:
284,44,41781,1,0,0:0:0:0:
384,40,42101,5,0,0:0:0:0:
320,172,42579,2,0,P|380:196|448:176,1,135
408,268,43377,1,0,0:0:0:0:
312,296,43696,1,0,0:0:0:0:
212,292,44015,1,0,0:0:0:0:
136,228,44335,1,0,0:0:0:0:
112,132,44654,5,0,0:0:0:0:
240,60,45133,2,0,L|368:104,1,135
284,160,45930,6,0,P|256:204|256:248,1,90
216,332,46569,2,0,P|260:340|308:328,1,90
352,244,47207,1,0,0:0:0:0:
448,128,47686,2,0,P|480:184|468:256,1,135
392,320,48484,6,0,P|432:336|488:332,2,90
304,272,49442,1,0,0:0:0:0:
212,304,49761,2,0,P|148:320|72:304,2,135
136,240,51038,6,0,P|128:192|136:144,1,90
188,68,51676,1,0,0:0:0:0:
284,44,51995,1,0,0:0:0:0:
384,40,52314,5,0,0:0:0:0:
320,172,52793,2,0,P|380:196|448:176,1,135
408,268,53591,1,0,0:0:0:0:
312,296,53910,1,0,0:0:0:0:
212,292,54229,1,0,0:0:0:0:
136,228,54548,1,0,0:0:0:0:
112,132,54867,5,0,0:0:0:0:
240,60,55346,2,0,L|368:104,1,135
284,160,56144,6,0,P|256:204|256:248,1,90
216,332,56782,2,0,P|260:340|308:328,1,90
352,244,57421,1,0,0:0:0:0:
448,128,57899,2,0,P|480:184|468:256,1,135
392,320,58697,6,0,P|432:336|488:332,2,90
304,272,59655,1,0,0:0:0:0:
212,304,59974,2,0,P|148:320|72:304,2,135
136,240,61251,6,0,P|128:192|136:144,1,90
188,68,61889,1,0,0:0:0:0:
284,44,62208,1,0,0:0:0:0:
384,40,62527,5,0,0:0:0:0:
320,172,63006,2,0,P|380:196|448:176,1,135
408,268,63804,1,0,0:0:0:0:
312,296,64123,1,0,0:0:0:0:
212,292,64442,1,0,0:0:0:0:
136,228,64761,1,0,0:0:0:0:
112,132,65080,5,0,0:0:0:0:
240,60,65559,2,0,L|368:104,1,135
284,160,66357,6,0,P|256:204|256:248,1,90
216,332,66995,2,0,P|260:340|308:328,1,90
352,244,67634,1,0,0:0:0:0:
448,128,68112,2,0,P|480:184|468:256,1,135
392,320,68909,6,0,P|432:336|488:332,2,90
304,272,69867,1,0,0:0:0:0:
212,304,70186,2,0,P|148:320|72:304,2,135
136,240,71463,6,0,P|128:192|136:144,1,90
188,68,72101,1,0,0:0:0:0:
284,44,72420,1,0,0:0:0:0:
384,40,72739,5,0,0:0:0:0:
320,172,73218,2,0,P|380:196|448:176,1,135
408,268,74016,1,0,0:0:0:0:
312,296,74335,1,0,0:0:0:0:
212,292,74654,1,0,0:0:0:0:
136,228,74973,1,0,0:0:0:0:
112,132,75292,5,0,0:0:0:0:
240,60,75771,2,0,L|368:104,1,135
284,160,76569,6,0,P|256:204|256:248,1,90
216,332,77207,2,0,P|260:340|308:328,1,90
352,244,77846,1,0,0:0:0:0:
448,128,78324,2,0,P|480:184|468:256,1,135
392,320,79122,6,0,P|432:336|488:332,2,90
304,272,80080,1,0,0:0:0:0:
212,304,80399,2,0,P|148:320|72:304,2,135
136,240,81676,6,0,P|128:192|136:144,1,90
188,68,82314,1,0,0:0:0:0:
284,44,82633,1,0,0:0:0:0:
384,40,82952,5,0,0:0:0:0:
320,172,83431,2,0,P|380:196|448:176,1,135
408,268,84229,1,0,0:0:0:0:
312,296,84548,1,0,0:0:0:0:
212,292,84867,1,0,0:0:0:0:
136,228,85186,1,0,0:0:0:0:
112,132,85505,5,0,0:0:0:0:
240,60,85984,2,0,L|368:104,1,135
284,160,86782,6,0,P|256:204|256:248,1,90
216,332,87420,2,0,P|260:340|308:328,1,90
352,244,88059,1,0,0:0:0:0:
448,128,88537,2,0,P|480:184|468:256,1,135
392,320,89335,6,0,P|432:336|488:332,2,90
304,272,90293,1,0,0:0:0:0:
212,304,90612,2,0,P|148:320|72:304,2,135
136,240,91889,6,0,P|128:192|136:144,1,90
188,68,92527,1,0,0:0:0:0:
284,44,92846,1,0,0:0:0:0:
384,40,93165,5,0,0:0:0:0:
320,172,93644,2,0,P|380:196|448:176,1,135
408,268,94442,1,0,0:0:0:0:
312,296,94761,1,0,0:0:0:0:
212,292,95080,1,0,0:0:0:0:
136,228,95399,1,0,0:0:0:0:
112,132,95718,5,0,0:0:0:0:
240,60,96197,2,0,L|368:104,1,135
284,160,96995,6,0,P|256:204|256:248,1,90
216,332,97633,2,0,P|260:340|308:328,1,90
352,244,98272,1,0,0:0:0:0:
448,128,98750,2,0,P|480:184|468:256,1,135
392,320,99548,6,0,P|432:336|488:332,2,90
304,272,100506,1,0,0:0:0:0:
212,304,100825,2,0,P|148:320|72:304,2,135
136,240,102102,6,0,P|128:192|136:144,1,90
188,68,102740,1,0,0:0:0:0:
284,44,103059,1,0,0:0:0:0:
384,40,103378,5,0,0:0:0:0:
320,172,103857,2,0,P|380:196|448:176,1,135
408,268,104655,1,0,0:0:0:0:
312,296,104974,1,0,0:0:0:0:
212,292,105293,1,0,0:0:0:0:
136,228,105612,1,0,0:0:0:0:
112,132,105931,5,0,0:0:0:0:
240,60,106410,2,0,L|368:104,1,135
284,160,107208,6,0,P|256:204|256:248,1,90
216,332,107846,2,0,P|260:340|308:328,1,90
352,244,108485,1,0,0:0:0:0:
448,128,108963,2,0,P|480:184|468:256,1,135
392,320,130186,6,0,P|432:336|488:332,2,90
304,272,131144,1,0,0:0:0:0:
212,304,131463,2,0,P|148:320|72:304,2,135
136,240,132740,6,0,P|128:192|136:144,1,90
188,68,133378,1,0,0:0:0:0:
284,44,133697,1,0,0:0:0:0:
384,40,134016,5,0,0:0:0:0:
320,172,134495,2,0,P|380:196|448:176,1,135
408,268,135293,1,0,0:0:0:0:
312,296,135612,1,0,0:0:0:0:
212,292,135931,1,0,0:0:0:0:
136,228,136250,1,0,0:0:0:0:
112,132,136569,5,0,0:0:0:0:
240,60,137048,2,0,L|368:104,1,135
284,160,137846,6,0,P|256:204|256:248,1,90
216,332,138484,2,0,P|260:340|308:328,1,90
352,244,139123,1,0,0:0:0:0:
448,128,139601,2,0,P|480:184|468:256,1,135
392,320,140399,6,0,P|432:336|488:332,2,90
304,272,141357,1,0,0:0:0:0:
212,304,141676,2,0,P|148:320|72:304,2,135
136,240,142953,6,0,P|128:192|136:144,1,90
188,68,143591,1,0,0:0:0:0:
284,44,143910,1,0,0:0:0:0:
384,40,144229,5,0,0:0:0:0:
320,172,144708,2,0,P|380:196|448:176,1,135
408,268,145506,1,0,0:0:0:0:
312,296,145825,1,0,0:0:0:0:
212,292,146144,1,0,0:0:0:0:
136,228,146463,1,0,0:0:0:0:
112,132,146782,5,0,0:0:0:0:
240,60,147261,2,0,L|368:104,1,135
284,160,148059,6,0,P|256:204|256:248,1,90
216,332,148697,2,0,P|260:340|308:328,1,90
352,244,149336,1,0,0:0:0:0:
448,128,149814,2,0,P|480:184|468:256,1,135
392,320,150611,6,0,P|432:336|488:332,2,90
304,272,151569,1,0,0:0:0:0:
212,304,151888,2,0,P|148:320|72:304,2,135
136,240,153165,6,0,P|128:192|136:144,1,90
188,68,153803,1,0,0:0:0:0:
284,44,154122,1,0,0:0:0:0:
384,40,154441,5,0,0:0:0:0:
320,172,154920,2,0,P|380:196|448:176,1,135
408,268,155718,1,0,0:0:0:0:
312,296,156037,1,0,0:0:0:0:
212,292,156356,1,0,0:0:0:0:
136,228,156675,1,0,0:0:0:0:
112,132,156994,5,0,0:0:0:0:
240,60,157473,2,0,L|368:104,1,135
284,160,158271,6,0,P|256:204|256:248,1,90
216,332,158909,2,0,P|260:340|308:328,1,90
352,244,159548,1,0,0:0:0:0:
448,128,160026,2,0,P|480:184|468:256,1,135
392,320,160824,6,0,P|432:336|488:332,2,90
304,272,161782,1,0,0:0:0:0:
212,304,162101,2,0,P|148:320|72:304,2,135
136,240,163378,6,0,P|128:192|136:144,1,90
188,68,164016,1,0,0:0:0:0:
284,44,164335,1,0,0:0:0:0:
384,40,164654,5,0,0:0:0:0:
320,172,165133,2,0,P|380:196|448:176,1,135
408,268,165931,1,0,0:0:0:0:
312,296,166250,1,0,0:0:0:0:
212,292,166569,1,0,0:0:0:0:
136,228,166888,1,0,0:0:0:0:
112,132,167207,5,0,0:0:0:0:
240,60,167686,2,0,L|368:104,1,135
284,160,168484,6,0,P|256:204|256:248,1,90
216,332,169122,2,0,P|260:340|308:328,1,90
352,244,169761,1,0,0:0:0:0:
448,128,170239,2,0,P|480:184|468:256,1,135
328,324,201675,6,0,P|368:332|432:316,2,90
256,256,202633,1,0,0:0:0:0:
183,324,202952,2,0,P|139:332|96:323,2,90
256,256,203909,1,0,0:0:0:0:
328,324,204228,6,0,P|368:332|432:316,2,90
256,256,205186,1,0,0:0:0:0:
183,324,205505,2,0,P|139:332|96:323,2,90
256,256,206462,1,0,0:0:0:0:
328,324,206781,6,0,P|368:332|432:316,2,90
256,256,207739,1,0,0:0:0:0:
183,324,208058,2,0,P|139:332|96:323,2,90
256,256,209015,1,0,0:0:0:0:
328,324,209335,6,0,P|368:332|432:316,2,90
256,256,210293,1,0,0:0:0:0:
183,324,210612,2,0,P|139:332|96:323,2,90
256,256,211569,1,0,0:0:0:0:
160,240,211888,6,0,P|80:216|28:128,1,180
32,288,213005,1,0,0:0:0:0:
172,336,213484,1,0,0:0:0:0:
256,284,213803,1,0,0:0:0:0:
340,336,214122,1,0,0:0:0:0:
352,240,214441,6,0,P|432:216|484:128,1,180
480,288,215558,1,0,0:0:0:0:
340,336,216037,1,0,0:0:0:0:
256,284,216356,1,0,0:0:0:0:
172,336,216675,1,0,0:0:0:0:
160,240,216994,6,0,P|80:216|28:128,1,180
32,288,218111,1,0,0:0:0:0:
172,336,218590,1,0,0:0:0:0:
256,284,218909,1,0,0:0:0:0:
340,336,219228,1,0,0:0:0:0:
352,240,219547,6,0,P|432:216|484:128,1,180
480,288,220664,1,0,0:0:0:0:
340,336,221143,1,0,0:0:0:0:
256,284,221462,1,0,0:0:0:0:
172,336,221781,1,0,0:0:0:0:
160,240,222101,6,0,P|80:216|28:128,1,180
32,288,223218,1,0,0:0:0:0:
172,336,223697,1,0,0:0:0:0:
256,284,224016,1,0,0:0:0:0:
340,336,224335,1,0,0:0:0:0:
352,240,224654,6,0,P|432:216|484:128,1,180
480,288,225771,1,0,0:0:0:0:
340,336,226250,1,0,0:0:0:0:
256,284,226569,1,0,0:0:0:0:
172,336,226888,1,0,0:0:0:0:
160,240,227207,6,0,P|80:216|28:128,1,180
32,288,228324,1,0,0:0:0:0:
172,336,228803,1,0,0:0:0:0:
256,284,229122,1,0,0:0:0:0:
340,336,229441,1,0,0:0:0:0:
352,240,229760,6,0,P|432:216|484:128,1,180
480,288,230877,1,0,0:0:0:0:
340,336,231356,1,0,0:0:0:0:
256,284,231675,1,0,0:0:0:0:
172,336,231994,1,0,0:0:0:0:
256,360,232313,6,0,P|300:360|420:272,3,180
