osu file format v5

[General]
AudioFilename: Action Movie Hero Boy.mp3
AudioLeadIn: 0
PreviewTime: -1
Countdown: 1
SampleSet: Normal
StackLeniency: 0.7
Mode: 0
LetterboxInBreaks: 1

[Metadata]
Title:Action Movie Hero Boy
Artist:Lemon Demon
Creator:MegaTailzChao
Version:Cherry Bomb
Source:Dinosaurchestra
Tags:Lemon Demon

[Difficulty]
HPDrainRate:2
CircleSize:3
OverallDifficulty:3
SliderMultiplier:1.4
SliderTickRate:2

[Events]
//Background and Video events
//Break Periods
2,50792,52670
2,67551,79566
2,103829,105707
2,120588,132811
2,147071,158673
//Storyboard Layer 0 (Background)
//Storyboard Layer 1 (Failing)
//Storyboard Layer 2 (Passing)
//Storyboard Layer 3 (Foreground)
//Storyboard Sound Samples
//Background Colour Transformations
3,100,163,162,255

[TimingPoints]
28320,413.793103448276,4,1,0,100,1

[Colours]
Combo1 : 255,173,0
Combo2 : 0,248,37
Combo3 : 51,93,255
Combo4 : 248,40,0

[HitObjects]
64,128,28320,1,0
160,128,28733,1,0
320,128,29561,1,0
480,128,30388,1,0
448,288,31630,5,0
288,288,32044,1,0
224,288,32251,1,4
64,288,32664,1,4
64,96,34733,5,0
128,96,34940,1,0
288,96,35354,1,0
480,96,35975,1,0
416,224,36388,1,0
224,320,37009,2,0,B|64:320,1,140
64,128,38251,5,0
224,128,38665,1,0
288,128,38872,1,4
448,128,39285,1,4
96,96,41354,5,0
160,96,41561,1,0
288,96,41975,1,0
448,160,42595,5,0
448,224,42802,1,0
448,352,43216,1,0
288,320,43630,6,0,B|128:320,1,140
64,320,44251,2,0,B|96:128|256:192,1,210
96,64,47975,5,0
160,64,48182,1,0
288,64,48595,1,0
416,64,49009,2,0,B|416:224,1,140
416,320,49837,1,0
288,320,50251,1,0
160,320,50664,1,0
96,192,54182,5,0
160,96,54595,2,0,B|288:96|288:160,1,140
416,192,55837,5,0
352,288,56251,2,0,B|224:288|224:224,1,140
160,128,57492,5,0
288,128,57906,2,0,B|448:128,1,140
384,256,58733,1,0
256,256,59147,2,4,B|64:224|96:64|288:32,1,350
352,32,60595,1,4
384,192,61216,5,4
352,256,61423,1,4
320,320,61630,1,4
128,288,62457,5,0
64,192,62871,2,0,B|160:64,1,140
256,64,63699,2,0,B|416:64,1,140
448,160,64526,2,0,B|448:320,1,140
320,320,65354,5,4
192,320,65768,1,4
256,192,66182,12,4,67423
32,288,81078,6,0,B|192:288,1,140
224,288,81699,1,0
320,288,82113,1,0
416,288,82526,1,0
416,160,82940,1,0
256,160,83354,6,0,B|96:160,1,140
64,32,84595,5,0
224,32,85009,1,0
288,32,85216,1,4
448,32,85629,1,4
128,288,87699,6,0,B|448:288,1,280,0|0
480,288,88733,2,0,B|480:128|288:128,1,280
160,128,89975,2,0,B|0:128,1,140
64,288,91216,5,0
224,288,91630,1,0
288,288,91837,1,4
448,288,92250,1,4
96,96,94320,6,0,B|352:96,2,210
96,224,96182,1,0
96,320,96595,2,0,B|352:320,1,210
448,224,97837,5,0
288,224,98251,1,0
224,224,98458,1,4
64,224,98871,1,4
64,96,100940,6,0,B|288:96,1,210
416,96,101975,1,0
416,224,102388,1,0
416,352,102802,1,0
288,352,103216,2,0,B|128:352,1,140
416,192,107147,5,0
352,96,107560,2,0,B|224:96|224:160,1,140
96,192,108802,5,0
160,288,109216,2,0,B|288:288|288:224,1,140
352,128,110457,5,0
224,128,110871,2,0,B|64:128,1,140
128,256,111698,1,0
256,256,112112,2,0,B|448:224|416:64|224:32,1,350
160,32,113560,1,0
128,192,114181,5,4
160,256,114388,1,4
192,320,114595,1,4
384,288,115422,5,0
448,192,115836,2,0,B|352:64,1,140
256,64,116664,2,0,B|96:64,1,140
64,160,117491,2,0,B|64:320,1,140
192,320,118319,5,4
320,320,118733,1,4
256,192,119147,12,4,120388
256,192,134251,5,0
384,192,134664,1,0
384,320,135078,2,0,B|288:320,1,70
192,320,135699,1,0
64,320,136113,1,0
64,192,136526,1,0
64,64,136940,1,0
192,64,137354,1,0
256,192,137975,5,0
384,160,138388,2,0,B|384:256,1,70
384,352,139009,1,0
256,352,139423,1,0
128,352,139837,1,0
128,192,140251,1,0
256,192,140871,5,0
128,192,141284,1,0
128,320,141698,2,0,B|224:320,1,70
320,320,142319,1,0
448,320,142733,1,0
448,192,143146,1,0
448,64,143560,1,0
320,64,143974,1,0
256,192,144595,5,0
128,160,145008,2,0,B|128:256,1,70
128,352,145629,1,0
256,352,146043,1,0
384,352,146457,1,0
384,192,146871,1,4
32,320,160113,6,4,B|256:128,1,280
160,320,161768,6,4,B|384:128,1,280
288,320,163423,6,4,B|512:128,1,280
384,96,164664,1,0
256,96,165078,1,4
160,64,165492,2,4,B|32:224|128:320|288:256,1,350
384,160,167147,5,4
416,224,167354,1,0
448,288,167561,1,4
288,320,168388,5,4
160,352,168802,2,0,B|64:224,1,140,0|4
32,128,169630,2,0,B|160:0,1,140,0|4
256,32,170457,2,0,B|416:32,1,140,0|4
448,128,171285,2,0,B|320:256,1,140,0|4
256,192,172113,12,4,173354
64,224,175009,5,0
128,160,175423,2,0,B|256:64,1,140
352,96,176664,5,0
416,160,177078,2,0,B|288:288,1,140
224,288,177906,1,0
64,192,178320,5,4
192,192,178734,2,0,B|352:192,1,140,0|4
416,192,179354,2,4,B|544:192,2,70
320,288,180388,2,0,B|160:352,1,140
32,352,181630,5,4
96,256,182044,2,0,B|160:128,1,140,0|4
256,64,182871,2,0,B|416:32,1,140,0|4
480,128,183699,2,0,B|384:256,1,140,0|4
256,256,184526,2,0,B|64:224,1,140,0|4
96,96,185354,1,2
224,96,185768,2,4,B|320:96,3,70
