osu file format v12

[General]
AudioFilename: Lelia Broussard - Spiderwebs.mp3
AudioLeadIn: 0
PreviewTime: 128426
Countdown: 0
SampleSet: Soft
StackLeniency: 0.7
Mode: 0
LetterboxInBreaks: 0

[Editor]
DistanceSpacing: 1
BeatDivisor: 4
GridSize: 4

[Metadata]
Title:Spiderwebs
TitleUnicode:Spiderwebs
Artist:Lelia Broussard
ArtistUnicode:Lelia Broussard
Creator:Elly-chan
Version:Hard
Source:
Tags:-bakari- masquerade folk indie
BeatmapID:248749
BeatmapSetID:91964

[Difficulty]
HPDrainRate:6
CircleSize:4
OverallDifficulty:7
ApproachRate:8
SliderMultiplier:2
SliderTickRate:4

[Events]
//Background and Video events
0,0,"Lelia Broussard.jpg",0,0
//Break Periods
2,43274,52418
//Storyboard Layer 0 (Background)
//Storyboard Layer 1 (Fail)
//Storyboard Layer 2 (Pass)
//Storyboard Layer 3 (Foreground)
//Storyboard Sound Samples
//Background Colour Transformations
3,100,163,162,255

[TimingPoints]
408,666.666666666667,4,2,2,80,1,0
12408,-100,4,2,1,65,0,0
12574,-100,4,2,2,80,0,0
18408,-100,4,2,1,65,0,0
18574,-100,4,2,2,80,0,0
21741,-100,4,2,2,80,0,1
23741,-100,4,2,1,65,0,1
23908,-100,4,2,2,80,0,1
26408,-100,4,2,1,65,0,1
26574,-100,4,2,2,80,0,1
30408,-100,4,2,1,65,0,1
30574,-100,4,2,2,80,0,1
34408,-100,4,2,1,65,0,1
34564,-100,4,2,2,80,0,1
40408,-100,4,2,2,80,0,0
40741,-100,4,2,2,10,0,0
43074,-100,4,2,2,80,0,0
55074,-100,4,2,1,65,0,0
55241,-100,4,2,2,80,0,0
55741,-100,4,2,1,65,0,0
55908,-100,4,2,2,80,0,0
58408,-100,4,2,1,65,0,0
58574,-100,4,2,2,80,0,0
61074,-100,4,2,1,65,0,0
61241,-100,4,2,2,80,0,0
64408,-100,4,2,2,80,0,1
66408,-100,4,2,1,65,0,1
66574,-100,4,2,2,80,0,1
77074,-100,4,2,1,65,0,1
77241,-100,4,2,2,65,0,1
85574,-100,4,2,2,80,0,0
85741,-100,4,2,2,80,0,1
85908,-100,4,2,2,80,0,0
94074,-100,4,2,1,65,0,0
94241,-100,4,2,2,80,0,0
94741,-100,4,2,1,65,0,0
94908,-100,4,2,2,80,0,0
97574,-100,4,2,3,65,0,0
97741,-100,4,2,2,80,0,0
99908,-100,4,2,3,65,0,0
100074,-100,4,2,2,80,0,0
119741,-100,4,2,3,65,0,0
119908,-100,4,2,2,80,0,0
125074,-100,4,2,3,65,0,0
125241,-100,4,2,2,80,0,0
125741,-100,4,2,2,60,0,0
126408,-100,4,2,2,65,0,0
127074,-100,4,2,2,70,0,0
127741,-100,4,2,2,75,0,0
128408,-100,4,2,2,80,0,1
130408,-100,4,2,1,65,0,1
130574,-100,4,2,2,80,0,1
133074,-100,4,2,1,65,0,1
133241,-100,4,2,2,65,0,1
141074,-100,4,2,1,65,0,1
141241,-100,4,2,2,80,0,1
145741,-100,4,2,2,80,0,0
145908,-100,4,2,2,10,0,0

[Colours]
Combo1 : 81,55,51
Combo2 : 204,194,157

[HitObjects]
24,252,11074,5,4,0:0:0:0:
24,252,11408,2,0,P|68:256|140:196,1,100,0|0,0:0|1:0,0:0:0:0:
176,152,12074,2,0,P|252:92|368:104,1,200
420,168,13074,1,0,1:0:0:0:
412,268,13408,2,0,P|352:248|324:204,1,100,0|2,0:0|1:2,0:0:0:0:
332,120,14074,6,0,L|364:52,2,50,0|0|0,0:0|0:0|1:0,0:0:0:0:
240,160,14741,1,0,0:0:0:0:
180,80,15074,2,0,P|128:84|76:120,1,100,2|2,1:2|0:0,0:0:0:0:
76,124,15574,1,0,0:0:0:0:
64,140,15741,2,0,P|56:188|80:248,1,100,2|2,1:2|0:0,0:0:0:0:
168,276,16408,5,2,1:2:0:0:
268,284,16741,2,0,L|400:292,2,100,0|0|0,0:0|1:0|0:0,0:0:0:0:
168,276,17741,1,2,1:2:0:0:
220,196,18074,2,0,P|312:144|424:140,1,200
476,208,19074,5,2,1:2:0:0:
412,284,19408,2,0,P|360:248|316:188,1,100,0|0,0:0|1:0,0:0:0:0:
200,100,20074,2,0,P|218:160|216:234,1,100,0|2,0:0|1:2,0:0:0:0:
104,304,20741,2,0,P|68:268|44:220,1,100,2|0,0:0|1:0,0:0:0:0:
40,116,21408,1,2,1:2:0:0:
56,104,21574,1,0,1:0:0:0:
72,92,21741,6,0,P|112:68|172:52,1,100,4|0,0:1|0:0,0:0:0:0:
256,116,22408,1,0,1:0:0:0:
336,60,22741,1,0,0:0:0:0:
356,56,22908,1,0,1:0:0:0:
376,52,23074,2,0,P|404:96|456:132,1,100,2|0,3:2|3:0,0:0:0:0:
484,152,23574,2,0,P|472:232|380:280,1,150
340,216,24408,5,2,3:2:0:0:
340,216,24741,2,0,L|324:304,1,50
316,312,25074,2,0,P|268:332|204:324,1,100,0|0,1:0|0:0,0:0:0:0:
116,224,25741,2,0,P|164:204|228:212,1,100,0|0,3:0|3:0,0:0:0:0:
252,220,26241,2,0,P|228:156|256:60,1,150
156,28,27074,5,2,3:2:0:0:
112,120,27408,1,0,0:0:0:0:
32,60,27741,1,0,1:0:0:0:
8,156,28074,1,0,0:0:0:0:
8,156,28408,2,0,P|12:200|64:280,2,100,2|0|0,3:2|3:0|1:0,0:0:0:0:
24,120,29241,2,0,P|83:86|175:74,1,150,0|2,0:0|3:2,0:0:0:0:
264,28,30074,5,0,0:0:0:0:
264,28,30241,2,0,P|292:64|304:128,1,100
264,208,30908,1,0,1:0:0:0:
264,208,31074,1,0,3:0:0:0:
196,132,31408,2,0,L|116:128,1,50,0|0,3:0|3:0,0:0:0:0:
120,172,31741,2,0,L|40:192,1,50,0|0,3:0|3:0,0:0:0:0:
72,236,32074,2,0,L|8:272,1,50,0|0,1:0|1:0,0:0:0:0:
8,308,32408,6,0,P|56:356|184:324,1,200,4|0,0:1|1:0,0:0:0:0:
240,260,33408,1,0,0:0:0:0:
328,212,33741,2,0,P|280:164|192:168,2,150,2|0|0,3:2|0:0|0:0,0:0:0:0:
372,300,35074,5,2,3:2:0:0:
452,256,35408,2,0,L|460:184,1,50
384,88,35908,2,0,L|384:164,1,50
264,100,36408,2,0,L|236:56,1,50,2|0,3:2|0:0,0:0:0:0:
144,136,36908,2,0,L|116:192,1,50,0|0,0:0|1:0,0:0:0:0:
24,212,37408,1,0,0:0:0:0:
24,212,37741,6,0,P|24:264|64:320,1,100,4|0,0:1|0:0,0:0:0:0:
144,332,38408,2,0,P|144:280|104:224,1,100,0|0,1:0|0:0,0:0:0:0:
144,136,39074,1,2,3:2:0:0:
144,136,39241,1,0,0:0:0:0:
236,88,39574,1,0,0:0:0:0:
236,88,39741,2,0,P|248:136|284:180,1,100,0|0,1:0|0:0,0:0:0:0:
372,208,40408,5,0,1:0:0:0:
256,192,40741,12,0,43074,1:0:0:0:
76,128,53741,5,4,0:0:0:0:
76,128,54074,2,0,P|108:160|128:216,1,100,2|2,0:0|1:2,0:0:0:0:
88,304,54741,2,0,P|172:352|292:308,1,200,2|2,0:0|0:0,0:0:0:0:
300,288,55574,2,0,P|304:208|368:148,1,150,2|2,0:0|0:0,0:0:0:0:
352,56,56408,5,0,1:2:0:0:
440,100,56741,2,0,P|472:136|488:192,1,100,2|2,0:0|1:2,0:0:0:0:
408,248,57408,1,2,0:0:0:0:
493,312,57741,2,0,P|429:354|338:328,2,150,2|2|2,1:2|0:0|0:2,0:0:0:0:
408,248,59074,5,0,1:2:0:0:
308,120,59574,1,2,0:0:0:0:
308,120,59741,2,0,P|260:128|204:156,1,100,0|2,1:0|0:0,0:0:0:0:
140,80,60408,2,0,P|120:132|120:208,1,100,0|2,1:2|0:0,0:0:0:0:
148,212,60908,2,0,P|136:292|84:356,1,150,2|2,0:0|0:0,0:0:0:0:
16,288,61741,5,0,1:2:0:0:
52,196,62074,2,0,P|88:212|152:212,1,100,2|2,0:0|1:2,0:0:0:0:
232,156,62741,2,0,P|280:140|332:140,1,100,2|2,0:0|1:2,0:0:0:0:
376,160,63241,2,0,L|428:192,2,50,0|2|2,0:0|1:2|0:0,0:0:0:0:
344,200,63741,2,0,L|368:244,2,50,0|0|2,0:0|0:0|0:0,0:0:0:0:
264,260,64408,5,4,0:1:0:0:
180,212,64741,1,0,0:0:0:0:
180,312,65074,2,0,L|36:328,1,100,0|0,1:0|0:0,0:0:0:0:
16,272,65574,1,0,1:0:0:0:
16,272,65741,2,0,P|48:240|80:160,1,100,2|0,3:2|3:0,0:0:0:0:
96,148,66241,2,0,P|152:100|232:84,1,150
320,120,67074,5,2,3:2:0:0:
416,92,67408,2,0,L|452:152,2,50,0|0|0,0:0|0:0|1:0,0:0:0:0:
320,120,68074,2,0,L|340:200,1,50,0|0,0:0|1:0,0:0:0:0:
348,216,68408,2,0,P|368:256|420:304,1,100,0|0,3:0|3:0,0:0:0:0:
336,368,69074,2,0,P|292:328|248:216,1,150,0|0,1:0|0:0,0:0:0:0:
244,200,69741,6,0,P|232:156|192:72,1,100,2|0,3:2|0:0,0:0:0:0:
124,52,70408,1,0,1:0:0:0:
52,120,70741,2,0,L|36:180,1,50,0|0,0:0|1:0,0:0:0:0:
28,216,71074,2,0,P|48:260|88:296,1,100,2|0,3:2|3:0,0:0:0:0:
172,244,71741,2,0,P|208:268|280:280,1,100,0|0,1:0|0:0,0:0:0:0:
348,224,72408,5,2,3:2:0:0:
436,268,72741,2,0,L|484:212,1,50
500,192,73074,2,0,P|508:152|492:88,1,100,0|0,1:0|0:0,0:0:0:0:
484,80,73574,1,0,1:0:0:0:
468,64,73741,2,0,L|384:20,2,50,0|0|0,1:0|1:0|3:0,0:0:0:0:
412,148,74408,1,0,1:0:0:0:
344,76,74741,1,0,1:0:0:0:
328,60,74908,1,0,1:0:0:0:
312,44,75074,6,0,P|268:56|216:88,1,100,4|0,0:1|0:0,0:0:0:0:
124,72,75741,2,0,P|112:116|80:168,1,100,0|0,1:0|0:0,0:0:0:0:
16,208,76241,1,0,1:0:0:0:
16,208,76408,2,0,P|40:252|56:312,1,100,2|0,3:2|3:3,0:0:0:0:
96,328,76908,2,0,P|152:284|240:276,1,150
324,312,77741,5,2,3:2:0:0:
428,280,78074,2,0,L|448:232,1,50
364,104,78574,2,0,L|368:180,1,50
232,92,79074,2,0,L|256:40,1,50,2|0,3:2|0:0,0:0:0:0:
108,92,79574,2,0,L|80:144,1,50,0|0,0:0|1:0,0:0:0:0:
24,212,80074,1,0,0:0:0:0:
24,212,80408,6,0,P|24:264|64:320,1,100,4|0,0:1|0:0,0:0:0:0:
144,332,81074,2,0,P|144:280|104:224,1,100,0|0,1:0|0:0,0:0:0:0:
144,136,81741,1,2,3:2:0:0:
144,136,81908,1,0,0:0:0:0:
236,88,82241,1,0,0:0:0:0:
236,88,82408,2,0,P|248:136|284:180,1,100,0|0,1:0|0:0,0:0:0:0:
372,208,83074,5,2,3:2:0:0:
464,248,83408,2,0,L|428:360,2,100,0|0|0,3:0|1:0|0:0,0:0:0:0:
470,229,84241,1,0,1:0:0:0:
476,208,84408,2,0,L|496:140,2,50,0|4|4,0:0|3:0|3:0,0:0:0:0:
372,208,85074,1,0,1:0:0:0:
364,192,85241,1,0,1:0:0:0:
356,176,85408,1,0,1:0:0:0:
348,156,85574,1,0,1:0:0:0:
340,136,85741,6,0,P|312:96|268:56,1,100,4|2,0:1|1:2,0:0:0:0:
176,80,86408,1,2,0:0:0:0:
176,80,86574,2,0,P|168:111|152:140,1,50,0|2,3:0|1:2,0:0:0:0:
68,136,87074,2,0,P|44:180|48:252,1,100,2|0,3:2|1:0,0:0:0:0:
56,276,87574,2,0,P|128:280|164:304,1,100,2|0,0:0|3:0,0:0:0:0:
188,324,88074,2,0,P|211:336|283:340,1,100,2|0,1:2|3:0,0:0:0:0:
364,280,88741,5,0,1:0:0:0:
460,304,89074,2,0,L|476:248,1,50,2|0,0:0|3:0,0:0:0:0:
480,236,89408,1,2,1:2:0:0:
485,216,89574,2,0,B|500:144|500:144|472:44,1,150,2|0,0:0|1:0,0:0:0:0:
388,28,90408,2,0,B|377:79|377:79|397:151,1,100,2|0,0:0|1:0,0:0:0:0:
320,196,91074,5,2,3:2:0:0:
224,172,91408,2,0,L|208:92,1,50,2|0,1:2|0:0,0:0:0:0:
204,76,91741,2,0,P|164:44|100:20,1,100,2|2,0:0|1:2,0:0:0:0:
40,84,92408,1,0,3:0:0:0:
36,184,92741,2,0,L|32:280,1,50,2|2,1:2|0:0,0:0:0:0:
32,280,93074,2,0,P|68:320|120:340,1,100,2|2,0:0|1:2,0:0:0:0:
200,300,93741,6,0,P|272:268|376:280,1,150,2|0,3:2|0:0,0:0:0:0:
388,252,94408,2,0,P|384:176|419:109,1,150,2|0,0:0|0:0,0:0:0:0:
456,80,95074,1,2,3:2:0:0:
364,40,95408,1,0,1:0:0:0:
272,80,95741,1,2,0:0:0:0:
272,80,95908,2,0,L|240:32,2,50,0|0|0,3:0|1:0|1:0,0:0:0:0:
300,120,96408,5,4,0:1:0:0:
324,216,96741,2,0,L|288:268,1,50,2|2,1:2|0:0,0:0:0:0:
228,332,97241,1,2,3:2:0:0:
228,332,97408,2,0,P|180:344|124:336,1,100,0|0,1:0|3:0,0:0:0:0:
68,280,98074,2,0,L|24:184,1,100,0|0,1:0|0:0,0:0:0:0:
96,116,98741,2,0,L|140:212,1,100,0|0,1:0|3:0,0:0:0:0:
216,252,99408,5,2,1:2:0:0:
232,240,99574,1,2,0:0:0:0:
248,228,99741,2,0,P|300:212|360:224,1,100,0|0,0:0|1:0,0:0:0:0:
420,284,100241,1,2,0:0:0:0:
420,284,100408,2,0,P|460:264|516:180,1,100,0|0,3:0|1:0,0:0:0:0:
480,124,101074,2,0,P|440:144|384:228,2,100,2|0|2,0:0|1:0|0:0,0:0:0:0:
436,40,102074,5,0,1:0:0:0:
288,48,102574,2,0,L|224:52,1,50,0|0,3:0|1:0,0:0:0:0:
140,60,103074,1,0,3:0:0:0:
204,140,103408,1,0,1:0:0:0:
164,232,103741,1,0,0:0:0:0:
156,252,103908,1,0,3:0:0:0:
148,272,104074,1,0,1:0:0:0:
64,328,104408,6,0,P|32:288|4:204,1,100,0|0,3:0|1:0,0:0:0:0:
52,100,105241,2,0,P|64:116|80:148,1,50,0|0,3:0|1:0,0:0:0:0:
156,208,105741,2,0,P|204:220|272:208,1,100,0|0,3:0|1:0,0:0:0:0:
356,128,106574,1,0,3:0:0:0:
356,128,106741,1,0,1:0:0:0:
436,188,107074,6,0,L|416:296,2,100,2|0|0,3:2|0:0|3:0,0:0:0:0:
452,88,108074,1,0,0:0:0:0:
360,44,108408,2,0,P|248:36|156:60,1,200,2|0,3:2|3:0,0:0:0:0:
72,96,109408,1,0,0:0:0:0:
24,184,109741,5,2,3:2:0:0:
64,276,110074,2,0,P|36:316|-16:348,2,100,0|0|0,0:0|3:0|0:0,0:0:0:0:
116,192,111074,2,0,P|208:152|324:176,1,200,0|0,3:0|3:0,0:0:0:0:
368,244,112074,1,0,0:0:0:0:
424,160,112408,6,0,L|476:68,2,100,2|0|0,3:2|0:0|3:0,0:0:0:0:
368,244,113408,1,0,0:0:0:0:
304,165,113741,2,0,P|240:96|120:72,1,200,2|0,3:2|3:0,0:0:0:0:
108,164,114741,1,0,0:0:0:0:
16,124,115074,6,0,P|12:184|32:236,1,100,2|0,3:2|0:0,0:0:0:0:
116,260,115741,2,0,P|120:200|100:148,1,100,0|0,3:0|0:0,0:0:0:0:
16,124,116408,2,0,P|72:68|184:96,1,200,0|0,3:0|3:0,0:0:0:0:
224,184,117408,1,0,0:0:0:0:
316,140,117741,6,0,L|436:140,1,100,2|0,3:2|0:0,0:0:0:0:
460,232,118408,2,0,L|340:232,1,100,2|0,0:0|0:0,0:0:0:0:
260,232,119074,2,0,B|180:232|180:232|112:256,2,150,2|0|0,3:2|0:0|0:0,0:0:0:0:
330,302,120408,6,0,B|382:302|382:302|434:286,2,100,2|0|2,3:2|0:0|3:2,0:0:0:0:
229,302,121408,1,0,0:0:0:0:
129,302,121741,2,0,B|84:280|84:280|48:220,1,100,2|0,3:2|0:0,0:0:0:0:
112,156,122408,1,2,3:2:0:0:
40,84,122741,6,0,P|80:56|151:51,1,100,0|2,0:0|3:2,0:0:0:0:
204,116,123408,1,0,0:0:0:0:
292,64,123741,2,0,L|432:92,1,100,2|0,3:2|0:0,0:0:0:0:
448,164,124408,2,0,P|404:224|320:251,2,150,2|0|0,3:2|0:0|0:0,0:0:0:0:
390,83,125741,5,2,0:0:0:0:
292,64,126074,1,2,0:0:0:0:
192,44,126408,1,2,0:0:0:0:
92,28,126741,1,2,0:0:0:0:
44,40,126908,6,0,P|24:108|32:136,1,100,0|4,1:0|3:0,0:0:0:0:
72,164,127408,2,0,L|72:224,1,50,4|0,3:0|1:0,0:0:0:0:
28,240,127741,2,0,L|52:284,1,50,0|0,1:0|3:0,0:0:0:0:
44,332,128074,2,0,L|96:356,1,50,4|4,3:0|3:0,0:0:0:0:
136,372,128408,6,0,P|185:372|268:332,1,100,4|0,0:1|0:0,0:0:0:0:
356,224,129074,2,0,P|307:224|224:264,1,100,0|0,1:0|0:0,0:0:0:0:
240,248,129574,1,0,1:0:0:0:
220,256,129741,2,0,P|168:248|117:208,1,100,2|0,3:2|3:0,0:0:0:0:
101,189,130241,2,0,P|88:256|15:324,1,150
8,220,131074,5,2,3:2:0:0:
12,120,131408,2,0,L|64:76,1,50
88,56,131741,2,0,P|136:56|200:92,1,100,0|0,1:0|0:0,0:0:0:0:
280,60,132408,2,0,P|288:108|344:168,1,100,0|0,3:0|3:0,0:0:0:0:
368,156,132908,2,0,B|456:156|488:240,1,150,0|0,0:0|0:2,0:0:0:0:
460,328,133741,5,2,3:2:0:0:
360,340,134074,2,0,L|244:304,1,100,0|0,0:0|1:0,0:0:0:0:
180,332,134741,2,0,L|144:268,1,50,0|0,0:0|0:0,0:0:0:0:
140,248,135074,2,0,P|136:200|152:128,1,100,2|0,3:2|3:0,0:0:0:0:
96,60,135741,2,0,P|56:116|48:208,1,150,0|0,1:0|0:0,0:0:0:0:
48,244,136408,6,0,B|64:292|64:292|104:328,1,100,2|0,3:2|0:0,0:0:0:0:
188,276,137074,1,0,1:0:0:0:
276,320,137408,2,0,L|308:280,1,50,0|0,0:0|1:0,0:0:0:0:
344,244,137741,2,0,P|388:220|452:212,1,100,0|0,3:0|3:0,0:0:0:0:
472,128,138408,1,0,1:0:0:0:
460,112,138574,1,0,1:0:0:0:
448,96,138741,1,0,3:0:0:0:
436,80,138908,1,0,3:0:0:0:
424,64,139074,6,0,P|376:48|304:64,1,100,4|0,0:1|0:0,0:0:0:0:
252,120,139741,1,0,1:0:0:0:
156,140,140074,1,0,0:0:0:0:
104,48,140408,2,0,P|60:100|64:188,2,150,2|0|0,3:2|0:0|0:0,0:0:0:0:
156,140,141741,5,2,3:2:0:0:
200,232,142074,2,0,L|232:296,1,50
344,300,142574,2,0,L|280:332,1,50
372,220,143074,2,0,L|340:156,1,50,2|0,3:2|0:0,0:0:0:0:
228,152,143574,2,0,L|292:120,1,50,0|0,0:0|1:0,0:0:0:0:
364,88,144074,1,0,0:0:0:0:
280,32,144408,6,0,P|228:32|172:72,1,100,4|0,0:1|0:0,0:0:0:0:
136,176,145074,2,0,P|188:176|244:136,1,100,0|0,1:0|0:0,0:0:0:0:
268,124,145574,2,0,L|344:112,1,50,0|2,1:0|3:2,0:0:0:0:
256,192,145908,12,0,150158,0:0:0:0:
