osu file format v11

[General]
AudioFilename: leighton meester - christmas (baby, please come home).mp3
AudioLeadIn: 2000
PreviewTime: 75466
Countdown: 0
SampleSet: Soft
StackLeniency: 0.7
Mode: 0
LetterboxInBreaks: 0

[Editor]
DistanceSpacing: 1
BeatDivisor: 4
GridSize: 4

[Metadata]
Title:Christmas (Baby, Please Come Home)
TitleUnicode:Christmas (Baby, Please Come Home)
Artist:Leighton Meester
ArtistUnicode:Leighton Meester
Creator:mancusojuanmattos
Version:Normal
Source:
Tags:xmas Very Special Winter Present
BeatmapID:197224
BeatmapSetID:68052

[Difficulty]
HPDrainRate:3
CircleSize:4
OverallDifficulty:4
ApproachRate:5
SliderMultiplier:1.4
SliderTickRate:2

[Events]
//Background and Video events
0,0,"Leighton Meester.jpg"
//Break Periods
2,89332,99009
//Storyboard Layer 0 (Background)
//Storyboard Layer 1 (Fail)
//Storyboard Layer 2 (Pass)
//Storyboard Layer 3 (Foreground)
//Storyboard Sound Samples
//Background Colour Transformations
3,100,163,162,255

[TimingPoints]
-1329,461.538461538462,4,2,0,90,1,0
44823,-100,4,2,0,90,0,1
44939,-100,4,2,0,90,0,0
74362,-100,4,2,0,90,0,1
74477,-100,4,2,0,90,0,0
100208,-100,4,2,0,75,0,0
101131,-100,4,2,0,85,0,0
102054,-100,4,2,0,90,0,0
118671,-100,4,2,0,90,0,1
118786,-100,4,2,0,90,0,0
133440,-100,4,2,0,90,0,1
148209,-100,4,2,0,90,0,0
158131,-100,4,2,0,80,0,0
161131,-100,4,2,0,75,0,0
162054,-100,4,2,0,55,0,0
162977,-100,4,2,0,30,0,0

[Colours]
Combo1 : 132,0,0
Combo2 : 255,130,130
Combo3 : 255,153,0
Combo4 : 202,0,0

[HitObjects]
256,76,55,1,0,1:2:0
136,148,517,6,0,P|174:204|241:220,1,140,4|0,0:0|1:0,0:0:0
312,220,1209,2,0,P|378:235|417:292,1,140,2|0,0:0|0:0,0:0:0
396,360,1901,1,0,1:0:0
256,348,2363,2,0,P|188:356|128:320,2,140,2|0|2,0:0|1:0|0:0,0:0:0
256,208,3747,2,0,P|256:284,2,70,8|8|4,0:3|0:3|0:0,0:0:0
344,100,4671,5,0,1:0:0
344,100,4901,2,0,P|240:80|152:128,1,210,2|0,0:0|1:0,0:0:0
148,268,6055,2,0,P|284:292|392:196,1,280,2|0,0:0|0:0,0:0:0
444,80,7440,1,8,0:3:0
500,208,7901,5,4,0:0:0
468,272,8132,2,0,P|436:340,2,70,2|0|2,0:0|1:0|0:0,0:0:0
344,204,9055,1,2,0:0:0
304,148,9286,1,0,1:0:0
164,128,9747,2,0,P|72:128|11:218,2,210,2|2|8,0:0|0:0|0:3,0:0:0
144,268,11594,5,4,0:0:0
196,312,11824,2,0,P|252:264,2,70,2|0|0,0:0|1:0|0:0,0:0:0
240,368,12517,2,0,P|344:274,1,140,2|0,0:0|1:0,0:0:0
440,172,13440,5,2,0:0:0
468,108,13670,1,8,0:3:0
408,72,13901,1,8,0:3:0
268,72,14363,2,0,P|244:140,1,70,2|8,0:0|0:3,0:0:0
220,204,14824,1,0,1:0:0
88,252,15286,5,4,0:0:0
188,348,15747,2,0,P|256:356|314:319,1,140,0|0,1:0|0:0,0:0:0
360,188,16671,2,0,P|432:188|432:188|468:188|492:160,1,140,0|2,1:0|0:0,0:0:0
364,108,17594,2,0,P|292:108|292:108|256:108|232:136,1,140,0|0,1:0|0:0,0:0:0
204,200,18286,2,0,P|196:232|170:257,1,70,2|0,0:0|1:0,0:0:0
60,352,18978,5,4,0:0:0
200,352,19440,2,0,P|252:312|324:312,1,140,0|0,1:0|0:0,0:0:0
340,172,20363,2,0,P|412:172|464:132,1,140,0|2,1:0|0:0,0:0:0
356,40,21286,1,0,1:0:0
216,40,21747,2,0,P|148:64|116:120,1,140,2|0,0:0|1:0,0:0:0
56,248,22671,6,0,P|116:248|116:312|176:312,1,140,4|0,0:0|1:0,0:0:0
256,196,23594,1,0,0:0:0
336,312,24055,2,0,P|396:312|396:248|456:248,1,140,0|2,1:0|0:0,0:0:0
496,192,24747,1,2,0:0:0
472,124,24978,1,0,1:0:0
352,52,25440,2,0,P|300:108,1,70,0|2,0:0|0:0,0:0:0
254,152,25901,1,0,1:0:0
176,268,26363,6,0,P|136:296|92:268|92:268|45:285,1,140,4|0,0:0|1:0,0:0:0
136,176,27286,1,0,0:0:0
120,108,27517,2,0,P|156:108|188:128,1,70,2|0,0:0|1:0,0:0:0
296,212,28209,2,0,P|333:185|361:213|389:245|427:225,1,140,2|0,0:0|1:0,0:0:0
456,88,29132,2,0,P|412:152,2,70,0|8|0,0:0|0:3|1:0,0:0:0
324,40,30055,5,4,0:0:0
184,52,30517,1,0,1:0:0
100,164,30978,2,0,P|100:224|152:224|151:290,1,140,0|0,0:0|1:0,0:0:0
192,348,31671,2,0,P|256:372|320:348,1,140,2|0,0:0|0:0,0:0:0
360,290,32363,2,0,P|360:224|412:224|412:164,2,140,0|2|0,1:0|0:0|1:0,0:0:0
256,196,33747,6,0,P|256:120,2,70,4|2|0,0:0|0:0|1:0,0:0:0
256,336,34671,1,0,0:0:0
160,236,35132,1,0,1:0:0
152,168,35363,2,0,P|144:100|196:60,1,140,2|2,0:0|0:0,0:0:0
256,96,36055,1,0,1:0:0
316,60,36286,2,0,P|368:100|360:168,1,140,2|2,0:0|0:0,0:0:0
352,236,36978,1,0,1:0:0
220,284,37440,5,4,0:0:0
344,348,37901,1,0,1:0:0
444,248,38363,2,0,P|488:196|497:126,1,140,0|0,0:0|1:0,0:0:0
408,20,39286,2,0,P|364:72|354:141,1,140,2|0,0:0|1:0,0:0:0
348,280,40209,2,0,P|256:368|164:280,1,280,2|4,0:0|0:0,0:0:0
256,176,41594,5,0,1:0:0
328,56,42055,2,0,P|396:52|444:112,2,140,2|0|2,0:0|1:0|0:0,0:0:0
184,56,43440,2,0,P|116:52|71:101,2,140,0|2|0,1:0|0:0|1:0,0:0:0
256,176,44824,5,4,0:0:0
376,252,45286,2,0,P|328:332|216:324,1,210,0|2,1:0|0:0,0:0:0
192,264,46209,1,0,1:0:0
204,124,46671,2,0,P|140:124|104:56,1,140,2|0,0:0|1:0,0:0:0
240,40,47594,2,0,P|304:40|340:99,1,140,2|4,0:0|0:0,0:0:0
312,236,48517,5,4,0:0:0
213,334,48978,2,0,P|164:284,2,70,0|2|0,1:0|0:0|0:0,0:0:0
352,356,49901,1,0,1:0:0
440,244,50363,2,0,P|471:182|459:114,2,140,2|0|2,0:0|1:0|0:0,0:0:0
328,160,51747,1,4,0:0:0
192,128,52209,5,4,0:0:0
60,168,52671,2,0,P|68:200|100:220,2,70,0|2|0,1:0|0:0|0:0,0:0:0
96,32,53594,1,0,1:0:0
236,36,54055,2,0,P|304:48|352:108,1,140,2|0,0:0|1:0,0:0:0
396,232,54978,2,0,P|440:283|508:295,1,140,2|4,0:0|0:0,0:0:0
504,156,55901,5,4,0:0:0
364,160,56363,2,0,P|296:172|232:136,1,140,0|0,1:0|0:0,0:0:0
168,116,57055,1,2,0:0:0
172,188,57286,2,0,P|204:248|180:316,1,140,0|2,1:0|0:0,0:0:0
60,248,58209,1,0,1:0:0
24,112,58671,1,2,0:0:0
24,112,58901,1,8,0:3:0
24,112,59132,1,0,1:0:0
156,68,59594,5,4,0:0:0
188,204,60055,2,0,P|228:216|256:200|256:200|284:216|324:204,1,140,0|0,1:0|0:0,0:0:0
356,68,60978,1,0,1:0:0
480,132,61440,2,0,P|456:198|408:246,1,140,2|0,0:0|1:0,0:0:0
268,240,62363,2,0,P|220:288|196:354,2,140,2|0|4,0:0|1:0|0:0,0:0:0
348,124,63747,5,0,1:0:0
256,20,64209,1,0,0:0:0
164,124,64671,2,0,P|52:220,1,140,0|2,1:0|0:0,0:0:0
80,352,65594,2,0,P|186:260,1,140,0|2,1:0|0:0,0:0:0
285,161,66517,1,0,1:0:0
383,62,66978,5,4,0:0:0
484,160,67440,2,0,P|488:228|440:280,1,140,0|0,1:0|0:0,0:0:0
308,324,68363,2,0,P|304:256|349:205,2,140,0|2|0,1:0|0:0|1:0,0:0:0
244,200,69747,2,0,P|292:148|356:124,1,140,2|4,0:0|0:0,0:0:0
496,136,70671,6,0,P|448:188|384:212,1,140,4|0,0:0|1:0,0:0:0
256,156,71594,1,2,0:0:0
128,212,72055,2,0,P|64:188|16:136,1,140,0|2,1:0|0:0,0:0:0
108,32,72978,1,0,1:0:0
188,148,73440,2,0,P|232:148|256:160|256:160|280:148|324:148,1,140,2|0,0:0|1:0,0:0:0
404,32,74363,5,4,0:0:0
484,144,74824,2,0,P|436:192|412:259,1,140,0|0,1:0|0:0,0:0:0
328,372,75747,1,0,1:0:0
216,284,76209,2,0,P|168:236|100:212,1,140,2|0,0:0|1:0,0:0:0
140,76,77132,1,2,0:0:0
256,156,77594,1,0,1:0:0
372,76,78055,5,4,0:0:0
440,64,78286,1,2,0:0:0
472,128,78517,1,0,1:0:0
412,256,78978,2,0,P|348:256|348:316|288:316,1,140,2|0,0:0|1:0,0:0:0
221,315,79671,2,0,P|164:316|164:256|100:256,1,140,2|0,0:0|0:0,0:0:0
68,192,80363,1,0,1:0:0
200,148,80824,2,0,P|256:184|312:148,1,140,2|0,0:0|1:0,0:0:0
384,28,81747,5,8,3:0:0
256,84,82209,1,4,0:0:0
128,28,82670,2,0,P|40:48|30:153,2,210,2|2|0,0:0|0:0|1:0,0:0:0
124,168,84517,2,0,P|104:232|38:246,1,140,2|0,0:0|1:0,0:0:0
38,246,85440,6,0,P|6:308,2,70,4|8|0,0:0|0:3|1:0,0:0:0
144,340,86363,1,0,0:0:0
280,312,86824,2,0,P|348:304|404:252,1,140,0|0,1:0|0:0,0:0:0
384,188,87517,6,0,P|357:201|332:232,1,70,8|0,0:3|1:0,0:0:0
180,232,88209,2,0,P|155:201|128:188,2,70,2|8|8,0:0|0:3|0:3,0:0:0
256,116,89132,5,4,0:0:0
196,88,100209,6,0,P|256:120|316:88,1,140,4|2,0:0|0:0,0:0:0
396,204,101132,2,0,P|344:252|327:317,1,140,0|2,0:0|0:0,0:0:0
184,317,102055,2,0,P|168:252|116:204,1,140,0|2,0:0|0:0,0:0:0
224,116,102978,2,0,P|256:128|288:116,2,70,0|0|2,0:0|0:0|0:0,0:0:0
256,52,103670,1,0,0:0:0
256,52,103901,5,4,0:0:0
392,20,104363,1,0,1:0:0
392,160,104824,2,0,P|473:274,1,140,0|0,0:0|1:0,0:0:0
348,340,105747,2,0,P|280:324|216:360,1,140,2|0,0:0|1:0,0:0:0
160,316,106440,2,0,P|212:272|280:252,1,140,2|2,0:0|0:0,0:0:0
352,256,107132,1,0,1:0:0
256,156,107594,5,4,0:0:0
156,56,108055,1,0,1:0:0
20,96,108517,2,0,P|52:156|120:164,1,140,0|0,0:0|1:0,0:0:0
256,156,109440,2,0,P|322:164|354:224,1,140,2|0,0:0|1:0,0:0:0
240,304,110363,2,0,P|174:296|142:236,1,140,2|0,0:0|1:0,0:0:0
168,100,111286,5,4,0:0:0
308,84,111747,2,0,P|376:84|376:132|436:132,1,140,0|0,1:0|0:0,0:0:0
452,272,112670,2,0,P|392:288|324:256,1,140,0|2,1:0|0:0,0:0:0
192,212,113594,2,0,P|124:180|64:196,1,140,0|2,1:0|0:0,0:0:0
112,328,114517,1,0,1:0:0
244,280,114978,6,0,P|272:212,1,70,4|0,0:0|0:0,0:0:0
332,252,115440,2,0,P|384:120,1,140,0|0,1:0|0:0,0:0:0
256,60,116363,2,0,P|188:68|130:30,1,140,0|0,1:0|0:0,0:0:0
64,56,117055,2,0,P|72:124|34:181,1,140,2|0,0:0|0:0,0:0:0
56,248,117747,2,0,P|108:208|140:140,1,140,2|0,0:0|1:0,0:0:0
256,60,118670,5,4,0:0:0
364,145,119132,2,0,P|376:192|376:192|428:208|427:262,1,140,0|0,1:0|0:0,0:0:0
356,260,119824,2,0,P|292:232|256:264|220:300|156:252,1,210,2|2,0:0|0:0,0:0:0
120,120,120978,1,0,1:0:0
232,36,121440,2,0,P|304:36|359:71,1,140,2|0,0:0|1:0,0:0:0
448,180,122363,6,0,P|480:192|504:228,2,70,4|8|0,0:0|0:3|1:0,0:0:0
380,304,123286,2,0,P|312:312|256:272,1,140,2|0,0:0|1:0,0:0:0
132,304,124209,2,0,P|200:312|256:272,1,140,2|0,0:0|1:0,0:0:0
196,144,125132,2,0,P|256:112|316:144,1,140,2|0,0:0|1:0,0:0:0
440,80,126055,6,0,P|424:52|384:32,1,70,8|0,0:3|0:0,0:0:0
324,48,126517,1,4,0:0:0
184,56,126978,2,0,P|128:96|104:160,1,140,2|0,0:0|1:0,0:0:0
144,220,127670,2,0,P|104:164|40:140,1,140,2|0,0:0|0:0,0:0:0
16,208,128363,1,0,1:0:0
116,304,128824,2,0,P|180:300|224:240,1,140,2|0,0:0|1:0,0:0:0
332,152,129747,6,0,P|380:96,1,70,4|0,0:0|0:0,0:0:0
420,44,130209,1,0,1:0:0
280,44,130670,1,0,0:0:0
240,100,130901,2,0,P|194:153,2,70,2|0|0,0:0|1:0|0:0,0:0:0
104,124,131824,2,0,P|58:177,1,70,2|0,0:0|1:0,0:0:0
60,248,132286,2,0,P|104:336|196:312,1,210,2|0,0:0|1:0,0:0:0
316,240,133440,6,0,P|384:220|440:168,1,140,4|0,0:0|1:0,0:0:0
512,56,134363,1,2,0:0:0
380,100,134824,2,0,P|312:120|256:172,1,140,0|2,1:0|0:0,0:0:0
144,244,135747,2,0,P|172:308|240:328,2,140,0|2|0,1:0|0:0|1:0,0:0:0
116,108,137132,6,0,P|184:80,1,70,4|0,0:0|0:0,0:0:0
248,60,137594,1,0,1:0:0
384,84,138055,2,0,P|384:148|328:148|328:208,1,140,2|0,0:0|1:0,0:0:0
264,184,138747,2,0,P|325:184|325:240|389:240,1,140,2|0,0:0|0:0,0:0:0
448,276,139440,1,0,1:0:0
408,336,139670,2,0,P|352:280|288:308|256:348|256:348|224:308|160:280|104:336,1,350,2|4,0:0|0:0,0:0:0
44,208,141286,5,0,1:0:0
132,100,141747,2,0,P|184:144|248:128,1,140,2|0,0:0|1:0,0:0:0
364,48,142670,2,0,P|428:32|480:76,1,140,2|0,0:0|1:0,0:0:0
480,216,143594,2,0,P|428:260|364:244,1,140,2|0,0:0|1:0,0:0:0
256,156,144517,5,4,0:0:0
188,160,144747,1,0,0:0:0
160,224,144978,1,0,1:0:0
264,320,145440,2,0,P|196:332|136:296,1,140,2|0,0:0|1:0,0:0:0
84,252,146132,1,2,0:0:0
248,120,146824,6,0,P|306:154|374:142,1,140,0|0,1:0|0:0,0:0:0
436,104,147517,1,2,0:0:0
381,60,147747,2,0,P|322:25|254:37,1,140,0|4,1:0|0:0,0:0:0
120,76,148670,5,0,1:0:0
48,196,149132,2,0,P|104:228|135:294,1,140,2|0,0:0|1:0,0:0:0
256,364,150055,1,2,0:0:0
376,294,150517,2,0,P|408:228|464:196,1,140,0|2,1:0|0:0,0:0:0
512,328,151440,1,0,1:0:0
377,294,151901,5,8,0:3:0
327,244,152132,1,8,0:3:0
277,194,152363,1,4,0:0:0
188,88,152824,2,0,P|120:84|65:125,1,140,2|0,0:0|1:0,0:0:0
65,266,153747,2,0,P|119:307|187:303,1,140,2|0,0:0|1:0,0:0:0
323,302,154670,2,0,P|393:307|447:266,1,140,0|0,0:0|1:0,0:0:0
446,126,155594,6,0,P|392:85|322:89,1,140,8|4,0:3|0:0,0:0:0
356,220,156517,1,2,0:0:0
256,320,156978,1,0,1:0:0
156,220,157440,2,0,P|56:100,1,140,2|0,0:0|1:0,0:0:0
112,60,158132,2,0,P|201:167,1,140,2|2,0:0|0:0,0:0:0
228,232,158824,1,0,1:0:0
352,164,159286,5,4,0:0:0
420,152,159517,1,8,0:3:0
448,88,159747,1,0,1:0:0
308,80,160209,2,0,P|256:40|204:80,1,140,2|0,0:0|1:0,0:0:0
256,192,161132,12,4,162978,0:0:0
