osu file format v4

[General]
AudioFilename: Ji Gong.mp3
AudioLeadIn: 0
AudioHash: 33c8f511fd4beeb2e1467cf6ed94405d
PreviewTime: -1
SampleSet: Soft

[Metadata]
Title:Theme Song
Artist:Legend of Ji Gong
Creator:mtmcl
Version:Normal

[Difficulty]
HPDrainRate:5
CircleSize:5
OverallDifficulty:5
SliderMultiplier: 1.4
SliderTickRate: 1

[Events]
//Background and Video events
1,0,"jigong.wmv"
//Break Periods
2,44233,46647
2,78083,84788
//Storyboard Layer 0 (Background)
//Storyboard Layer 1 (Failing)
//Storyboard Layer 2 (Passing)
//Storyboard Layer 3 (Foreground)
//Storyboard Sound Samples
//Background Colour Transformations
3,100,128,128,128

[TimingPoints]
7832,476.493011435832,4,2,0

[HitObjects]
256,192,15455,1,0
96,192,16170,1,0
96,192,16408,1,2
96,96,16885,1,0
192,96,17361,5,0
352,96,18076,1,0
352,96,18314,1,2
352,192,18791,1,0
352,192,19029,1,0
352,192,19267,1,0
352,192,19506,1,0
224,192,19982,5,0
224,192,20220,1,2
224,288,20697,1,2
320,288,21173,1,4
320,192,21650,2,0,B|320:192|160:192,2,140
416,192,23079,5,0
416,352,23794,1,2
416,352,24032,1,2
320,352,24509,1,0
224,352,24985,2,2,B|224:352|64:352,2,140
224,256,26415,5,0
224,160,26891,2,0,B|224:160|352:96|320:64,2,140
128,160,28321,1,0
32,160,28797,5,2
32,160,29035,1,2
32,256,29512,1,2
32,256,29750,1,2
32,352,30227,1,2
128,352,30703,5,0
224,352,31180,1,0
224,352,31418,1,0
224,352,31656,1,2
224,256,32133,1,0
224,160,32609,5,0
320,160,33086,1,0
320,160,33324,1,0
320,160,33562,1,2
320,256,34039,1,0
320,352,34515,6,2,B|320:352|416:352,4,70
224,352,35945,1,0
128,352,36421,5,2
128,256,36898,1,2
128,160,37374,1,2
128,64,37851,1,2
224,64,38327,6,0,B|224:64|224:352,1,280
224,344,39518,1,2
224,344,39757,1,2
320,352,40233,2,0,B|320:352|320:64,1,280
320,72,41424,1,2
320,72,41663,1,2
416,64,42139,5,0
416,64,42377,1,0
416,160,42854,1,0
416,160,43092,1,0
416,256,43568,1,2
416,352,44045,1,4
256,192,47857,5,0
160,192,48333,1,2
160,192,48572,1,2
160,192,48810,1,2
64,192,49286,1,0
64,288,49763,5,0
224,288,50478,1,2
224,288,50716,1,2
320,288,51192,5,0
320,288,51431,1,0
320,288,51669,2,2,B|320:288|320:192,1,70
320,128,52384,1,0
320,128,52622,1,0
224,128,53098,1,2
128,128,53575,5,2
128,224,54051,2,0,B|128:224|128:320,2,70
128,128,55004,1,0
224,128,55481,5,2
384,128,56196,1,0
384,128,56434,1,0
384,224,56910,6,0,B|384:224|288:224,1,70
320,224,57387,2,2,B|320:224|224:224,1,70
160,224,58102,1,0
160,224,58340,1,0
160,320,58816,6,0,B|160:320|256:320,1,70
224,320,59293,2,2,B|224:320|320:320,1,70
384,320,60007,1,2
384,320,60246,1,2
384,224,60722,1,2
384,128,61199,1,4
256,128,61675,5,0
256,160,61913,1,0
256,192,62152,1,0
256,224,62390,1,0
256,256,62628,1,0
256,288,62866,1,0
256,320,63105,1,2
352,320,63581,1,2
352,320,63819,1,0
352,320,64058,1,2
352,224,64534,1,2
352,128,65011,6,0,B|352:128|128:128,1,210
142,128,65964,1,2
128,352,66917,1,0
128,352,67155,1,0
224,352,67631,1,0
224,352,67870,1,0
320,352,68346,1,2
416,352,68823,1,2
352,288,69299,5,0
256,288,69776,1,0
160,224,70252,1,0
256,192,70729,5,0
64,192,71443,1,0
64,192,71682,1,0
160,192,72158,1,2
256,192,72635,5,0
448,192,73349,1,0
448,192,73588,1,0
352,192,74064,1,2
256,192,74541,1,0
256,192,74779,1,0
256,288,75255,5,2
256,288,75494,1,2
352,288,75970,1,2
256,192,76208,12,0,77876
256,192,85976,1,0
256,32,86691,1,2
256,32,86929,1,2
352,192,87882,5,0
352,32,88597,1,2
352,32,88835,1,2
448,192,89788,5,0
448,192,90027,1,0
448,32,90503,1,2
448,32,90741,1,2
448,32,90980,1,2
448,32,91218,1,2
352,32,91694,1,4
256,192,91933,12,0,93124
256,192,93600,1,0
288,288,94077,2,2,B|288:288|384:160|256:32,1,280
256,192,95506,5,0
224,288,95983,2,2,B|224:288|128:160|256:32,1,280
256,192,97412,5,2
256,192,97650,1,2
256,192,97889,2,2,B|256:192|128:288|0:160,1,280
32,64,99318,1,0
128,64,99795,5,0
224,64,100271,2,2,B|224:64|224:224|192:224,1,140
320,224,101224,5,0
320,64,101939,1,2
320,64,102177,2,2,B|320:64|160:64,1,140
64,64,103130,5,0
64,224,103845,1,2
64,224,104083,1,2
160,224,104560,1,2
256,192,104798,12,4,106942
