osu file format v12

[General]
AudioFilename: Legal - Under one sky.mp3
AudioLeadIn: 0
PreviewTime: 90785
Countdown: 1
SampleSet: Normal
StackLeniency: 0.7
Mode: 0
LetterboxInBreaks: 1
WidescreenStoryboard: 0

[Editor]
Bookmarks: 10775,90775,110775
DistanceSpacing: 2
BeatDivisor: 4
GridSize: 4

[Metadata]
Title:Under one sky
TitleUnicode:Under one sky
Artist:Legal
ArtistUnicode:Legal
Creator:loluper
Version:Insane
Source:
Tags:Legalist
BeatmapID:263876
BeatmapSetID:99129

[Difficulty]
HPDrainRate:6
CircleSize:4
OverallDifficulty:6
ApproachRate:9
SliderMultiplier:1.4
SliderTickRate:1

[Events]
//Background and Video events
0,0,"307820-1024x768.jpg",0,0
//Break Periods
2,65350,90175
//Storyboard Layer 0 (Background)
//Storyboard Layer 1 (Fail)
//Storyboard Layer 2 (Pass)
//Storyboard Layer 3 (Foreground)
//Storyboard Sound Samples
//Background Colour Transformations
3,100,163,162,255

[TimingPoints]
150,312.5,4,1,1,60,1,0
48743,-200,4,1,1,60,0,0
49681,-100,4,1,1,60,0,0

[Colours]
Combo1 : 255,128,255
Combo2 : 255,128,128
Combo3 : 128,255,128
Combo4 : 0,128,255

[HitObjects]
256,192,10775,2,0,B|328:183|396:184|396:184|468:192,1,210
484,88,11400,6,0,P|448:87|412:72,1,70,8|0,0:0|0:0,0:0:0:0:
341,104,11712,2,0,P|340:140|325:176,1,70
391,224,12025,2,0,P|427:225|463:240,1,70
259,334,12337,1,0,0:0:0:0:
398,348,12493,1,0,0:0:0:0:
121,314,12650,6,0,L|44:319,1,70,8|0,0:0|0:0,0:0:0:0:
134,206,12962,2,0,B|170:215|170:215|197:234,1,70
104,257,13275,2,0,B|68:248|68:248|41:229,1,70
117,149,13587,2,0,L|186:144,1,70
329,123,13900,5,8,0:0:0:0:
242,15,14056,1,0,0:0:0:0:
466,57,14212,2,0,L|443:204,1,140
289,317,14681,5,0,0:0:0:0:
427,341,14837,1,0,0:0:0:0:
444,195,14993,1,0,0:0:0:0:
305,178,15150,1,8,0:0:0:0:
361,307,15306,1,0,0:0:0:0:
297,190,15462,5,0,0:0:0:0:
375,307,15618,1,0,0:0:0:0:
436,184,15775,6,0,B|452:137|452:137|451:89|451:89|463:49,1,140,0|0,0:0|0:0,0:0:0:0:
336,120,16243,1,0,0:0:0:0:
362,250,16400,2,0,P|332:192|336:120,1,140,8|0,0:0|0:0,0:0:0:0:
307,343,17025,5,0,0:0:0:0:
241,71,17337,1,0,0:0:0:0:
10,218,17650,1,8,0:0:0:0:
282,362,17962,5,0,0:0:0:0:
227,227,18118,1,0,0:0:0:0:
264,82,18274,1,0,0:0:0:0:
11,187,18587,5,0,0:0:0:0:
165,259,18743,1,0,0:0:0:0:
282,362,18900,1,8,0:0:0:0:
264,82,19212,5,0,0:0:0:0:
163,192,19368,1,0,0:0:0:0:
11,187,19525,1,0,0:0:0:0:
282,362,19837,5,0,0:0:0:0:
228,226,19993,1,0,0:0:0:0:
264,82,20150,1,8,0:0:0:0:
496,239,20775,6,0,B|438:249|438:249|360:273|360:273|291:280,1,210
200,236,21400,6,0,P|221:208|253:189,1,70,8|0,0:0|0:0,0:0:0:0:
244,368,21712,2,0,B|211:351|198:315,1,70
380,331,22025,2,0,B|360:362|327:377,1,70
205,121,22337,1,0,0:0:0:0:
263,248,22493,1,0,0:0:0:0:
344,138,22650,6,8,B|379:127|379:127|408:102,1,70,8|0,0:0|0:0,0:0:0:0:
311,1,22962,2,0,B|337:49|337:49|341:64,1,70
446,256,23275,2,0,B|449:271|449:271|476:319,1,70
443,179,23587,2,0,B|409:188|409:188|383:211,1,70
322,335,23900,5,8,0:0:0:0:
383,210,24056,1,0,0:0:0:0:
141,354,24212,2,0,P|104:303|109:225,1,140
322,335,24681,1,0,0:0:0:0:
195,271,24838,1,0,0:0:0:0:
262,149,24994,1,0,0:0:0:0:
322,335,25150,1,8,0:0:0:0:
256,192,25775,12,0,27650,0:0:0:0:
356,87,28275,2,0,B|339:60|344:19,2,70
325,227,28743,1,0,0:0:0:0:
422,45,28900,2,0,B|436:73|434:112|434:112|445:148|473:171,1,140,8|0,0:0|0:0,0:0:0:0:
325,227,29525,6,0,B|342:254|337:295,2,70
356,87,29993,1,0,0:0:0:0:
259,269,30150,2,0,B|245:241|247:202|247:202|236:166|210:143|210:143,1,140,8|0,0:0|0:0,0:0:0:0:
326,308,30775,1,0,0:0:0:0:
146,100,30931,6,0,B|119:125|81:134,1,70
177,214,31243,2,0,B|205:195|223:162,1,70,0|8,0:0|0:0,0:0:0:0:
307,203,31556,2,0,B|304:245|276:288|276:288|249:331|247:366,1,175
252,294,32025,1,0,0:0:0:0:
104,330,32181,1,0,0:0:0:0:
84,192,32337,6,0,B|95:223|95:223|99:259,1,70
220,189,32650,2,0,B|210:154|210:154|194:125,1,70,8|0,0:0|0:0,0:0:0:0:
303,38,32962,2,0,B|324:63|324:63|340:96,1,70
452,181,33275,2,0,B|473:154|478:113,2,70
369,252,33743,1,0,0:0:0:0:
284,319,33900,2,0,B|263:346|258:387,2,70,8|0|0,0:0|0:0|0:0,0:0:0:0:
369,253,34368,5,0,0:0:0:0:
294,133,34525,1,0,0:0:0:0:
389,31,34681,1,0,0:0:0:0:
373,166,34837,1,0,0:0:0:0:
265,230,34993,1,0,0:0:0:0:
249,365,35149,1,8,0:0:0:0:
344,263,35305,1,0,0:0:0:0:
323,135,35462,6,0,B|282:144|282:144|218:132,1,105
194,64,35775,2,0,B|216:58|244:64|244:64|267:69,1,70
256,210,36087,6,0,L|153:191,1,105
81,192,36400,2,0,B|82:214|97:237|97:237|101:259,1,70,8|0,0:0|0:0,0:0:0:0:
121,112,36712,2,0,P|110:79|109:43,1,70
153,312,37181,5,0,0:0:0:0:
80,192,37337,1,0,0:0:0:0:
219,182,37493,1,0,0:0:0:0:
100,261,37650,1,8,0:0:0:0:
100,261,37961,5,0,0:0:0:0:
219,182,38118,1,0,0:0:0:0:
346,174,38275,2,0,P|343:240|396:283,1,140
484,312,38743,22,0,B|485:278|485:278|477:241,1,70,0|8,0:0|0:0,0:0:0:0:
337,346,39056,5,0,0:0:0:0:
406,224,39212,1,0,0:0:0:0:
412,369,39368,1,0,0:0:0:0:
330,206,39525,38,0,B|305:231|305:231|290:265,1,70,0|0,0:0|0:0,0:0:0:0:
412,369,39837,2,0,P|414:337|399:301,1,70,0|0,0:0|0:0,0:0:0:0:
234,361,40150,1,8,0:0:0:0:
251,181,40306,1,0,0:0:0:0:
370,323,40462,1,0,0:0:0:0:
234,361,40618,1,0,0:0:0:0:
237,107,40775,6,0,B|271:59|271:59|333:17|387:28|422:32,1,210
369,185,41400,2,0,L|328:245,1,70,8|0,0:0|0:0,0:0:0:0:
294,89,41712,2,0,P|327:74|364:68,1,70
364,224,42025,2,0,L|305:266,1,70
328,112,42337,2,0,P|363:105|400:109,1,70
433,234,42650,5,8,0:0:0:0:
433,234,42806,1,0,0:0:0:0:
401,346,42962,5,0,0:0:0:0:
401,346,43118,1,0,0:0:0:0:
397,108,43275,6,0,B|325:112|325:112|258:148,1,140
11,263,43900,2,0,P|86:257|150:223,1,140,8|0,0:0|0:0,0:0:0:0:
250,124,44368,1,0,0:0:0:0:
302,255,44525,1,0,0:0:0:0:
144,228,44681,1,0,0:0:0:0:
251,124,44837,6,0,P|221:98|206:70,1,70
302,255,45150,2,0,P|294:291|277:318,1,70,8|0,0:0|0:0,0:0:0:0:
144,228,45462,2,0,P|107:238|74:238,1,70
306,182,45775,6,0,P|359:211|367:285,1,140
166,336,46321,5,0,0:0:0:0:
92,331,46400,2,0,P|47:280|33:211,1,140,8|0,0:0|0:0,0:0:0:0:
284,62,47025,6,0,P|302:92|309:128,1,70
443,163,47337,2,0,B|438:196|438:196|443:233,1,70
311,281,47650,2,0,P|302:317|287:347,1,70,8|0,0:0|0:0,0:0:0:0:
202,135,47962,1,0,0:0:0:0:
332,184,48118,1,0,0:0:0:0:
216,258,48275,2,0,P|236:189|199:134,1,140
80,206,48743,1,0,0:0:0:0:
332,184,48900,2,0,B|403:184|403:184|475:195,1,140,8|0,0:0|0:0,0:0:0:0:
471,194,49837,1,0,0:0:0:0:
41,190,50775,6,0,P|166:207|284:192,1,245
319,26,51400,2,0,P|306:76|318:130,1,105
245,135,51712,2,0,B|260:167|260:167|284:193,1,70
391,287,52025,2,0,P|372:261|343:237,1,70
396,76,52337,2,0,L|337:116,1,70
302,322,52650,2,0,L|163:341,1,140
26,310,53118,1,0,0:0:0:0:
131,216,53275,1,0,0:0:0:0:
168,348,53431,2,0,B|133:353|133:353|97:350,1,70
143,221,53743,1,0,0:0:0:0:
157,357,53900,1,0,0:0:0:0:
24,295,54056,1,0,0:0:0:0:
194,285,54212,1,0,0:0:0:0:
61,223,54368,1,0,0:0:0:0:
75,360,54525,1,0,0:0:0:0:
200,110,54837,1,0,0:0:0:0:
75,360,55150,1,0,0:0:0:0:
200,110,55306,1,0,0:0:0:0:
62,82,55462,1,0,0:0:0:0:
195,153,55618,1,0,0:0:0:0:
350,125,55775,2,0,B|413:108|413:108|481:128|481:128|456:187|464:238,1,245
428,331,56400,2,0,P|448:268|431:195,1,140
308,261,56868,1,0,0:0:0:0:
270,125,57025,2,0,B|293:92|293:92|348:56,1,105
204,146,57337,2,0,B|187:109|187:109|184:44,1,105
190,213,57650,2,0,B|150:209|150:209|92:180,1,105
30,150,57962,2,0,P|67:217|73:287,1,140
214,281,58431,1,0,0:0:0:0:
102,196,58587,1,0,0:0:0:0:
355,276,58743,1,0,0:0:0:0:
215,295,58899,1,0,0:0:0:0:
467,346,59056,1,0,0:0:0:0:
354,260,59212,2,0,B|371:158|371:158|374:117,1,140
235,148,59681,2,0,L|163:152,1,70
25,161,59993,1,0,0:0:0:0:
224,52,60150,2,0,P|281:65|315:95,1,105
249,248,60462,2,0,P|230:200|237:144,1,105
407,300,60775,2,0,B|345:231|345:231|317:186,1,140
152,211,61243,1,0,0:0:0:0:
321,191,61400,2,0,B|401:180|401:180|428:180,1,105
494,187,61712,1,0,0:0:0:0:
372,112,61868,1,0,0:0:0:0:
402,249,62025,2,0,B|322:260|322:260|295:260,1,105
229,253,62337,1,0,0:0:0:0:
351,328,62493,1,0,0:0:0:0:
372,112,62650,2,0,B|376:191|376:191|345:358,1,245
275,357,63275,1,0,0:0:0:0:
138,326,63431,1,0,0:0:0:0:
232,223,63587,1,0,0:0:0:0:
350,187,63743,1,0,0:0:0:0:
256,290,63899,1,0,0:0:0:0:
213,156,64055,1,0,0:0:0:0:
170,22,64212,1,0,0:0:0:0:
307,53,64368,1,0,0:0:0:0:
213,156,64524,1,0,0:0:0:0:
95,192,64680,1,0,0:0:0:0:
189,89,64836,1,0,0:0:0:0:
232,223,64992,1,0,0:0:0:0:
275,357,65150,1,0,0:0:0:0:
255,192,90775,5,0,0:0:0:0:
