osu file format v12

[General]
AudioFilename: LilySTARTPV.mp3
AudioLeadIn: 2000
PreviewTime: 101471
Countdown: 0
SampleSet: Normal
StackLeniency: 0.7
Mode: 0
LetterboxInBreaks: 0
WidescreenStoryboard: 0

[Editor]
Bookmarks: 31126,73271,82871,138071,142871,174071
DistanceSpacing: 1
BeatDivisor: 4
GridSize: 4

[Metadata]
Title:START
TitleUnicode:START
Artist:Leftymonster
ArtistUnicode:Leftymonster
Creator:HanzeR
Version:Start
Source:
Tags:Lily Itoukashitarou Vocaloid
BeatmapID:201702
BeatmapSetID:70102

[Difficulty]
HPDrainRate:3
CircleSize:3
OverallDifficulty:3
ApproachRate:5
SliderMultiplier:1.02
SliderTickRate:1

[Events]
//Background and Video events
0,0,"lily2.jpg",0,0
//Break Periods
2,23068,26468
2,75868,81668
2,119518,120068
2,121918,122468
2,124318,124868
//Storyboard Layer 0 (Background)
//Storyboard Layer 1 (Fail)
//Storyboard Layer 2 (Pass)
//Storyboard Layer 3 (Foreground)
//Storyboard Sound Samples
//Background Colour Transformations
3,100,163,162,255

[TimingPoints]
1268,300,4,1,1,60,1,0
1268,-100,4,2,1,60,0,0
7268,-100,4,2,1,45,0,0
8468,-100,4,1,1,60,0,0
44393,-100,4,1,2,60,0,0
44543,-100,4,1,1,60,0,0
46868,-100,4,1,1,60,0,1
52793,-100,4,1,2,60,0,1
52943,-100,4,1,1,60,0,1
61193,-100,4,1,2,60,0,1
61343,-100,4,1,1,60,0,1
62393,-100,4,1,2,60,0,1
62543,-100,4,1,1,60,0,1
63668,-100,4,1,1,60,0,0
67118,-100,4,1,2,60,0,0
67418,-100,4,1,1,60,0,0
75668,-100,4,1,1,60,0,0
82868,-100,4,1,1,60,0,0
99593,-100,4,1,2,60,0,0
99743,-100,4,1,1,60,0,0
100793,-100,4,1,2,60,0,0
100943,-100,4,1,1,60,0,0
102068,-100,4,1,1,60,0,1
107993,-100,4,1,2,60,0,1
108143,-100,4,1,1,60,0,1
116393,-100,4,1,2,60,0,1
116543,-100,4,1,1,60,0,1
117593,-100,4,1,2,60,0,1
117743,-100,4,1,1,60,0,1
118868,-100,4,1,1,60,0,0
147668,-100,4,1,1,60,0,1
152393,-100,4,1,2,60,0,1
152543,-100,4,1,1,60,0,1
153593,-100,4,1,2,60,0,1
153743,-100,4,1,1,60,0,1
165293,-100,4,1,2,60,0,1
165443,-100,4,1,1,60,0,1
165893,-100,4,1,2,60,0,1
166043,-100,4,1,1,60,0,1
173768,-100,4,1,1,50,0,0

[Colours]
Combo1 : 128,128,255
Combo2 : 213,255,213
Combo3 : 34,145,255
Combo4 : 255,91,173

[HitObjects]
172,104,1268,2,0,P|256:56|348:116,1,204,2|0,0:0|0:0,0:0:0:0:
256,160,2168,1,0,0:0:0:0:
76,260,2768,2,0,L|76:368,2,102
172,208,3668,6,0,P|256:256|348:196,2,204,2|0|0,0:0|0:0|0:0,0:0:0:0:
204,112,5168,2,0,B|256:104|256:104|320:116,2,102,0|2|0,0:0|0:0|0:0,0:0:0:0:
256,192,6068,12,4,7268,2:0:0:0:
251,281,8468,6,2,P|200:328|120:304,1,153,4|2,0:0|0:0,0:0:0:0:
40,184,9368,2,0,P|56:168|96:160,1,51,2|2,0:0|0:0,0:0:0:0:
256,120,9968,2,2,L|256:-4,2,102,10|2|2,0:0|0:0|0:0,0:0:0:0:
176,220,10868,6,0,B|176:200|176:200|160:160|160:160|160:64,1,153,6|2,0:0|0:0,0:0:0:0:
352,70,11918,2,2,B|352:160|352:160|336:200|336:200|336:220,1,153,6|10,0:0|0:0,0:0:0:0:
304,316,12668,2,0,L|200:316,1,102,2|10,0:0|0:0,0:0:0:0:
100,316,13268,5,6,0:0:0:0:
160,176,13718,2,2,B|244:216|284:144|364:184,1,204
260,300,14768,2,10,P|316:297|358:313,2,102,10|2|10,0:0|0:0|0:0,0:0:0:0:
156,304,15668,5,2,0:0:0:0:
92,164,16118,2,2,P|204:172|217:86,1,204,2|6,0:0|0:0,0:0:0:0:
376,100,17168,2,2,P|376:148|348:200,2,102,10|2|10,0:0|0:0|0:0,0:0:0:0:
256,192,18068,12,4,22868,2:0:0:0:
353,182,27668,6,0,P|405:202|461:182,1,102,0|8,0:0|0:0,0:0:0:0:
400,100,28268,2,0,P|370:51|366:6,2,102,0|8|0,0:0|0:0|0:0,0:0:0:0:
448,192,29168,2,0,P|475:239|479:285,2,102,8|0|8,0:0|0:0|0:0,0:0:0:0:
384,272,30068,1,0,0:0:0:0:
196,348,30668,6,0,P|232:312|244:260,1,102,0|8,0:0|0:0,0:0:0:0:
192,176,31268,2,0,P|228:150|284:138,2,102,0|8|0,0:0|0:0|0:0,0:0:0:0:
92,196,32168,1,8,0:0:0:0:
72,96,32468,1,4,0:0:0:0:
280,80,33068,5,0,0:0:0:0:
384,76,33368,1,8,0:0:0:0:
484,96,33668,2,0,B|464:190|464:190|358:182|303:302,1,306,4|8,2:0|0:0,0:0:0:0:
208,302,34868,2,0,B|153:182|47:190|47:190|28:96,1,306,4|8,0:0|0:0,0:0:0:0:
120,56,36068,6,0,L|236:16,1,102,4|8,0:0|0:0,0:0:0:0:
288,96,36668,2,0,L|172:136,1,102,0|8,0:0|0:0,0:0:0:0:
136,212,37268,6,0,P|252:296|372:192,1,306,4|8,0:0|0:0,0:0:0:0:
464,172,38468,2,0,P|480:216|464:280,2,102,0|8|0,0:0|0:0|0:0,0:0:0:0:
364,180,39368,1,0,0:0:0:0:
316,272,39668,2,0,B|216:288|216:288|136:212,2,204,0|0|0,0:0|0:0|0:0,0:0:0:0:
468,136,41468,1,8,0:0:0:0:
272,136,42068,2,0,B|180:96|188:24|188:24|104:28|36:88,1,306,4|8,2:0|0:0,0:0:0:0:
52,180,43268,6,8,P|107:147|143:145,2,102,0|0|8,0:0|0:0|0:0,0:0:0:0:
132,244,44168,2,0,P|204:280|316:244,1,204,0|8,0:0|0:0,0:0:0:0:
420,236,45068,1,0,0:0:0:0:
416,340,45368,2,0,P|332:344|328:232,1,204,8|8,0:0|0:0,0:0:0:0:
57,112,46868,6,2,P|33:209|56:315,2,204,6|2|2,0:0|0:0|0:0,0:0:0:0:
153,79,48368,2,2,P|201:82|253:70,2,102,10|2|10,0:0|0:0|0:0,0:0:0:0:
186,175,49268,6,2,P|238:171|302:191,1,102,2|10,0:0|0:0,0:0:0:0:
376,232,49868,1,2,0:0:0:0:
328,324,50168,2,2,P|204:328|195:167,1,306,10|2,0:0|0:0,0:0:0:0:
127,90,51368,6,0,L|45:11,2,102,8|4|8,0:0|0:0|0:0,0:0:0:0:
187,176,52268,1,0,0:0:0:0:
256,100,52568,2,0,B|360:68|360:68|472:104,1,204,8|8,0:0|0:0,0:0:0:0:
424,196,53468,1,0,0:0:0:0:
364,280,53768,6,4,P|283:296|240:197,3,204,0|6|6|6,0:0|0:0|0:0|0:0,0:0:0:0:
140,176,55868,2,0,P|152:144|212:92,1,102,2|10,0:0|0:0,0:0:0:0:
296,60,56468,6,0,L|392:8,2,102,6|10|2,0:0|0:0|0:0,0:0:0:0:
284,160,57368,2,0,L|472:60,1,204,10|10,0:0|0:0,0:0:0:0:
472,168,58268,2,0,L|468:284,1,102,2|10,0:0|0:0,0:0:0:0:
424,364,58868,6,2,P|358:355|322:330,1,102,2|10,0:0|0:0,0:0:0:0:
236,296,59468,2,0,P|196:300|147:343,2,102,2|10|0,0:0|0:0|0:0,0:0:0:0:
328,252,60368,2,0,P|368:220|392:152,1,102,10|2,0:0|0:0,0:0:0:0:
304,120,60968,6,8,P|240:200|132:236,1,204,2|8,0:0|0:0,0:0:0:0:
72,168,61868,1,8,0:0:0:0:
36,68,62168,2,8,B|93:48|144:88|144:88|230:48,1,204,0|0,0:0|0:0,0:0:0:0:
256,252,63368,1,0,0:0:0:0:
256,192,63668,12,0,65768,0:0:0:0:
432,128,67118,6,0,P|360:76|280:76,1,153,4|8,2:0|0:0,0:0:0:0:
196,80,67868,2,0,P|137:105|115:134,1,102,0|8,0:0|0:0,0:0:0:0:
180,212,68468,6,0,B|184:276|184:276|152:308|152:308|156:360,1,153,4|0,2:0|0:0,0:0:0:0:
356,348,69518,2,0,B|359:304|359:304|327:272|327:272|331:208,1,153,0|8,0:0|0:0,0:0:0:0:
336,108,70268,2,0,L|248:44,1,102,0|8,0:0|0:0,0:0:0:0:
156,80,70868,2,0,B|180:144|128:168|156:240,1,153,4|0,2:0|0:0,0:0:0:0:
300,216,71918,6,0,P|348:192|456:216,1,153,4|8,0:0|0:0,0:0:0:0:
484,300,72668,2,0,P|436:312|384:276,1,102,0|8,0:0|0:0,0:0:0:0:
256,192,73268,12,4,75668,2:0:0:0:
96,60,82868,6,0,P|148:80|176:132,1,102,4|8,0:0|0:0,0:0:0:0:
144,216,83468,2,0,P|199:224|249:193,2,102,0|8|0,0:0|0:0|0:0,0:0:0:0:
64,156,84368,1,8,0:0:0:0:
60,256,84668,2,0,L|116:344,1,102,0|8,0:0|0:0,0:0:0:0:
216,344,85268,1,0,0:0:0:0:
417,310,85868,6,0,L|445:210,1,102,0|8,0:0|0:0,0:0:0:0:
344,192,86468,2,0,L|236:232,2,102,0|8|0,0:0|0:0|0:0,0:0:0:0:
280,112,87368,1,8,0:0:0:0:
212,36,87668,2,0,L|112:68,1,102,4|0,0:0|0:0,0:0:0:0:
20,108,88268,6,0,P|44:156|99:187,1,102,0|8,0:0|0:0,0:0:0:0:
172,132,88868,1,4,2:0:0:0:
268,104,89168,2,0,P|316:132|340:180,1,102,8|0,0:0|0:0,0:0:0:0:
248,192,89768,1,8,0:0:0:0:
156,217,90068,6,4,B|204:333|288:253|312:349,1,204,4|0,0:0|0:0,0:0:0:0:
360,248,90968,1,8,0:0:0:0:
344,148,91268,2,0,P|352:88|344:44,1,102,0|8,0:0|0:0,0:0:0:0:
244,36,91868,2,0,P|236:96|244:140,1,102
160,196,92468,6,0,P|230:316|252:270,1,306,4|0,0:0|0:0,0:0:0:0:
288,172,93668,2,8,P|339:208|367:254,1,102,0|0,0:0|0:0,0:0:0:0:
456,276,94268,2,8,P|419:327|373:355,1,102,8|0,0:0|0:0,0:0:0:0:
288,332,94868,6,0,P|192:304|80:344,2,204,4|8|0,2:0|0:0|0:0,0:0:0:0:
508,356,96668,1,8,0:0:0:0:
500,152,97268,2,12,B|461:237|461:237|359:277,1,204,4|0,0:0|0:0,0:0:0:0:
256,268,98168,6,0,L|152:224,3,102
96,144,99368,2,0,P|176:76|276:84,1,204
368,112,100268,1,0,0:0:0:0:
284,176,100568,2,0,P|230:266|256:363,1,204,4|4,2:0|2:0,3:0:0:0:
64,216,102068,6,0,P|76:156|112:112,1,102,2|10,0:0|0:0,0:0:0:0:
200,124,102668,2,2,P|232:147|292:159,1,102,2|10,0:0|0:0,0:0:0:0:
384,208,103268,1,0,0:0:0:0:
464,272,103568,2,0,P|487:239|499:179,2,102,10|2|10,0:0|0:0|0:0,0:0:0:0:
380,332,104468,6,2,P|320:344|284:232,1,204,2|2,0:0|0:0,0:0:0:0:
384,208,105368,2,2,P|264:132|96:180,1,306,10|2,0:0|0:0,0:0:0:0:
24,116,106568,6,0,P|57:77|105:61,2,102,8|4|8,0:0|0:0|0:0,0:0:0:0:
32,220,107468,1,0,0:0:0:0:
120,268,107768,2,0,P|204:252|248:136,1,204,8|8,0:0|0:0,0:0:0:0:
308,68,108668,1,0,0:0:0:0:
380,155,108968,6,0,B|380:224|380:224|336:260|336:260|356:336,1,204,10|14,0:0|0:0,0:0:0:0:
256,328,109868,1,2,0:0:0:0:
156,336,110168,2,0,B|176:260|176:260|132:224|132:224|132:144,1,204,10|14,0:0|0:0,0:0:0:0:
128,52,111068,2,0,L|228:88,1,102,2|10,0:0|0:0,0:0:0:0:
272,176,111668,6,2,P|316:132|332:80,1,102,6|10,0:0|0:0,0:0:0:0:
444,116,112268,2,0,P|400:160|412:308,1,204,2|2,0:0|0:0,0:0:0:0:
308,340,113168,6,0,B|256:356|256:356|196:336,2,102,10|2|10,0:0|0:0|0:0,0:0:0:0:
248,256,114068,2,0,B|196:236|196:236|140:248,1,102,2|10,0:0|0:0,0:0:0:0:
48,240,114668,2,0,L|88:144,1,102,2|10,0:0|0:0,0:0:0:0:
288,176,115568,2,0,L|408:212,1,102,8|0,0:0|0:0,0:0:0:0:
428,120,116168,6,0,B|320:88|320:88|224:60,1,204,8|0,0:0|0:0,0:0:0:0:
160,132,117068,1,0,0:0:0:0:
256,164,117368,2,0,B|228:216|256:264|280:304|256:364,2,204,8|0|0,0:0|0:0|0:0,0:0:0:0:
256,72,118868,6,8,L|256:16,3,51
372,192,121268,6,8,L|428:192,3,51
136,192,123668,6,8,L|80:192,3,51
392,340,126068,5,0,0:0:0:0:
392,340,126218,2,0,P|324:360|244:312,1,153,4|12,2:0|0:0,0:0:0:0:
152,208,127118,2,0,P|220:228|300:180,1,153,0|4,0:0|2:0,0:0:0:0:
340,104,127868,2,0,P|388:64|428:60,1,102,0|8,0:0|0:0,0:0:0:0:
424,152,128468,6,0,P|444:216|428:264,1,102
392,340,129068,1,8,0:0:0:0:
312,276,129368,2,0,B|264:288|264:288|220:340,2,102
260,184,130268,2,0,L|164:152,1,102,8|0,0:0|0:0,0:0:0:0:
60,160,130868,6,0,P|72:104|108:68,1,102,4|0,2:0|0:0,0:0:0:0:
204,72,131468,1,8,0:0:0:0:
300,108,131768,2,0,L|380:192,2,102,0|0|0,0:0|0:0|0:0,0:0:0:0:
384,44,132668,2,0,L|460:128,1,102,8|0,0:0|0:0,0:0:0:0:
488,216,133268,6,0,B|408:288|408:288|352:368,1,204,4|12,0:0|2:0,0:0:0:0:
256,336,134168,1,0,0:0:0:0:
159,366,134468,2,0,B|104:288|104:288|24:216,1,204,0|8,0:0|0:0,0:0:0:0:
116,172,135368,1,0,0:0:0:0:
256,192,135668,12,4,138068,2:0:0:0:
376,168,139268,6,0,B|332:148|296:96|296:96|256:64|216:96|216:96|180:148|136:168,1,306,4|0,2:0|0:0,0:0:0:0:
132,272,140468,2,0,P|256:348|388:268,1,306,4|0,0:0|0:0,0:0:0:0:
380,172,141668,2,0,B|308:200|256:260|256:260|204:200|132:172,1,306,4|0,2:0|0:0,0:0:0:0:
256,192,142868,12,0,145268,0:0:0:0:
64,128,147068,5,0,0:0:0:0:
184,292,147668,6,2,P|288:276|376:204,1,204,6|2,0:0|0:0,0:0:0:0:
444,156,148568,2,0,P|404:132|340:120,1,102,10|0,0:0|0:0,0:0:0:0:
256,160,149168,2,0,P|216:192|160:200,1,102,10|2,0:0|0:0,0:0:0:0:
76,144,149768,1,2,0:0:0:0:
104,48,150068,2,2,B|208:20|208:20|320:40,1,204,2|2,0:0|0:0,0:0:0:0:
408,56,150968,6,0,B|504:176|504:176|424:312,1,306,10|0,0:0|0:0,0:0:0:0:
368,220,152168,2,0,P|252:308|144:216,1,306,8|0,0:0|0:0,0:0:0:0:
196,136,153368,2,0,P|252:68|308:152,2,204,8|8|8,0:0|0:0|0:0,0:0:0:0:
128,212,154868,6,0,L|176:316,1,102,4|8,0:0|0:0,0:0:0:0:
232,224,155468,2,0,L|280:324,1,102,0|8,0:0|0:0,0:0:0:0:
336,236,156068,2,0,L|384:328,1,102,4|8,2:0|0:0,0:0:0:0:
436,244,156668,2,0,P|400:144|308:128,1,204,0|4,0:0|0:0,0:0:0:0:
212,104,157568,6,0,P|168:64|116:44,2,102,8|0|8,0:0|0:0|0:0,0:0:0:0:
124,156,158468,2,0,L|124:260,1,102,0|8,0:0|0:0,0:0:0:0:
24,280,159068,2,0,P|76:352|196:332,1,204,0|4,0:0|0:0,0:0:0:0:
252,268,159968,6,0,L|372:268,2,102,8|0|8,0:0|0:0|0:0,0:0:0:0:
152,252,160868,2,0,P|176:192|224:168,1,102,0|8,0:0|0:0,0:0:0:0:
308,172,161468,2,0,B|392:172|392:172|420:136|420:136|500:136,1,204,0|4,0:0|0:0,0:0:0:0:
460,40,162368,6,0,L|356:40,2,102,8|0|8,0:0|0:0|0:0,0:0:0:0:
500,136,163268,2,8,L|500:252,1,102,0|8,0:0|0:0,0:0:0:0:
500,340,163868,2,0,P|412:352|320:272,1,204
256,208,164768,1,12,0:0:0:0:
186,284,165068,2,0,P|100:352|12:340,2,204
88,252,166568,1,8,0:0:0:0:
28,168,166868,6,0,P|68:152|112:104,1,102,0|8,0:0|0:0,0:0:0:0:
176,32,167468,2,0,P|240:52|272:92,1,102,0|8,0:0|0:0,0:0:0:0:
352,124,168068,2,0,P|382:64|427:39,1,102,0|8,0:0|0:0,0:0:0:0:
444,140,168668,2,0,P|436:232|356:316,1,204,0|4,0:0|0:0,0:0:0:0:
260,320,169568,6,0,P|272:272|320:224,2,102,8|0|8,0:0|0:0|0:0,0:0:0:0:
156,324,170468,2,0,L|92:236,1,102,0|8,0:0|0:0,0:0:0:0:
56,148,171068,2,0,L|80:40,1,102,0|8,0:0|0:0,0:0:0:0:
172,88,171668,6,0,B|172:168|172:168|204:188|204:188|204:288,1,204,4|0,0:0|0:0,0:0:0:0:
308,274,172568,2,0,B|308:188|308:188|340:168|340:168|340:88,2,204,0|0|0,0:0|0:0|0:0,0:0:0:0:
256,192,174068,12,4,176468,0:0:0:0:
