osu file format v5

[General]
AudioFilename: Leehom Wang - Sun And Moon In My Mind.mp3
AudioLeadIn: 3000
PreviewTime: -1
Countdown: 0
SampleSet: Soft
StackLeniency: 0.7
Mode: 0
LetterboxInBreaks: 1

[Metadata]
Title:Sun And Moon In My Mind
Artist:Leehom Wang
Creator:osu_CN_yaya
Version:Normal
Source:
Tags:

[Difficulty]
HPDrainRate:2
CircleSize:4
OverallDifficulty:5
SliderMultiplier:1.9
SliderTickRate:2

[Events]
//Background and Video events
0,0,"1342.jpg"
//Break Periods
2,9293,15274
//Storyboard Layer 0 (Background)
//Storyboard Layer 1 (Failing)
//Storyboard Layer 2 (Passing)
//Storyboard Layer 3 (Foreground)
//Storyboard Sound Samples
//Background Colour Transformations
3,100,163,162,255

[TimingPoints]
284,476.190476190476,4,2,1,100,1

[Colours]
Combo1 : 255,191,96
Combo2 : 120,252,120
Combo3 : 81,81,251
Combo4 : 252,88,88

[HitObjects]
72,96,284,1,0
168,96,522,1,0
264,96,760,1,0
360,96,998,1,0
456,96,1236,1,8
456,288,1712,6,0,B|456:184,2,95,0|0|4
456,96,2664,1,0
264,96,3141,2,0,B|160:96,1,95,8|0
72,96,3617,2,0,B|72:208,1,95
72,288,4093,2,0,B|184:352|280:264,2,190,4|0|8
72,96,5522,2,0,B|184:32|280:120,1,190,0|4
344,96,6236,6,2,B|464:96,2,95
344,288,7188,2,2,B|464:288|472:288|472:288,2,95
200,160,8141,2,0,B|80:160,1,95
96,256,8617,2,0,B|200:312|304:248|304:248,1,190
96,88,16474,6,0,B|216:88,1,95,8|0
288,88,16950,1,0
384,88,17188,1,0
480,88,17426,2,0,B|488:200|432:320|304:288|304:288,1,285,4|0
232,296,18379,1,8
224,104,18855,1,0
56,192,19331,2,0,B|192:192,2,95,4|0|0
184,328,20283,5,8
272,288,20522,1,0
344,232,20760,1,0
392,152,20998,1,0
416,56,21236,2,0,B|280:56|144:184|144:184,1,285,4|0
152,264,22188,2,0,B|40:264,2,95,8|0|0
344,264,23141,2,0,B|440:264,2,95,4|0|0
344,184,23855,6,0,B|424:128,1,95,0|8
232,128,24569,2,0,B|232:24,2,95,0|0|4
128,184,25522,2,0,B|48:128,2,95,0|0|8
232,256,26474,2,0,B|232:360,2,95,0|0|4
232,64,27426,2,0,B|232:168,2,95,0|0|8
424,64,28379,1,0
328,64,28617,1,0
328,160,28855,1,4
440,312,29331,5,0
344,312,29569,1,0
248,312,29807,2,0,B|144:312,1,95,8|0
56,312,30283,2,0,B|56:200,1,95
152,216,30760,2,0,B|72:120|184:48|184:48,1,190,4|0
368,48,31712,5,8
448,96,31950,1,0
360,136,32188,1,0
448,184,32426,1,0
368,232,32664,2,0,B|312:328|168:320|104:304|104:304,1,285,4|0
104,200,33617,2,0,B|192:240|232:176|232:176,2,95,8|0|0
144,48,35522,5,8
64,96,35760,1,0
152,136,35998,1,0
64,184,36236,1,0
144,232,36474,2,0,B|200:328|344:320|408:304|408:304,1,285,4|0
408,200,37427,2,0,B|320:240|280:176|280:176,2,95,8|0|0
256,40,38855,6,0,B|256:144,2,95,0|0|4
96,192,39807,2,0,B|208:192,2,95,0|0|8
256,344,40760,2,0,B|256:248,2,95,0|0|4
416,192,41712,2,0,B|304:192,2,95,0|0|8
136,192,42664,6,0,B|96:312,1,95
200,296,43141,2,0,B|296:344,1,95,4|0
352,272,43617,2,0,B|416:160|416:160,1,95
416,96,44093,2,0,B|256:40|88:80|56:168|56:168,1,380,8|4
184,304,45522,1,0
376,304,45998,2,0,B|376:200,3,95,8|0|0|0
256,64,47188,6,0,B|128:64|128:64,1,95
96,136,47664,1,0
160,200,47903,2,0,B|264:200|264:200,1,95,4|0
320,136,48379,1,0
320,136,48617,1,0
320,136,48855,2,0,B|320:280|216:320|216:320,1,190,8|0
152,304,49569,1,0
56,304,49807,2,0,B|56:184|56:184,2,95,4|0|0
344,304,50998,5,0
440,304,51236,1,0
392,224,51474,2,0,B|392:120,1,95,0|4
392,32,51950,1,0
312,80,52188,2,0,B|184:80|184:80,1,95
256,192,52664,12,4,54569
88,80,55045,6,0,B|320:80|320:80,1,190,0|4
464,72,55998,2,0,B|464:216|464:280|464:280,1,190,0|8
288,336,56950,2,0,B|88:336,2,190,0|4|0
56,336,58855,6,0,B|56:144|56:144|56:152,1,190,0|4
216,48,59807,1,0
168,128,60045,1,0
216,208,60283,2,0,B|272:344|440:304|480:224|480:224,1,285,8|0
464,56,61474,2,2,B|464:192,2,95
464,56,62188,1,0
456,248,62664,6,0,B|368:344|264:328|264:328,1,190,0|4
96,320,63617,2,0,B|24:240|64:120|64:120,1,190,0|8
232,72,64569,2,0,B|376:56|448:112,2,190,0|4|0
40,80,65998,5,8
232,80,66474,1,0
136,248,66950,1,4
328,248,67426,1,0
408,80,67903,1,8
80,96,70283,6,0,B|160:48|304:72,2,190,0|4|0
80,288,71712,2,0,B|160:336|304:312,1,190,8|0
80,192,72664,2,0,B|280:192|280:192,1,190,4|0
456,192,73617,1,8
264,192,74093,1,2
360,192,74331,1,2
168,192,74807,1,0
72,192,75045,2,2,B|104:80|256:40|336:64|336:64,1,285
400,64,75998,1,0
352,248,76474,2,0,B|352:152,4,95,4|0|0|0|8
160,248,77903,5,0
160,56,78379,1,4
352,56,78855,1,0
352,248,79331,1,8
184,336,79807,6,0,B|48:296|56:208,2,190,0|4|0
328,336,81236,2,0,B|464:296|456:208,1,190,8|0
264,192,82188,1,4
72,192,82664,1,0
160,24,83141,1,8
352,32,83617,6,0,B|456:48|496:152,2,190,0|4|0
160,32,85045,2,0,B|56:48|16:152,1,190,8|0
256,192,85998,12,0,88855
