osu file format v5

[General]
AudioFilename: Leehom Wang - Sun And Moon In My Mind.mp3
AudioLeadIn: 2500
PreviewTime: -1
Countdown: 0
SampleSet: Soft
StackLeniency: 0.7
Mode: 0
LetterboxInBreaks: 1
EditorBookmarks: 54569

[Metadata]
Title:Sun And Moon In My Mind
Artist:Leehom Wang
Creator:osu_CN_yaya
Version:Hard
Source:
Tags:

[Difficulty]
HPDrainRate:5
CircleSize:5
OverallDifficulty:6
SliderMultiplier:2.1
SliderTickRate:2

[Events]
//Background and Video events
0,0,"1342.jpg"
//Break Periods
2,86674,99234
2,173817,188281
//Storyboard Layer 0 (Background)
//Storyboard Layer 1 (Failing)
//Storyboard Layer 2 (Passing)
//Storyboard Layer 3 (Foreground)
//Storyboard Sound Samples
//Background Colour Transformations
3,100,163,162,255

[TimingPoints]
284,476.190476190476,4,2,1,100,1
15879,-100,4,2,0,100,0
16236,-100,4,2,1,100,0
54331,-100,4,2,0,100,0
54807,-100,4,2,1,100,0
81236,-200,4,2,1,100,0
82664,-100,4,2,0,100,0
83617,-200,4,2,1,100,0
86474,-100,4,2,0,100,0
99455,-100,4,2,1,100,0
140164,-100,4,2,0,100,0
140641,-100,4,2,1,100,0
225403,-200,4,2,1,100,0
231477,-200,4,2,0,0,0

[Colours]
Combo1 : 255,191,96
Combo2 : 120,252,120
Combo3 : 81,81,251
Combo4 : 252,88,88

[HitObjects]
56,72,1236,1,4
152,176,1712,1,0
152,104,1950,1,0
216,136,2188,2,0,B|312:64|448:144|448:144,1,210,4|0
416,272,3141,1,8
365,219,3379,1,0
318,275,3617,1,2
270,218,3855,1,0
224,275,4093,2,0,B|104:245|148:94,2,210,4|0|8
319,162,5522,1,0
323,308,5998,1,4
249,306,6236,5,2
183,273,6474,1,0
147,208,6712,1,2
396,306,7188,5,2
462,273,7426,1,0
498,208,7664,1,2
321,241,8141,1,2
319,167,8379,1,0
318,93,8617,2,0,B|216:22|92:104|92:104,1,210
63,139,9331,5,0
119,186,9569,1,0
174,137,9807,1,4
64,234,10283,1,0
174,136,10760,2,0,B|286:136|286:137|286:137,1,105,8|0
281,210,11236,2,0,B|281:320|281:320,1,105,2|0
207,317,11712,2,0,B|179:260|112:256|54:297|44:355,2,210,4|0|8
55,40,13141,1,0
369,43,13617,1,4
207,317,14093,1,0
344,272,14569,5,8
400,224,14807,1,0
344,176,15045,1,2
288,224,15283,1,0
232,176,15522,1,4
176,224,15760,1,0
232,272,15998,1,4
128,167,16474,5,2
75,115,16712,1,0
130,67,16950,2,0,B|250:67|250:67,1,105,0|0
308,66,17426,2,0,B|396:146|396:146,1,105,4|0
458,127,17903,1,0
428,194,18141,2,2,B|324:290|188:234|188:234,1,210
185,302,18855,1,0
50,242,19331,1,8
87,178,19569,1,0
125,115,19807,1,4
259,55,20283,5,2
260,128,20522,1,0
325,95,20760,1,0
326,168,20998,1,0
260,201,21236,2,0,B|379:270|332:374|244:368|244:368,1,210,8|0
237,288,21950,1,0
163,288,22188,2,2,B|33:287,2,105,4|0|0
202,225,22903,1,0
203,151,23141,1,8
88,56,23617,5,0
160,56,23855,1,0
232,56,24093,1,4
472,56,24569,5,0
472,128,24807,1,0
472,200,25045,1,8
472,336,25522,5,0
400,336,25760,1,0
328,336,25998,1,4
40,338,26474,5,0
40,264,26712,1,0
40,190,26950,1,8
40,40,27426,5,0
112,40,27664,1,0
184,40,27903,1,4
472,336,28379,5,0
400,336,28617,1,0
328,336,28856,1,8
40,336,29331,1,0
40,264,29569,1,0
40,192,29807,2,0,B|119:113|120:113|120:113,1,105,4|0
136,192,30283,2,2,B|232:284,1,105
224,192,30760,2,0,B|360:192,2,105,8|0|0
325,61,31712,5,4
376,113,31950,1,0
428,164,32188,1,0
477,217,32426,1,0
404,226,32664,2,0,B|303:348|196:202|196:202,1,210,8|0
157,266,33379,2,0,B|16:166|152:64|152:64|152:67,1,210
181,39,34093,1,2
327,39,34569,5,8
253,39,34807,1,0
253,112,35045,1,0
365,344,35522,5,4
313,291,35760,1,0
269,346,35998,1,0
220,290,36236,1,0
176,348,36474,2,0,B|61:349|61:348,1,105,8|0
117,291,36950,1,0
44,292,37188,2,0,B|-12:204|52:76|52:76,1,210
107,130,37903,1,0
168,90,38141,1,0
231,127,38379,1,8
294,90,38617,1,0
355,130,38855,6,0,B|294:259,2,105,0|0|4
310,225,39569,1,0
265,320,39807,2,0,B|326:191,2,105,0|0|8
310,225,40522,1,0
405,269,40760,2,0,B|276:208,2,105,0|0|4
310,224,41474,1,0
215,180,41712,2,0,B|344:241,2,105,0|0|8
310,224,42426,1,0
359,278,42664,5,0
310,333,42903,1,0
260,278,43141,2,0,B|140:278|140:278,1,105,4|0
81,279,43617,1,0
118,215,43855,1,0
155,279,44093,1,8
195,217,44331,1,0
158,152,44569,2,0,B|268:152|268:152,1,105
294,218,45045,2,2,B|384:267|458:217|496:136|480:72|436:40|403:27|403:27,1,315
358,47,45998,1,8
284,50,46236,2,0,B|284:162,2,105
137,52,47188,5,0
137,88,47307,1,0
137,124,47426,2,2,B|137:237|137:237,1,105
202,195,47903,1,8
267,228,48141,1,0
333,196,48379,2,0,B|285:316,1,105
367,295,48855,5,4
294,294,49093,1,0
220,296,49331,1,0
146,297,49569,1,0
183,233,49807,2,0,B|183:121,2,105,8|0|0
255,234,50522,1,0
329,234,50760,1,4
290,171,50998,5,0
287,97,51236,1,0
350,133,51474,1,0
423,134,51712,1,8
385,71,51950,1,0
321,34,52188,2,0,B|202:34|202:35|202:35,1,105
256,192,52664,12,0,54093
256,192,54569,5,4
112,224,55045,6,2,B|32:120|48:32|152:0|264:-32|320:64|328:128|328:128,1,420
384,208,56474,1,8
312,336,56950,2,0,B|96:336,2,210,0|4|0
314,262,58141,1,0
314,188,58379,1,8
422,89,58855,5,0
376,144,59093,1,0
424,206,59331,1,4
376,264,59569,2,0,B|376:373|376:374,2,105,0|0|0
328,207,60283,2,8,B|280:88|169:69|69:143|69:143,1,315,8|2
68,218,61236,1,4
69,291,61474,2,0,B|174:292|174:292,1,105,0|0
247,290,61950,1,0
204,230,62188,1,8
476,76,62664,6,0,B|372:4|220:52|228:44|228:44,1,210,0|4
253,110,63379,1,0
194,65,63617,1,0
177,136,63855,1,0
125,83,64093,2,0,B|205:163|325:163,1,210,8|0
248,197,64807,1,0
313,163,65045,2,0,B|330:275|193:324|193:324,1,210,4|0
272,334,65760,1,0
200,322,65998,6,0,B|99:251|139:97|139:97,1,210,8|0
200,128,66712,1,0
133,135,66950,2,0,B|192:227|339:256|339:256,1,210,4|0
359,197,67664,1,0
416,242,67903,2,0,B|416:132,1,105,8|0
473,91,68379,1,0
413,48,68617,2,2,B|189:48,2,210
415,121,69807,1,8
290,198,70283,6,0,B|450:222|466:310|466:310,1,210,0|4
428,235,70998,1,0
381,291,71236,2,0,B|269:315|165:291|165:291,1,210,0|8
98,295,71950,1,0
134,231,72188,2,0,B|134:111|134:111,1,105,0|0
60,122,72664,1,4
100,60,72903,1,0
173,60,73141,2,0,B|293:60|293:60,1,105,0|0
234,119,73617,1,8
234,265,74093,5,2
234,191,74331,1,2
235,337,74807,5,2
169,303,75045,6,0,B|41:255|49:119|49:119,1,210,0|8
51,70,75760,1,0
115,104,75998,2,0,B|243:104|243:104|243:104,1,105
114,169,76474,2,0,B|250:169,2,105,4|0|0
219,169,77188,1,0
270,117,77426,2,0,B|398:213|262:293|262:293,1,210,8|0
196,288,78141,1,0
122,289,78379,1,4
256,192,78617,12,8,79331
48,40,79807,5,0
360,40,80283,1,4
208,320,80760,1,0
208,112,81236,2,0,B|208:248,3,105,8|0|4|0
275,187,82903,1,0
342,216,83141,1,8
32,352,83617,6,0,B|32:240,1,105,0|4
30,29,84569,2,0,B|146:29|146:29,1,105,0|8
92,352,85522,2,0,B|220:352,2,105,0|4|0
71,196,100284,5,8
114,136,100522,1,0
154,197,100760,1,0
194,135,100998,1,0
233,196,101236,2,0,B|353:196,2,105,4|0|0
451,171,102188,5,8
418,236,102426,1,0
365,287,102664,1,0
296,313,102903,1,0
223,321,103141,2,0,B|87:313|63:185|63:185,1,210,4|0
39,132,103855,2,2,B|255:68|255:68,1,210
304,108,104569,1,0
445,68,105045,2,0,B|445:204,2,105,4|0|0
371,66,105760,1,0
373,139,105998,6,0,B|373:252,1,105,8|0
299,244,106474,2,0,B|179:244,1,105
138,292,106950,1,4
81,245,107188,1,0
138,198,107426,1,0
79,153,107664,2,2,B|127:49|271:49|271:49,1,210
255,123,108379,1,0
257,269,108855,2,0,B|377:269,2,105,4|0|0
257,342,109569,5,0
257,342,109807,2,0,B|369:342|369:343|369:343,1,105,8|0
480,191,110284,5,0
480,192,110522,1,0
480,192,110760,2,0,B|480:80|480:80,1,105,4|0
256,24,111236,5,0
256,24,111474,1,0
256,24,111712,2,0,B|128:24|128:24,1,105,8|0
32,192,112188,5,0
32,192,112426,1,0
32,192,112664,2,0,B|32:304|32:304,1,105,4|0
256,352,113141,5,0
256,352,113379,1,0
256,352,113617,2,0,B|368:352|368:352,1,105,8|0
480,192,114093,5,0
480,192,114331,1,0
480,192,114569,2,0,B|368:192|368:192,1,105,4|0
256,192,115045,2,0,B|256:64,1,105
204,140,115522,1,8
162,200,115760,2,0,B|274:312|344:194|344:194,1,210
414,199,116474,2,0,B|414:335,2,105
292,116,117426,5,8
292,189,117664,1,0
293,262,117903,1,0
294,335,118141,1,0
231,296,118379,2,0,B|63:240|63:152|63:152,1,210,4|0
141,173,119093,1,0
103,109,119331,2,0,B|103:-1|103:-1,1,105,8|0
170,32,119807,1,0
243,32,120045,2,0,B|371:32,2,105,0|4|0
210,97,120760,1,0
356,98,121236,5,8
429,100,121474,1,0
389,161,121712,2,0,B|261:161|261:161,1,105
286,234,122188,2,0,B|155:234,2,105,4|0|0
288,307,122903,2,2,B|376:387|448:259|504:379|504:379,1,210
487,280,123617,1,0
500,207,123855,2,2,B|412:127|340:255|284:135|284:135,1,210
328,352,124569,5,0
256,352,124807,1,0
184,352,125045,1,4
32,264,125522,5,0
32,192,125760,1,0
32,120,125998,1,8
184,32,126474,5,0
256,32,126712,1,0
328,32,126950,1,4
480,120,127426,5,0
480,192,127664,1,0
480,264,127903,1,8
352,192,128379,5,0
278,192,128617,1,0
316,254,128855,1,4
317,327,129093,1,0
252,292,129331,2,0,B|139:292|139:292,1,105
102,233,129807,1,8
56,175,130045,2,0,B|56:55,2,105
129,174,130760,2,0,B|257:54|449:126|449:126,1,315,4|0
390,183,131712,1,8
463,183,131950,1,0
429,248,132188,2,0,B|293:248,2,105,0|0|4
431,321,132903,5,0
431,321,133141,2,0,B|319:321,1,105
252,321,133617,1,8
288,256,133855,2,0,B|200:192,1,105
131,209,134331,1,0
120,136,134569,2,0,B|200:64|200:64,1,105,4|0
271,64,135045,2,0,B|399:64,1,105
349,132,135522,2,0,B|437:228|413:340|413:340,1,210,8|0
348,294,136236,1,0
283,329,136474,1,4
209,329,136712,6,0,B|81:329,1,105
152,273,137188,1,0
78,274,137426,1,8
114,210,137664,2,0,B|114:98|114:98,1,105
184,126,138141,1,0
175,53,138379,2,0,B|399:29|503:101|503:101,1,315,4|0
446,153,139331,1,8
415,219,139569,2,0,B|295:219,2,105
387,287,140283,1,4
293,350,140760,6,2,B|-3:398|35:98|35:98,1,420
144,28,142188,1,8
265,110,142664,1,2
388,29,143141,2,0,B|452:133|388:237|388:237,1,210,4|0
318,231,143855,1,0
357,293,144093,1,8
218,341,144569,6,0,B|106:213|122:133|122:133,1,210,0|4
65,110,145283,1,0
129,74,145522,1,0
185,120,145760,1,0
241,73,145998,2,0,B|409:113|369:225|369:225,1,210,8|0
415,269,146712,1,0
373,329,146950,1,4
326,272,147188,2,0,B|198:272|198:272|206:272,2,105
221,272,147903,1,8
319,162,148379,6,0,B|199:26|111:26|111:26,1,210,0|4
82,164,149331,1,0
85,310,149807,2,0,B|247:368|312:300|312:300,1,210,8|0
284,241,150522,1,0
283,167,150760,2,0,B|435:191|475:79|475:79,1,210,4|0
405,54,151474,1,0
331,48,151712,6,0,B|179:0|139:144|139:144,1,210,8|0
118,180,152426,1,0
94,249,152664,2,0,B|190:337|334:265|334:265,1,210,4|0
322,213,153379,1,0
374,263,153617,2,0,B|478:239|518:199|518:119|494:55|430:31|430:31,1,315,8|0
380,78,154569,1,4
318,38,154807,2,0,B|198:38,2,105
319,111,155522,1,8
173,88,155998,6,0,B|31:154|98:288,2,210,0|4|0
309,143,157426,1,8
382,143,157664,1,0
455,143,157903,1,0
311,224,158379,1,4
237,225,158617,1,0
163,225,158855,1,0
262,332,159331,6,0,B|62:316|30:244|30:244,1,210,8|0
63,202,160045,1,0
63,128,160283,1,4
63,54,160522,1,0
128,88,160760,2,2,B|328:88|456:160|456:160,1,315
382,200,161712,1,0
433,251,161950,2,0,B|329:251|289:251,2,105,0|4|0
384,299,162664,1,0
320,317,162903,2,0,B|204:272|204:272,1,105,0|8
460,48,163617,5,0
53,48,164093,1,4
52,336,164569,1,0
459,336,165045,1,8
261,116,165522,6,0,B|381:116,1,105
420,164,165998,1,4
369,217,166236,1,0
423,266,166474,2,0,B|335:351|335:351,1,105
277,316,166950,2,0,B|133:275|189:132,3,210,8|0|4|0
247,188,168617,1,0
315,162,168855,1,8
402,43,169331,6,0,B|516:110|450:250,2,210,0|4|0
328,43,170522,1,0
254,40,170760,2,0,B|142:120|198:264|198:264,1,210,8|0
261,229,171474,1,0
269,301,171712,2,0,B|421:285|397:133|397:133,1,210,4|0
256,192,172307,12,0,173617
111,277,189331,6,0,B|31:157|95:37|95:37,3,210,0|4|0|8
227,76,191236,1,0
373,71,191712,2,0,B|468:154|468:304|468:304,1,210,4|0
392,238,192426,1,0
323,263,192664,1,8
195,336,193141,6,0,B|187:176|291:136|291:136,1,210,0|4
226,89,193855,1,0
299,89,194093,2,0,B|403:9,2,105,0|0|8
400,192,195045,5,0
328,192,195283,1,0
256,192,195522,1,4
112,192,195998,1,0
184,192,196236,1,0
256,192,196474,1,8
288,336,196950,6,0,B|56:264|64:256|64:256,2,210,0|4|0
275,263,198141,1,0
342,234,198379,2,0,B|392:96|190:32|214:34|214:34,1,210,8|0
205,113,199093,1,0
151,62,199331,2,0,B|63:150,3,105,4|0|0|0
47,203,200283,2,0,B|87:315|215:323|215:323,1,210,8|0
243,257,200998,1,0
314,272,201236,2,0,B|426:224|394:72,2,210,4|0|8
360,136,202664,5,0
360,64,202903,1,0
288,64,203141,1,4
432,64,203617,1,0
360,64,203855,1,0
360,136,204093,1,8
228,202,204569,5,0
154,203,204807,1,0
191,266,205045,1,4
264,264,205283,1,0
306,203,205522,2,0,B|306:75|306:75,1,105
264,37,205998,2,0,B|24:37,3,210,8|0|4|0
53,110,207664,6,0,B|-9:188|79:243|79:243,1,105
459,110,208379,2,0,B|521:188|433:243|433:243,1,105
256,32,209093,1,0
256,104,209331,2,2,C|272:120|248:144|272:168|248:192|272:216|248:240|272:264|248:288|272:312|248:328|248:328,1,315
190,322,210283,1,0
116,323,210522,1,0
150,258,210760,2,0,B|22:258,2,105,4|0|0
151,184,211474,1,0
256,192,211712,12,0,213617
139,105,214093,6,0,B|14:215|150:308|164:300|164:300,1,210,0|4
255,199,215045,1,0
373,105,215522,2,0,B|498:215|362:308|348:300|348:300,3,210,8|0|4|0
303,282,217188,1,0
229,283,217426,1,8
359,62,217903,6,0,B|135:62|135:62|143:54,1,210,0|4
256,191,218855,1,0
359,322,219331,2,0,B|135:322|135:322|143:330,1,210,8|0
147,192,220283,1,4
220,192,220522,1,0
293,192,220760,1,0
366,192,220998,1,0
256,192,221236,12,0,225045
72,32,225522,6,2,B|192:32|192:32,1,105
72,352,226474,2,2,B|192:352|192:352,1,105
256,192,227426,1,0
256,192,227664,12,0,230760
