osu file format v14

[General]
AudioFilename: -Mikui-.mp3
AudioLeadIn: 0
PreviewTime: 35009
Countdown: 1
SampleSet: None
StackLeniency: 0.4
Mode: 0
LetterboxInBreaks: 1
WidescreenStoryboard: 1

[Editor]
Bookmarks: 3938
DistanceSpacing: 0.5
BeatDivisor: 2
GridSize: 16
TimelineZoom: 3.099999

[Metadata]
Title:My Love
TitleUnicode:My Love
Artist:Lee Seung Chul
ArtistUnicode:Lee Seung Chul
Creator:Cinos
Version:Jump training
Source:
Tags:Cinos Mikui -Mikui- Love Jump pattern summary
BeatmapID:775971
BeatmapSetID:351571

[Difficulty]
HPDrainRate:6
CircleSize:4
OverallDifficulty:6
ApproachRate:8.5
SliderMultiplier:2.8
SliderTickRate:2

[Events]
//Background and Video events
0,0,"Kimi Todoke Night.jpg",0,0
//Break Periods
2,77424,83406
//Storyboard Layer 0 (Background)
//Storyboard Layer 1 (Fail)
//Storyboard Layer 2 (Pass)
//Storyboard Layer 3 (Foreground)
//Storyboard Sound Samples
Sample,13581,0,"normal-hitwhistle.wav",70
Sample,14438,0,"normal-hitwhistle.wav",70
Sample,15295,0,"normal-hitwhistle.wav",70
Sample,16152,0,"normal-hitwhistle.wav",70
Sample,19581,0,"soft-hitnormal.wav",70
Sample,19795,0,"soft-hitnormal.wav",70
Sample,19902,0,"soft-hitnormal.wav",70
Sample,20009,0,"soft-hitnormal.wav",70
Sample,20116,0,"soft-hitnormal.wav",70
Sample,20224,0,"soft-hitnormal.wav",70
Sample,20331,0,"soft-hitnormal.wav",70
Sample,20438,0,"soft-hitnormal.wav",70
Sample,20866,0,"normal-hitnormal.wav",70
Sample,25581,0,"normal-hitwhistle.wav",70
Sample,28152,0,"normal-hitwhistle.wav",70
Sample,31581,0,"normal-hitnormal.wav",70
Sample,31581,0,"normal-hitwhistle.wav",70
Sample,32438,0,"normal-hitwhistle.wav",70
Sample,41866,0,"normal-hitnormal.wav",70
Sample,42081,0,"normal-hitnormal.wav",70
Sample,42295,0,"normal-hitnormal.wav",70
Sample,42509,0,"normal-hitnormal.wav",70
Sample,43581,0,"normal-hitnormal.wav",70
Sample,43795,0,"normal-hitnormal.wav",70
Sample,44009,0,"normal-hitnormal.wav",70
Sample,55581,0,"normal-hitnormal.wav",70
Sample,55795,0,"normal-hitnormal.wav",70
Sample,56009,0,"normal-hitnormal.wav",70
Sample,56224,0,"normal-hitnormal.wav",70
Sample,57295,0,"normal-hitnormal.wav",70
Sample,57509,0,"normal-hitnormal.wav",70
Sample,57724,0,"normal-hitnormal.wav",70
Sample,86438,0,"normal-hitwhistle.wav",70
Sample,87295,0,"normal-hitwhistle.wav",70
Sample,89009,0,"normal-hitwhistle.wav",70
Sample,89866,0,"normal-hitwhistle.wav",70
Sample,105295,0,"normal-hitnormal.wav",70
Sample,105509,0,"normal-hitnormal.wav",70
Sample,105724,0,"normal-hitnormal.wav",70
Sample,105938,0,"normal-hitnormal.wav",70
Sample,107009,0,"normal-hitnormal.wav",70
Sample,107224,0,"normal-hitnormal.wav",70
Sample,107438,0,"normal-hitnormal.wav",70
Sample,119009,0,"normal-hitnormal.wav",70
Sample,119224,0,"normal-hitnormal.wav",70
Sample,119438,0,"normal-hitnormal.wav",70
Sample,119652,0,"normal-hitnormal.wav",70
Sample,120724,0,"normal-hitnormal.wav",70
Sample,120938,0,"normal-hitnormal.wav",70
Sample,121152,0,"normal-hitnormal.wav",70
Sample,121366,0,"normal-hitnormal.wav",70
Sample,146438,0,"normal-hitnormal.wav",70
Sample,146652,0,"normal-hitnormal.wav",70
Sample,146866,0,"normal-hitnormal.wav",70
Sample,147081,0,"normal-hitnormal.wav",70
Sample,148152,0,"normal-hitnormal.wav",70
Sample,148366,0,"normal-hitnormal.wav",70
Sample,148581,0,"normal-hitnormal.wav",70
Sample,148795,0,"normal-hitnormal.wav",70

[TimingPoints]
724,428.571428571429,4,1,1,50,1,0
1152,-100,4,1,1,50,0,0
2009,-83.33334,4,1,1,50,0,0
8009,-83.33334,4,1,1,50,0,0
8438,-83.33334,4,1,1,50,0,0
9724,-83.33334,4,1,1,65,0,0
10152,-100,4,1,1,50,0,0
12510,-200,4,1,1,50,0,0
13581,-100,4,1,1,50,0,0
19366,-200,4,1,1,50,0,0
20652,-100,4,1,1,65,0,0
22795,-200,4,1,1,65,0,0
25366,-100,4,1,1,65,0,0
26224,-100,4,1,1,65,0,0
27938,-133.333333333333,4,1,1,65,0,0
29009,-100,4,1,1,65,0,0
29652,-133.333333333333,4,1,1,65,0,0
33295,-100,4,1,1,65,0,0
35009,-100,4,1,1,85,0,1
41652,-200,4,1,1,85,0,1
43366,-100,4,1,1,85,0,1
48081,-200,4,1,1,85,0,1
48724,-100,4,1,1,85,0,1
55366,-142.857142857143,4,1,1,85,0,1
56582,-142.857142857143,4,1,1,85,0,1
58795,-100,4,1,1,85,0,1
62438,-433,4,1,1,85,0,1
63295,-142.8571,4,1,1,65,0,0
70795,-100,4,1,1,65,0,0
84081,-133.333333333333,4,1,1,65,0,0
86224,-200,4,1,1,65,0,0
88795,-100,4,1,1,65,0,0
91366,-133.333333333333,4,1,1,65,0,0
98438,-142.8571,4,1,1,90,0,1
105081,-133.333333333333,4,1,1,90,0,1
106796,-181.818181818182,4,1,1,90,0,1
111509,-200,4,1,1,90,0,1
118795,-200,4,1,1,90,0,1
123724,-200,4,1,1,90,0,0
125866,-100,4,1,1,75,0,0
139581,-95.2381,4,1,1,100,0,1
146224,-200,4,1,1,100,0,1
153295,-50,4,1,1,100,0,1
155009,-285.7143,4,1,1,100,0,1
160152,-285.7143,4,1,1,5,0,0

[Colours]
Combo1 : 255,255,100
Combo2 : 100,255,100
Combo3 : 100,255,255
Combo4 : 255,100,255

[HitObjects]
151,95,724,5,2,0:0:0:0:
270,237,938,1,0,0:0:0:0:
311,110,1152,1,0,0:0:0:0:
448,292,1367,1,0,0:0:0:0:
207,190,1581,1,2,0:0:0:0:
347,83,1796,1,0,0:0:0:0:
175,161,2009,1,0,0:0:0:0:
453,66,2224,1,0,0:0:0:0:
194,0,2438,5,2,0:0:0:0:
268,150,2652,1,0,0:0:0:0:
86,101,2867,1,0,0:0:0:0:
178,318,3081,1,0,0:0:0:0:
210,189,3296,1,2,0:0:0:0:
338,319,3510,1,0,0:0:0:0:
197,250,3724,1,0,0:0:0:0:
474,143,3938,1,0,0:0:0:0:
392,90,4152,5,2,0:0:0:0:
232,31,4367,1,0,0:0:0:0:
77,96,4581,1,0,0:0:0:0:
230,166,4796,1,0,0:0:0:0:
396,185,5010,1,2,0:0:0:0:
435,348,5224,1,0,0:0:0:0:
352,202,5438,2,0,P|266:277|286:331,1,168
21,227,5867,5,2,0:0:0:0:
148,336,6081,1,0,0:0:0:0:
163,168,6296,1,0,0:0:0:0:
293,273,6510,1,0,0:0:0:0:
420,164,6724,1,2,0:0:0:0:
327,23,6938,1,0,0:0:0:0:
287,186,7152,2,0,P|394:148|396:91,1,168
154,145,7581,5,2,0:0:0:0:
307,276,7796,1,0,0:0:0:0:
117,209,8010,1,0,2:0:0:0:
143,228,8116,1,0,2:0:0:0:
173,243,8224,1,0,2:0:0:0:
264,65,8438,5,2,0:0:0:0:
371,235,8652,1,0,0:0:0:0:
168,232,8867,1,0,0:0:0:0:
339,336,9081,1,0,0:0:0:0:
456,171,9296,5,2,0:0:0:0:
259,128,9510,1,0,0:0:0:0:
253,329,9724,1,0,2:0:0:0:
274,303,9831,1,0,2:0:0:0:
291,274,9938,1,0,2:0:0:0:
377,202,10152,5,2,0:0:0:0:
254,86,10367,1,0,0:0:0:0:
287,250,10581,1,0,0:0:0:0:
127,195,10796,6,2,P|223:317|406:275,1,350,2|2,1:0|1:0,1:0:0:0:
360,275,11438,2,0,P|225:298|154:225,1,210
173,258,11867,6,0,P|150:186|96:186,1,140
264,190,12296,1,0,0:0:0:0:
271,51,12510,2,0,B|313:40|334:45|334:45|357:66|360:90|371:122|480:83,1,210
143,190,13581,6,0,P|165:260|245:278,1,140
352,185,14009,2,0,P|330:114|250:97,1,140
143,190,14438,2,0,P|165:260|245:278,1,140
352,185,14867,1,0,2:0:0:0:
348,147,14974,1,0,2:0:0:0:
332,113,15081,1,0,2:0:0:0:
143,194,15295,6,0,P|165:123|245:105,1,140
352,199,15724,2,0,P|330:269|250:286,1,140
143,194,16152,2,0,P|165:123|245:105,1,140
352,199,16581,1,0,2:0:0:0:
348,237,16688,1,0,2:0:0:0:
332,271,16795,1,0,2:0:0:0:
125,205,17009,5,2,1:0:0:0:
87,40,17224,1,0,0:0:0:0:
247,89,17438,1,0,0:0:0:0:
201,246,17653,6,2,P|297:124|480:166,1,350,2|2,1:0|1:0,1:0:0:0:
448,160,18295,2,0,P|313:183|242:110,1,210
252,152,18724,2,0,P|275:224|329:224,1,140
173,287,19153,1,0,0:0:0:0:
352,288,19366,2,0,B|357:297|354:306|326:302|322:279|340:265|350:268|358:289|358:289|426:280|426:280|393:271|393:271|427:266|427:266|393:257|393:257|427:250|427:250|393:242|393:242|427:233|427:233,1,350
126,162,20652,6,0,B|138:121|180:121|180:121|217:125|239:181|277:183|277:183|323:187|341:124,1,280
192,128,21296,1,2,0:0:0:0:
320,128,21510,1,0,0:0:0:0:
320,256,21724,1,0,0:0:0:0:
192,256,21938,1,0,0:0:0:0:
374,196,22367,1,0,0:0:0:0:
152,77,22796,6,0,B|187:90|186:108|213:54|203:93|194:107|198:113|209:96|225:77|218:106|219:130|216:129|238:106|238:106,1,70
367,256,23224,2,0,B|333:239|321:253|342:196|320:230|317:246|310:247|314:227|318:203|301:228|282:244|285:245|287:213|287:213,1,70
97,81,23652,6,0,B|125:105|140:96|105:145|135:118|143:103|150:104|140:122|131:145|153:125|175:115|173:113|163:143|163:143,1,70
425,232,24081,2,0,B|394:209|400:192|360:237|379:202|392:192|389:185|374:198|354:213|369:186|373:162|376:164|349:181|349:181,1,70
164,281,24510,5,0,0:0:0:0:
273,194,24724,1,2,0:0:0:0:
164,281,24938,1,0,0:0:0:0:
53,195,25152,1,0,0:0:0:0:
164,281,25366,2,0,L|280:189,1,140
53,195,25796,1,0,0:0:0:0:
164,281,26010,1,0,0:0:0:0:
273,194,26224,2,0,B|252:237|218:238|218:238|185:236|132:164|100:159|100:159|69:159|53:194,1,280
160,96,26867,5,0,2:0:0:0:
184,82,26974,1,0,2:0:0:0:
211,81,27081,1,0,2:0:0:0:
91,186,27296,5,2,0:0:0:0:
480,195,27510,1,0,0:0:0:0:
298,189,27724,1,0,0:0:0:0:
384,87,27938,2,0,P|290:106|317:225,1,210.000008010865
160,288,28581,1,0,2:0:0:0:
182,309,28688,1,0,2:0:0:0:
212,316,28796,1,0,2:0:0:0:
417,194,29010,5,2,0:0:0:0:
128,109,29224,1,0,0:0:0:0:
128,290,29438,1,0,0:0:0:0:
32,195,29652,2,0,B|59:236|78:235|78:235|107:237|126:213|199:150,1,210.000008010865
345,99,30296,1,0,2:0:0:0:
367,85,30402,1,0,2:0:0:0:
388,72,30510,1,0,2:0:0:0:
280,205,30724,5,2,0:0:0:0:
387,288,30938,1,0,0:0:0:0:
433,159,31152,1,0,0:0:0:0:
308,103,31366,2,0,P|257:203|114:213,1,210.000008010865
171,91,32010,1,0,0:0:0:0:
308,103,32224,2,0,P|279:153|212:153,1,105.000004005432
128,288,32652,1,0,0:0:0:0:
380,280,33081,5,0,0:0:0:0:
258,37,33296,1,2,0:0:0:0:
64,161,33510,1,2,0:0:0:0:
260,342,33724,1,2,0:0:0:0:
430,139,33938,1,2,0:0:0:0:
127,92,34152,1,2,0:0:0:0:
365,326,34367,1,2,0:0:0:0:
309,27,34581,1,2,0:0:0:0:
94,321,35010,5,2,0:0:0:0:
436,199,35438,1,0,0:0:0:0:
92,76,35867,5,2,0:0:0:0:
227,111,36081,1,0,0:0:0:0:
362,148,36296,1,0,0:0:0:0:
496,185,36510,1,0,0:0:0:0:
397,234,36938,5,0,2:0:0:0:
352,256,37045,1,0,2:0:0:0:
306,279,37152,1,0,2:0:0:0:
160,352,37367,5,0,0:0:0:0:
228,230,37581,1,2,0:0:0:0:
302,110,37796,1,0,0:0:0:0:
22,106,38010,1,0,0:0:0:0:
160,352,38224,1,0,0:0:0:0:
105,266,38652,5,0,2:0:0:0:
80,225,38759,1,0,2:0:0:0:
57,186,38866,1,0,2:0:0:0:
22,106,39081,5,0,0:0:0:0:
211,109,39296,1,2,0:0:0:0:
118,108,39510,1,0,0:0:0:0:
302,110,39724,1,0,0:0:0:0:
441,110,39938,1,0,0:0:0:0:
302,110,40367,1,0,0:0:0:0:
280,248,40796,5,0,2:0:0:0:
273,282,40902,1,0,2:0:0:0:
253,311,41009,1,0,2:0:0:0:
221,325,41116,1,0,2:0:0:0:
185,327,41224,1,0,2:0:0:0:
154,310,41331,1,0,2:0:0:0:
134,281,41438,1,0,2:0:0:0:
188,232,41652,6,0,B|200:230|211:215|211:215|216:136|216:136|303:122|303:122|300:225|300:225|291:232|281:233|271:228|265:218|272:213|283:213|286:222,1,350
248,192,43152,5,0,0:0:0:0:
248,192,43366,2,0,B|215:213|215:213|216:189|216:189|218:182|232:176|232:176|237:152|237:152|233:138|233:138|244:143|235:181|235:181|293:181|293:181|236:192|236:192|292:192|292:192|236:206|236:206|291:205|291:205|235:219|235:219|290:219,1,560
256,320,44867,5,0,0:0:0:0:
384,320,45081,1,0,0:0:0:0:
256,64,45510,1,0,0:0:0:0:
128,320,45938,1,0,0:0:0:0:
384,320,46367,1,0,0:0:0:0:
256,64,46796,5,0,2:0:0:0:
192,192,47010,1,2,2:0:0:0:
320,192,47224,1,0,2:0:0:0:
256,320,47438,1,0,2:0:0:0:
128,320,47652,1,0,2:0:0:0:
416,192,48081,6,0,B|432:193|418:210|399:191|412:180|420:191,6,35,0|0|0|0|0|0|0,2:2|2:2|2:2|2:2|2:2|2:2|2:2,2:2:0:0:
128,64,49152,5,0,0:0:0:0:
419,61,49581,1,2,0:0:0:0:
342,210,49796,1,0,0:0:0:0:
257,64,50010,1,0,0:0:0:0:
171,208,50224,1,0,0:0:0:0:
387,86,50652,1,0,2:0:0:0:
431,98,50759,1,0,2:0:0:0:
464,127,50866,1,0,2:0:0:0:
158,130,51081,5,0,0:0:0:0:
352,319,51296,1,2,0:0:0:0:
320,149,51510,1,0,0:0:0:0:
138,313,51724,1,0,0:0:0:0:
64,128,51938,1,0,0:0:0:0:
352,319,52367,1,0,2:0:0:0:
394,320,52474,1,0,2:0:0:0:
432,299,52581,1,0,2:0:0:0:
399,97,52796,5,0,0:0:0:0:
261,69,53010,1,2,0:0:0:0:
310,199,53224,1,0,0:0:0:0:
170,194,53438,1,0,0:0:0:0:
238,315,53652,1,0,0:0:0:0:
184,120,54081,1,0,0:0:0:0:
100,324,54510,5,0,2:0:0:0:
118,303,54616,1,0,2:0:0:0:
134,279,54724,1,0,2:0:0:0:
140,251,54831,1,0,2:0:0:0:
140,223,54938,1,0,2:0:0:0:
132,196,55045,1,0,2:0:0:0:
115,173,55152,1,0,2:0:0:0:
86,141,55366,6,0,B|100:87|131:64|165:64|165:64|211:65|232:90|256:139|256:139|276:90|304:64|352:64|352:64|384:64|412:91|432:145,1,489.999985046387
256,192,56867,5,0,0:0:0:0:
127,222,57081,2,0,B|162:294|194:291|194:291|229:294|258:226|258:226|296:294|326:292|326:292|362:295|394:217,1,392.000113647494
256,192,58581,5,0,0:0:0:0:
356,289,58795,2,0,L|242:178,1,140
146,278,59224,2,0,L|256:191,1,140
255,51,59652,2,0,L|255:194,1,140
255,190,60081,1,0,0:0:0:0:
119,50,60510,5,8,2:0:0:0:
255,190,60724,1,8,2:0:0:0:
61,216,60938,1,8,2:0:0:0:
220,102,61152,1,8,2:0:0:0:
149,285,61367,1,8,2:0:0:0:
67,107,61581,1,8,2:0:0:0:
257,57,61796,5,0,2:0:0:0:
281,58,61902,1,0,2:0:0:0:
304,65,62010,1,0,2:0:0:0:
325,77,62116,1,0,2:0:0:0:
344,91,62224,1,0,2:0:0:0:
359,110,62331,1,0,2:0:0:0:
329,228,62438,2,0,B|382:212|399:156|367:116,1,129.33025404157
316,252,63510,5,0,0:0:0:0:
388,185,63724,1,0,0:0:0:0:
280,163,63938,1,0,0:0:0:0:
32,64,64581,5,0,0:0:0:0:
480,160,65438,5,0,0:0:0:0:
128,320,66296,5,0,0:0:0:0:
320,64,67152,5,0,0:0:0:0:
416,352,68010,5,0,0:0:0:0:
32,160,68867,5,0,0:0:0:0:
448,256,69724,5,0,0:0:0:0:
158,65,70366,5,0,0:0:0:0:
85,193,70581,1,2,0:0:0:0:
189,342,70795,2,0,P|335:340|421:208,1,280
323,344,71438,1,2,0:0:0:0:
189,342,71652,1,0,0:0:0:0:
388,61,72081,5,0,0:0:0:0:
179,94,72296,1,2,0:0:0:0:
368,175,72509,2,0,P|211:132|116:197,1,280
239,127,73152,1,2,0:0:0:0:
368,175,73367,1,0,0:0:0:0:
59,318,73796,5,0,0:0:0:0:
205,271,74010,1,2,0:0:0:0:
278,152,74224,1,0,0:0:0:0:
197,37,74438,1,0,0:0:0:0:
63,79,74652,1,0,0:0:0:0:
74,219,74867,1,2,0:0:0:0:
205,271,75081,5,0,0:0:0:0:
278,152,75296,1,0,0:0:0:0:
416,168,75510,1,0,0:0:0:0:
433,306,75724,1,2,0:0:0:0:
256,192,75938,12,0,77224,0:0:0:0:
347,216,84081,6,0,B|338:186|307:186|307:186|279:189|262:231|234:232|234:232|199:235|186:188,1,210.000008010865
256,74,84725,1,2,0:0:0:0:
373,192,84939,1,0,0:0:0:0:
255,309,85153,1,0,0:0:0:0:
138,191,85367,1,0,0:0:0:0:
323,293,85796,1,0,0:0:0:0:
213,277,86225,6,0,B|200:312|182:311|236:338|197:328|183:319|177:323|194:334|213:350|184:343|160:344|161:341|184:363|184:363,1,70
316,91,86653,2,0,B|333:57|319:45|376:66|342:44|326:41|325:34|345:38|369:42|344:25|328:6|327:9|359:11|359:11,1,70
209,222,87081,6,0,B|185:250|194:265|145:230|172:260|187:268|186:275|168:265|145:256|165:278|175:300|177:298|147:288|147:288,1,70
340,149,87510,2,0,B|363:118|380:124|335:84|370:103|380:116|387:113|374:98|359:78|386:93|410:97|408:100|391:73|391:73,1,70
214,99,87939,5,0,0:0:0:0:
402,212,88153,1,2,0:0:0:0:
353,82,88367,1,0,0:0:0:0:
214,99,88581,1,0,0:0:0:0:
353,82,88795,2,0,L|403:220,1,140
214,99,89225,1,0,0:0:0:0:
353,82,89439,1,0,0:0:0:0:
402,212,89653,2,0,B|406:163|376:144|376:144|346:129|262:164|232:152|232:152|205:135|214:97,1,280
117,241,90296,5,0,2:0:0:0:
93,206,90403,1,0,2:0:0:0:
83,165,90510,1,0,2:0:0:0:
151,79,90725,5,2,0:0:0:0:
480,195,90939,1,0,0:0:0:0:
347,91,91153,1,0,0:0:0:0:
325,203,91367,2,0,P|420:200|414:78,1,210.000008010865
269,124,92010,1,0,2:0:0:0:
238,116,92117,1,0,2:0:0:0:
206,109,92225,1,0,2:0:0:0:
417,194,92439,5,2,0:0:0:0:
128,109,92653,1,0,0:0:0:0:
127,276,92867,1,0,0:0:0:0:
62,121,93081,2,0,B|89:162|108:161|108:161|137:163|156:139|229:76,1,210.000008010865
395,88,93725,1,0,2:0:0:0:
371,108,93831,1,0,2:0:0:0:
345,127,93939,1,0,2:0:0:0:
267,265,94153,5,2,0:0:0:0:
398,160,94367,1,0,0:0:0:0:
417,326,94581,1,0,0:0:0:0:
319,189,94795,2,0,P|268:289|125:299,1,210.000008010865
171,91,95439,1,0,0:0:0:0:
306,190,95653,2,0,P|362:177|383:114,1,105.000004005432
243,46,96081,1,0,0:0:0:0:
42,54,96510,5,0,0:0:0:0:
91,278,96724,1,2,0:0:0:0:
204,77,96938,1,2,0:0:0:0:
265,353,97152,1,2,0:0:0:0:
298,125,97367,1,2,0:0:0:0:
465,280,97581,1,2,0:0:0:0:
455,49,97796,1,2,0:0:0:0:
340,247,98010,1,2,0:0:0:0:
418,63,98438,5,2,0:0:0:0:
76,185,98866,1,0,0:0:0:0:
420,308,99295,5,2,0:0:0:0:
342,160,99509,1,0,0:0:0:0:
178,194,99724,1,0,0:0:0:0:
277,327,99938,1,0,0:0:0:0:
454,122,100366,5,0,2:0:0:0:
410,120,100473,1,0,2:0:0:0:
371,139,100580,1,0,2:0:0:0:
148,145,100795,5,0,0:0:0:0:
284,154,101009,1,2,0:0:0:0:
210,274,101224,1,0,0:0:0:0:
490,278,101438,1,0,0:0:0:0:
352,32,101652,1,0,0:0:0:0:
123,86,102080,1,0,2:0:0:0:
96,124,102187,1,0,2:0:0:0:
104,170,102294,1,0,2:0:0:0:
297,147,102509,5,0,0:0:0:0:
301,275,102724,5,2,0:0:0:0:
394,276,102938,1,0,0:0:0:0:
210,274,103152,1,0,0:0:0:0:
71,274,103366,1,0,0:0:0:0:
210,274,103795,1,0,0:0:0:0:
181,74,104224,5,0,2:0:0:0:
215,73,104330,1,0,2:0:0:0:
248,86,104437,1,0,2:0:0:0:
269,114,104544,1,0,2:0:0:0:
279,148,104652,1,0,2:0:0:0:
269,182,104759,1,0,2:0:0:0:
245,208,104866,1,0,2:0:0:0:
220,235,105081,6,0,B|257:136|257:136|290:237|290:237|206:177|206:177|310:177|310:177|221:234,1,525.000020027161
254,193,106581,5,0,0:0:0:0:
254,192,106796,2,0,B|242:202|222:212|222:212|187:214|187:189|187:189|187:168|222:171|222:171|243:177|254:188|254:188|265:203|287:212|287:212|320:213|320:192|320:192|320:167|288:171|288:171|272:176|253:192,1,308.000009399414
384,192,108295,5,0,0:0:0:0:
384,64,108509,1,0,0:0:0:0:
128,191,108938,1,0,0:0:0:0:
384,320,109366,1,0,0:0:0:0:
384,64,109795,1,0,0:0:0:0:
128,191,110224,5,0,2:0:0:0:
256,256,110438,1,2,2:0:0:0:
256,128,110652,1,0,2:0:0:0:
384,192,110866,1,0,2:0:0:0:
384,320,111080,1,0,2:0:0:0:
96,96,111509,2,0,B|80:95|94:78|113:97|100:108|92:97,6,35,0|0|0|0|0|0|0,2:2|2:2|2:2|2:2|2:2|2:2|2:2,2:2:0:0:
434,316,112580,1,0,0:0:0:0:
93,323,113009,5,2,0:0:0:0:
328,127,113224,1,0,0:0:0:0:
255,320,113438,1,0,0:0:0:0:
165,132,113652,1,0,0:0:0:0:
429,323,114080,1,0,2:0:0:0:
453,291,114187,1,0,2:0:0:0:
464,248,114294,1,0,2:0:0:0:
300,246,114509,5,0,0:0:0:0:
196,72,114724,1,2,0:0:0:0:
133,242,114938,1,0,0:0:0:0:
374,71,115152,1,0,0:0:0:0:
448,256,115366,1,0,0:0:0:0:
277,110,115795,1,0,2:0:0:0:
234,102,115902,1,0,2:0:0:0:
196,121,116009,1,0,2:0:0:0:
113,287,116224,5,0,0:0:0:0:
251,315,116438,1,2,0:0:0:0:
202,185,116652,1,0,0:0:0:0:
342,190,116866,1,0,0:0:0:0:
274,69,117080,1,0,0:0:0:0:
457,45,117509,1,0,0:0:0:0:
388,159,117938,5,0,2:0:0:0:
361,151,118044,1,0,2:0:0:0:
332,147,118152,1,0,2:0:0:0:
304,153,118259,1,0,2:0:0:0:
279,165,118366,1,0,2:0:0:0:
258,184,118473,1,0,2:0:0:0:
244,209,118580,1,0,2:0:0:0:
233,235,118795,6,0,B|233:169|233:169|202:169|202:169|256:125|256:125|309:169|309:169|277:169|277:169|277:235|277:235|234:234|234:234,1,350
256,192,120296,5,0,0:0:0:0:
256,192,120509,2,0,B|273:155|304:139|324:173|316:186|316:186|256:262|256:262|189:187|189:187|182:176|201:139|226:153|251:193|256:192,1,350
112,64,122010,5,0,0:0:0:0:
188,98,122224,5,0,0:0:0:0:
34,165,122652,1,0,0:0:0:0:
270,117,123081,1,0,0:0:0:0:
31,298,123510,1,0,0:0:0:0:
195,213,123938,5,8,2:0:0:0:
297,308,124152,1,8,2:0:0:0:
345,108,124367,1,8,2:0:0:0:
241,261,124581,1,8,2:0:0:0:
193,38,124796,1,8,2:0:0:0:
300,183,125010,1,8,2:0:0:0:
432,51,125224,5,0,2:0:0:0:
462,85,125331,1,0,2:0:0:0:
471,129,125438,1,0,2:0:0:0:
461,173,125545,1,0,2:0:0:0:
438,212,125652,1,0,2:0:0:0:
396,232,125759,1,0,2:0:0:0:
352,239,125867,1,2,2:0:0:0:
449,136,126296,5,0,0:0:0:0:
170,41,126510,1,0,0:0:0:0:
397,227,126724,1,2,0:0:0:0:
108,278,126938,1,0,0:0:0:0:
280,39,127152,1,0,0:0:0:0:
260,332,127367,1,0,0:0:0:0:
46,129,127581,1,2,0:0:0:0:
259,331,127796,1,0,0:0:0:0:
192,46,128224,5,0,0:0:0:0:
281,325,128438,1,2,0:0:0:0:
462,93,128652,1,0,0:0:0:0:
170,56,128867,1,0,0:0:0:0:
258,336,129081,1,0,0:0:0:0:
193,48,129296,1,2,0:0:0:0:
477,124,129510,1,0,0:0:0:0:
260,323,129724,1,0,0:0:0:0:
302,30,130152,5,2,0:0:0:0:
30,142,130367,1,0,0:0:0:0:
301,29,130581,1,0,0:0:0:0:
479,262,130796,1,0,0:0:0:0:
301,29,131010,1,2,0:0:0:0:
479,262,131224,1,0,0:0:0:0:
256,352,131438,1,0,0:0:0:0:
32,192,131652,1,0,0:0:0:0:
256,32,131867,5,2,0:0:0:0:
32,192,132081,1,0,0:0:0:0:
256,352,132296,1,0,0:0:0:0:
480,192,132510,1,0,0:0:0:0:
278,340,132724,1,2,0:0:0:0:
81,225,132938,1,0,0:0:0:0:
175,22,133152,1,0,0:0:0:0:
418,136,133367,1,0,0:0:0:0:
303,328,133581,1,2,0:0:0:0:
29,195,133796,5,0,0:0:0:0:
187,358,134010,1,0,0:0:0:0:
190,29,134224,1,0,0:0:0:0:
437,263,134438,1,2,0:0:0:0:
90,185,134652,1,0,0:0:0:0:
380,51,134867,1,0,0:0:0:0:
308,336,135081,1,0,0:0:0:0:
359,46,135296,1,2,0:0:0:0:
258,322,135510,5,0,0:0:0:0:
148,48,135724,1,0,0:0:0:0:
401,195,135938,1,0,0:0:0:0:
106,192,136152,1,2,0:0:0:0:
371,318,136367,1,0,0:0:0:0:
261,44,136581,1,0,0:0:0:0:
164,321,136796,1,0,0:0:0:0:
411,161,137010,1,2,0:0:0:0:
116,159,137224,1,0,0:0:0:0:
32,32,137652,5,8,2:0:0:0:
480,96,137867,1,8,2:0:0:0:
32,160,138081,1,8,2:0:0:0:
480,224,138296,1,8,2:0:0:0:
32,288,138510,1,8,2:0:0:0:
480,352,138724,1,8,2:0:0:0:
128,160,138938,1,8,2:0:0:0:
480,0,139152,1,8,2:0:0:0:
192,160,139367,5,0,0:0:0:0:
328,214,139581,1,2,0:0:0:0:
208,110,139796,1,0,0:0:0:0:
308,267,140010,1,0,0:0:0:0:
251,74,140224,1,0,0:0:0:0:
259,299,140438,1,2,0:0:0:0:
313,63,140652,1,0,0:0:0:0:
203,305,140867,1,0,0:0:0:0:
448,192,141081,5,0,0:0:0:0:
64,192,141296,1,2,0:0:0:0:
256,32,141510,1,0,0:0:0:0:
256,352,141938,1,0,0:0:0:0:
64,192,142152,1,2,0:0:0:0:
448,192,142367,1,0,0:0:0:0:
256,32,142581,1,0,0:0:0:0:
256,352,142796,1,0,0:0:0:0:
341,117,143010,5,2,0:0:0:0:
98,174,143224,1,0,0:0:0:0:
275,349,143438,1,0,0:0:0:0:
332,112,143867,5,2,0:0:0:0:
256,352,144081,1,0,0:0:0:0:
93,161,144296,1,0,0:0:0:0:
339,123,144510,1,0,0:0:0:0:
250,356,144724,1,2,0:0:0:0:
100,155,144938,1,0,0:0:0:0:
306,295,145152,5,0,0:0:0:0:
431,77,145367,1,0,0:0:0:0:
181,75,145581,1,2,0:0:0:0:
290,300,145796,1,0,0:0:0:0:
389,71,146010,1,0,0:0:0:0:
199,163,146224,6,0,B|177:116|206:65|263:43|343:83|343:163|319:187|249:194|255:243|255:243|255:315,1,350
256,162,147724,5,0,0:0:0:0:
256,162,147938,2,0,B|259:137|279:135|279:135|286:134|308:138|307:163|304:169|304:169|300:183|267:202|269:214|269:214|275:246|275:246|246:226|232:212|232:212|215:195|201:173|205:152|205:152|211:127|233:129|233:129|252:132|254:162|254:162|256:163,1,350
183,64,149438,5,0,0:0:0:0:
313,320,149652,1,0,0:0:0:0:
276,50,149867,1,2,0:0:0:0:
231,332,150081,1,0,0:0:0:0:
363,94,150296,5,0,0:0:0:0:
157,290,150510,1,0,0:0:0:0:
399,180,150724,1,2,0:0:0:0:
120,215,150938,1,0,0:0:0:0:
378,262,151152,1,0,0:0:0:0:
130,129,151367,1,0,0:0:0:0:
96,352,151581,5,2,0:0:0:0:
64,320,151796,1,0,0:0:0:0:
64,64,152010,5,8,2:0:0:0:
96,32,152224,1,0,0:0:0:0:
416,32,152438,5,2,1:0:0:0:
448,64,152652,1,0,0:0:0:0:
448,320,152867,5,8,2:0:0:0:
416,352,153081,1,0,0:0:0:0:
128,96,153296,6,2,B|139:66|139:66|153:52|171:76|166:87|166:87|139:146|139:146|90:106|90:106|82:99|80:73|102:77|102:77|127:97|127:97,1,280,2|2,1:0|1:0,1:0:0:0:
384,288,153724,6,2,B|408:268|408:268|427:263|431:292|421:300|421:300|368:337|368:337|346:277|346:277|342:268|354:244|370:259|370:259|382:288|382:288,1,280,2|2,1:0|1:0,1:0:0:0:
128,288,154152,6,2,B|139:258|139:258|153:244|171:268|166:279|166:279|139:338|139:338|90:298|90:298|82:291|80:265|102:269|102:269|127:289|127:289,1,280,2|2,1:0|1:0,1:0:0:0:
384,96,154581,6,2,B|408:76|408:76|427:71|431:100|421:108|421:108|368:145|368:145|346:85|346:85|342:76|354:52|370:67|370:67|382:96|382:96,1,280,2|2,1:0|1:0,1:0:0:0:
256,351,155010,6,4,B|96:129|96:129|40:49|179:-74|256:129|256:129|335:-85|470:49|414:128|414:128|255:352,1,1175.99996411133,4|4,1:0|1:0,1:0:0:70:
