osu file format v9

[General]
AudioFilename: 59. Vanish into the sky.mp3
AudioLeadIn: 1500
PreviewTime: 7809
Countdown: 0
SampleSet: Normal
StackLeniency: 0.7
Mode: 0
LetterboxInBreaks: 1

[Editor]
DistanceSpacing: 1
BeatDivisor: 4
GridSize: 8

[Metadata]
Title:Vanish into the sky
Artist:Lee Sang Yong
Creator:Mesme
Version:Normal
Source:Tartaros Online
Tags:

[Difficulty]
HPDrainRate:2
CircleSize:4
OverallDifficulty:1
ApproachRate:3
SliderMultiplier:0.80000000596046
SliderTickRate:1

[Events]
//Background and Video events
0,0,"background.jpg"
//Break Periods
2,40440,48529
2,92328,97174
2,131244,136090
//Storyboard Layer 0 (Background)
//Storyboard Layer 1 (Fail)
//Storyboard Layer 2 (Pass)
//Storyboard Layer 3 (Foreground)
//Storyboard Sound Samples
//Background Colour Transformations
3,100,163,162,255

[TimingPoints]
2945.43980289241,405.378014998987,4,1,0,70,1,0
25849,-100,4,2,0,70,0,0
27673,-100,4,1,0,70,0,0
40442,-100,4,1,0,70,0,0
52806,-100,4,1,0,70,0,1
65779,-100,4,2,0,70,0,0
78751,-100,4,1,0,70,0,0
105100,-100,4,1,0,70,0,1
117667,-100,4,1,0,70,0,0
130639,-100,4,1,0,70,0,0
143611,-100,4,2,0,70,0,0
158407,-100,4,1,0,70,0,1
170974,-100,4,1,0,70,0,0
171380,-100,4,1,0,70,0,1
184149,-100,4,2,0,70,0,0
196716,-100,4,1,0,70,0,0

[Colours]
Combo1 : 192,192,192
Combo2 : 191,0,0
Combo3 : 255,128,0
Combo4 : 253,216,2

[HitObjects]
184,120,1323,2,0,B|256:72|352:128,1,160.000001192092,0|4
336,280,2945,2,0,B|256:328|176:264,1,160.000001192092,0|4
344,272,4566,6,0,B|408:192|328:120,1,160.000001192092,0|4
176,128,6188,2,0,B|112:208|184:272,1,160.000001192092,0|4
336,320,7809,6,0,B|384:320|400:264,1,80.000000596046,2|0
328,240,8620,2,0,B|344:192|392:184,1,80.000000596046,0|4
328,128,9431,6,0,B|328:72|264:72,1,80.000000596046,2|0
232,136,10242,2,0,B|176:128|176:72,1,80.000000596046,0|4
112,128,11053,6,0,B|72:136|80:192,1,80.000000596046,2|0
160,200,11863,2,0,B|192:248|136:280,1,80.000000596046,0|4
216,320,12674,6,0,B|224:272|264:256,1,80.000000596046,2|0
328,296,13485,2,0,B|360:264|320:208,1,80.000000596046,4|4
408,224,14296,6,0,B|448:184|456:144|432:112|384:88,1,160.000001192092
344,160,15512,1,0
344,120,15714,1,0
304,96,15918,2,0,B|266:114|242:146|250:186|290:226,1,160.000001192092
352,272,17134,1,4
320,288,17336,1,0
280,304,17539,2,0,B|240:328|192:328,3,80.000000596046
128,304,19161,6,0,B|88:280|72:232,1,80.000000596046
144,200,19971,2,0,B|144:152|80:136,1,80.000000596046,0|4
192,80,20782,6,0,B|232:48|272:80,1,80.000000596046,2|0
336,112,21593,1,0
360,144,21795,1,0
376,184,21998,1,0
296,184,22404,2,0,B|264:216|304:264,1,80.000000596046,2|0
376,264,23214,2,0,B|408:312|368:352,1,80.000000596046,0|4
336,336,23822,1,0
304,312,24025,2,0,B|224:312|144:248|88:192|72:120,1,320.000002384184,2|0
120,56,26052,6,2,B|200:56,1,80.000000596046
208,136,26863,2,0,B|296:136,1,80.000000596046,2|4
448,136,28079,6,0,B|464:176|448:224|416:248|368:264,1,160.000001192092,4|0
304,296,29295,1,0
304,216,29701,2,0,B|264:200|216:216|192:248|180:286,1,160.000001192092,4|0
104,296,30917,2,0,B|64:264|48:224,1,80.000000596046
120,192,31727,2,0,B|80:168|104:112,1,80.000000596046,0|4
176,136,32538,1,0
240,192,32944,1,0
296,136,33349,1,0
336,152,33551,1,0
352,192,33754,6,0,B|440:176|456:144|472:96,1,160.000001192092,0|4
392,80,34970,2,0,B|376:72|336:64|296:64,1,80.000000596046
288,144,35781,2,0,B|310:143|350:151|366:159,1,80.000000596046
432,208,36592,1,4
256,192,36997,12,4,40240
246,64,49969,6,0,B|192:72|176:96|152:128|100:114,1,160.000001192092
80,192,51186,1,4
96,272,51591,2,0,B|150:279|166:303|190:335|242:322,1,160.000001192092,0|4
408,240,53212,6,0,B|344:288|240:280,1,160.000001192092,4|0
176,296,54429,1,0
120,240,54834,2,0,B|72:168|128:88,1,160.000001192092,4|0
192,48,56050,2,0,B|232:80|200:128,1,80.000000596046
280,152,56861,6,0,B|232:176|280:232,1,80.000000596046
352,208,57672,1,0
352,288,58077,2,0,B|408:288|432:256|440:240|440:208|432:168,1,160.000001192092,0|4
320,72,59699,6,0,B|368:64|400:88,1,80.000000596046,2|0
352,152,60509,2,0,B|400:168|416:216,1,80.000000596046,0|4
376,224,61117,1,0
344,240,61320,2,0,B|384:280|376:320,1,80.000000596046,2|0
296,304,62131,2,0,B|240:304|224:256,1,80.000000596046,0|4
192,288,62738,1,0
160,296,62942,6,0,B|104:272|80:248|80:208|104:160,1,160.000001192092,2|0
168,208,64158,1,0
168,128,64563,2,0,B|240:136|256:168|248:240,1,160.000001192092,0|4
376,144,66184,6,0,B|408:144|432:152|408:96|360:80|320:120|304:144|312:176|352:192|376:208|376:208|376:240|376:240|376:240|376:320,1,320.000002384184,2|4
256,200,68616,1,0
256,96,69022,1,2
184,128,69427,2,0,B|184:194|184:194|184:194|184:226|184:226|208:242|248:258|256:290|240:314|200:354|152:338|128:282|152:290|184:290,1,320.000002384184,0|4
312,192,71859,1,2
232,192,72265,1,0
256,192,72671,12,4,77332
256,96,77737,1,4
328,136,78143,1,4
400,96,78548,1,4
440,192,79156,6,0,B|424:272|392:312|352:336|288:368|240:368|192:360|128:320|64:272|40:168,1,560.000004172322,0|4
48,96,82399,2,0,B|96:104|136:128,1,80.000000596046
184,72,83209,2,0,B|216:112|224:144,1,80.000000596046,0|0
296,104,84020,2,0,B|320:144|312:192,1,80.000000596046
392,184,84831,1,0
392,184,85236,1,4
472,184,85642,6,0,B|424:96|392:56|352:32|248:16|240:8|176:32|112:72|64:120|40:184,1,560.000004172322,4|4
72,256,88885,2,0,B|120:288|160:280,1,80.000000596046
168,208,89696,2,0,B|224:208|240:240,1,80.000000596046
232,320,90507,2,0,B|280:328|312:320|344:280|336:232,1,160.000001192092,0|4
264,208,91723,2,0,B|256:160|320:144,1,80.000000596046,0|4
256,64,98614,6,0,B|256:128,1,60.0000004470345,0|4
320,200,99425,2,0,B|260:200,1,60.0000004470345,0|4
328,280,100236,2,0,B|371:301|403:277,3,80.000000596046
440,208,101857,6,0,B|416:136|400:112|360:80|336:80,1,160.000001192092,2|0
280,120,103073,1,0
200,136,103479,1,0
168,208,103884,1,0
208,280,104289,1,0
104,160,105100,6,0,B|136:128|192:144,1,80.000000596046
200,64,105911,2,0,B|248:96|280:96|328:96|360:72,1,160.000001192092
432,72,107127,1,0
472,144,107532,2,0,B|488:184|456:216,1,80.000000596046,0|4
376,216,108343,6,0,B|368:272|312:280,1,80.000000596046
288,208,109154,1,0
272,168,109357,1,0
240,144,109559,1,0
160,136,109965,1,0
104,192,110370,2,0,B|72:240|72:256|72:296|112:320|136:336,1,160.000001192092,0|4
208,320,111586,6,0,B|256:328|288:304,1,80.000000596046,2|0
280,224,112397,2,0,B|320:232|352:192,1,80.000000596046,0|4
368,160,113005,1,0
328,120,113208,2,0,B|376:104|384:56,1,80.000000596046,2|0
320,16,114019,2,0,B|264:24|248:72,1,80.000000596046,0|4
216,64,114627,1,0
176,88,114829,6,0,B|208:112|200:128|184:152|168:200|184:232|200:248,1,160.000001192092,2|0
256,192,116045,1,4
320,240,116451,2,0,B|327:234|343:202|327:154|311:130|303:114|335:90,1,160.000001192092,2|0
376,248,118072,5,2
320,304,118478,1,0
240,312,118883,1,0
168,272,119288,1,0
144,240,119491,1,0
144,200,119694,2,0,B|152:144|176:120,1,80.000000596046,2|0
232,72,120505,2,0,B|280:48|312:72,1,80.000000596046,0|4
344,80,121113,1,0
376,112,121315,5,2
424,176,121721,1,0
416,256,122126,1,0
360,312,122531,1,0
320,336,122734,1,0
280,312,122937,2,0,B|312:280|304:248|248:216|248:184|248:160,1,160.000001192092,0|4
112,80,124558,6,0,B|64:96|48:128|40:152|40:184|48:208,1,160.000001192092,2|0
112,256,125774,1,0
160,192,126180,2,0,B|192:176|240:200,1,80.000000596046,2|0
216,272,126991,2,0,B|272:288|304:272,1,80.000000596046,0|4
320,304,127599,1,0
368,304,127801,6,0,B|416:288|360:256|416:224|456:200|456:160,1,160.000001192092,0|0
408,112,129018,1,4
328,88,129423,2,0,B|302:93|292:139|279:202|231:159|231:209,1,160.000001192092,0|4
152,208,130639,1,0
152,208,131044,1,0
120,168,137530,6,0,B|112:112|168:96,1,80.000000596046,2|0
208,160,138341,2,0,B|256:144|240:96,1,80.000000596046,0|4
280,88,138949,1,0
320,112,139152,2,0,B|368:88|400:128,1,80.000000596046,2|0
400,200,139963,2,0,B|373:246|333:206,1,80.000000596046,0|4
256,192,140773,12,4,143611
104,256,144016,6,0,B|152:296|192:296|240:304|288:288|344:264|376:232|376:200,1,320.000002384184,0|2
224,160,146449,1,0
384,184,147260,2,0,B|392:128|304:64|176:48|104:64,1,320.000002384184,2|0
96,136,149286,1,2
120,208,149692,1,2
264,296,150503,6,0,B|312:296|344:288|368:264|384:248|416:224,1,160.000001192092,2|4
296,120,152124,2,0,B|248:120|216:128|192:152|176:168|154:183,1,160.000001192092,2|4
232,320,153746,6,2,B|184:344|152:296,1,80.000000596046
208,240,154556,1,4
336,152,155367,2,2,B|336:96|272:96,1,80.000000596046
256,168,156178,1,4
112,240,156989,6,0,B|105:171|116:168|153:152|196:141|160:92|151:59|228:39,1,240.000001788138,4|4
296,64,158610,6,0,B|344:72|368:104,1,80.000000596046,2|0
304,152,159421,2,0,B|352:184|384:176,1,80.000000596046,0|4
416,184,160029,1,0
456,200,160232,2,0,B|488:232|472:272,1,80.000000596046,2|0
392,256,161042,2,0,B|360:288|384:328,1,80.000000596046,0|4
304,320,161853,6,0,B|224:296|176:264|160:200|168:152,1,240.000001788138,0|4
168,72,163475,2,0,B|80:72,3,80.000000596046
128,144,165096,5,2
184,208,165502,1,0
248,256,165907,1,0
312,208,166312,1,4
360,144,166718,1,2
328,72,167123,2,0,B|232:72,1,80.000000596046
168,72,167934,2,0,B|256:72,1,80.000000596046,4|2
256,152,168745,6,0,B|256:240,1,80.000000596046
256,312,169555,1,4
184,272,169961,6,0,B|264:200|336:288,1,160.000001192092,2|4
416,144,171582,6,0,B|408:104|344:96,1,80.000000596046,2|0
336,176,172393,2,0,B|296:136|256:144,1,80.000000596046,0|4
256,184,173001,1,0
208,200,173204,2,0,B|176:160|184:120,1,80.000000596046,2|0
136,64,174014,1,0
72,112,174420,1,4
56,152,174623,1,0
72,192,174825,5,2
128,248,175231,1,0
200,288,175636,2,0,B|237:310|280:292,1,80.000000596046,0|4
248,216,176447,2,0,B|294:200|330:235,1,80.000000596046,2|0
368,296,177257,1,0
400,272,177460,1,0
408,232,177663,1,4
448,160,178068,6,0,B|424:104|376:72|312:64,1,160.000001192092,2|0
256,104,179284,1,4
184,64,179690,2,0,B|96:64|72:160,1,160.000001192092,2|0
120,224,180906,1,4
96,256,181109,1,0
88,296,181311,2,0,B|160:344|248:296,1,160.000001192092,2|0
208,224,182527,1,4
168,152,182933,2,0,B|256:112|320:176,1,160.000001192092,2|4
232,304,184554,6,0,B|256:248|280:312|312:328|352:296|368:272|368:272|456:272,1,240.000001788138,2|4
472,200,186176,2,0,B|496:120|416:96|360:224|288:104,1,240.000001788138,2|4
216,120,187797,2,0,B|154:224|98:96|18:120|42:200,1,240.000001788138,4|2
72,272,189419,2,0,B|149:272|149:272|165:296|205:328|237:312|261:248|285:304,1,240.000001788138,4|4
368,296,191040,2,0,B|330:183|464:225|498:148|427:117,1,240.000001788138,4|2
352,116,192662,2,0,B|281:147|315:223|449:182|412:294,1,240.000001788138,2|4
256,192,194283,12,4,195905
376,192,196918,6,0,B|304:192,1,60.0000004470345
256,192,197526,1,4
