osu file format v9

[General]
AudioFilename: 59. Vanish into the sky.mp3
AudioLeadIn: 1500
PreviewTime: 7809
Countdown: 0
SampleSet: Normal
StackLeniency: 0.7
Mode: 0
LetterboxInBreaks: 1

[Editor]
DistanceSpacing: 1
BeatDivisor: 4
GridSize: 8

[Metadata]
Title:Vanish into the sky
Artist:Lee Sang Yong
Creator:Mesme
Version:Easy
Source:Tartaros Online
Tags:

[Difficulty]
HPDrainRate:0
CircleSize:4
OverallDifficulty:0
ApproachRate:4
SliderMultiplier:1.00000000596046
SliderTickRate:2

[Events]
//Background and Video events
0,0,"background.jpg"
//Break Periods
2,27467,32028
2,38413,38920
2,79356,90808
2,131244,142696
//Storyboard Layer 0 (Background)
//Storyboard Layer 1 (Fail)
//Storyboard Layer 2 (Pass)
//Storyboard Layer 3 (Foreground)
//Storyboard Sound Samples
//Background Colour Transformations
3,100,163,162,255

[TimingPoints]
2945.43980289241,405.378014998987,4,1,0,60,1,0
25849,-100,4,2,0,60,0,0
27673,-100,4,1,0,60,0,0
40442,-100,4,1,0,60,0,0
52806,-100,4,1,0,60,0,1
65981,-100,4,2,0,60,0,0
78751,-100,4,1,0,60,0,0
105100,-100,4,1,0,60,0,1
117667,-100,4,1,0,60,0,0
130639,-100,4,1,0,60,0,0
143611,-100,4,2,0,60,0,0
158407,-100,4,1,0,60,0,1
170974,-100,4,1,0,60,0,0
171380,-100,4,1,0,60,0,1
184960,-100,4,1,0,60,0,0

[Colours]
Combo1 : 192,192,192
Combo2 : 191,0,0
Combo3 : 255,128,0
Combo4 : 253,216,2

[HitObjects]
104,104,1323,2,0,B|168:56|272:208|392:64,1,300.000001788138,0|4
384,176,2945,2,4,B|274:308|170:156|106:204,1,300.000001788138,0|4
72,296,4566,2,0,B|16:272|16:200|16:128|48:88|120:80|144:80,1,300.000001788138,0|4
240,80,6188,2,0,B|261:79|333:87|365:127|365:199|365:271|309:295,1,300.000001788138,0|4
264,208,7809,6,0,B|160:208,3,100.000000596046,0|0|0|8
216,120,9431,2,0,B|316:120,3,100.000000596046,0|0|0|8
408,104,11053,6,0,B|488:184|456:272|424:328|336:336,1,300.000001788138,0|8
248,336,12674,2,0,B|170:329|138:273|106:185|185:106,1,300.000001788138,0|8
280,64,14296,5,4
440,192,15106,1,0
264,288,15917,1,4
88,192,16728,1,0
248,64,17539,2,0,B|184:48|144:112,4,100.000000596046,0|0|0|8|0
448,72,19971,1,0
472,272,20782,6,0,B|464:192|400:96|336:88|264:88,1,300.000001788138,4|8
192,152,22403,2,0,B|191:216|199:280|295:344|375:352,1,300.000001788138,0|8
384,256,24025,1,0
384,56,24835,1,0
208,152,25646,1,4
112,152,26051,2,0,B|48:152|64:232,3,100.000000596046,2|0|0|4
168,112,33348,5,0
96,184,33754,2,0,B|56:272|96:320|160:344,1,200.000001192092,0|4
248,296,34970,1,8
208,208,35375,2,0,B|231:144|279:104|367:144,1,200.000001192092
368,248,36591,1,8
448,312,36997,2,0,B|496:216|496:160|456:96|360:88,1,300.000001788138,4|0
256,64,40240,5,4
256,264,41050,1,4
72,184,41861,2,0,B|168:136|240:168|376:168,1,300.000001788138,0|8
464,176,43483,1,0
304,72,44293,1,4
104,88,45104,2,0,B|152:184|240:224|328:208|368:184,1,300.000001788138,0|8
400,280,46726,5,0
200,280,47537,1,0
288,104,48347,2,0,B|328:168|296:216,3,100.000000596046,0|0|0|8
208,192,49969,2,0,B|96:232|96:296|88:344,1,200.000001192092,4|0
208,192,51590,2,0,B|96:152|96:88|88:40,1,200.000001192092,4|8
288,80,53212,5,0
456,192,54023,1,0
256,192,54833,2,0,B|368:192,3,100.000000596046,0|0|0|8
376,288,56455,5,0
176,288,57266,1,0
88,104,58076,2,0,B|48:135|85:193,4,100.000000596046,0|0|0|8|0
288,88,60509,1,0
456,192,61319,1,0
288,304,62130,1,8
88,272,62941,2,0,B|96:200|144:160|200:144|280:168|312:200|328:224,1,300.000001788138,4|0
416,200,64562,2,0,B|480:176|464:112,3,100.000000596046,0|0|0|8
376,80,66184,6,0,B|288:40|208:40|144:48|96:88|72:104,1,300.000001788138,2|4
96,192,67805,2,0,B|184:232|264:232|328:224|376:184|400:168,1,300.000001788138,2|4
416,88,69427,6,0,B|344:144|440:216|480:240|368:296|312:320,1,300.000001788138,2|4
216,320,71048,2,0,B|222:229|104:252|60:265|93:145|113:87,1,300.000001788138,2|4
208,56,72670,6,0,B|320:40|400:64|456:112|480:144,1,300.000001788138,2|4
480,248,74291,2,0,B|400:304|320:328|240:320|192:296,1,300.000001788138,2|4
256,192,75913,12,4,79156
112,80,92128,5,4
112,280,92939,1,0
288,184,93750,2,0,B|176:184,3,100.000000596046,0|0|0|8
256,256,95371,5,4
256,56,96182,1,0
424,168,96993,2,0,B|328:104|280:176|224:176,1,200.000001192092,0|4
64,72,98614,5,4
264,80,99425,1,0
144,240,100236,2,0,B|232:152|264:272|344:224,1,200.000001192092,0|8
152,128,101857,5,0
352,128,102668,1,0
256,304,103479,2,0,B|256:192,2,100.000000596046,0|0|8
344,120,105100,5,4
144,120,105911,1,0
160,320,106722,2,0,B|264:320|312:304|360:280,1,200.000001192092,0|4
176,192,108343,5,0
376,192,109154,1,8
232,48,109965,2,0,B|336:96|280:144|264:208|272:240,1,200.000001192092,0|4
112,96,111586,5,0
104,296,112397,1,8
304,296,113208,1,0
304,96,114019,1,0
480,192,114829,2,0,B|408:160|352:200|304:216|280:200,1,200.000001192092,0|4
88,200,116451,2,0,B|200:200,3,100.000000596046,0|0|0|8
160,104,118072,6,0,B|256:24|352:56,1,200.000001192092,0|4
432,232,119694,2,0,B|384:328|264:336,1,200.000001192092,0|4
376,160,121315,1,0
176,160,122126,1,8
376,160,122937,1,0
264,328,123748,2,0,B|264:264,2,50.000000298023,0|0|8
176,280,124558,6,0,B|112:208|104:160|128:80,1,200.000001192092,4|0
200,160,125774,1,0
232,64,126180,2,0,B|320:136|296:256,1,200.000001192092,0|4
104,256,127801,1,0
104,56,128612,1,8
280,160,129423,2,0,B|168:160,4,100.000000596046,0|0|0|8|0
456,192,144016,5,0
256,192,144827,1,2
56,200,145638,2,0,B|64:128|120:104,3,100.000000596046,0|0|2|0
168,192,147260,1,0
344,288,148070,1,2
384,96,148881,2,0,B|368:168|320:216|256:240,1,200.000001192092,2|4
144,72,150503,6,0,B|256:24|328:56|352:64,1,200.000001192092,0|4
352,256,152124,2,0,B|248:320|152:280,1,200.000001192092,0|4
144,184,153340,1,0
192,96,153746,2,0,B|248:64|296:88,2,100.000000596046,0|0|4
360,208,155367,2,0,B|424:248|456:200,2,100.000000596046,0|0|4
176,296,156989,2,0,B|96:272|88:184|96:128|184:88|248:104,1,300.000001788138,2|4
328,104,158610,5,4
456,256,159421,1,0
256,288,160232,2,0,B|344:216,3,100.000000596046,0|0|0|8
256,152,161853,5,0
56,152,162664,1,0
200,288,163475,2,0,B|280:216|368:264|408:264,1,200.000001192092,0|4
440,72,165096,6,0,B|352:144|296:112|256:64,1,200.000001192092,0|4
240,272,166718,2,0,B|152:200|96:232|56:280,1,200.000001192092,0|4
112,72,168339,1,0
264,208,169150,1,8
64,208,169961,2,0,B|120:176|168:216,3,100.000000596046,0|0|0|8
200,304,171582,5,0
400,288,172393,1,0
456,96,173204,1,0
264,152,174014,1,8
64,152,174825,5,0
168,320,175636,1,0
368,328,176447,1,0
368,232,176852,2,0,B|312:224|280:288,2,100.000000596046,0|0|8
472,232,178068,6,0,B|488:120|432:72|400:56|344:32|280:64,1,300.000001788138,4|0
200,56,179690,2,0,B|80:16|24:104|32:208|64:240,1,300.000001788138,4|8
144,280,181311,1,0
344,280,182122,1,0
248,104,182933,2,0,B|232:160|264:208,3,100.000000596046,0|0|0|8
256,304,184554,1,4
