osu file format v4

[General]
AudioFilename: Jung Hyun Lee - Welcome To My Style.mp3
AudioLeadIn: 0
AudioHash: 1ae9d1c925d7d33e8ad08381a49731c6
PreviewTime: -1
SampleSet: Normal

[Metadata]
Title:Welcome To My Style
Artist:Lee Jung Hyun
Creator:EiJi
Version:Hardish

[Difficulty]
HPDrainRate:6
CircleSize:5
OverallDifficulty:5
SliderMultiplier: 1.4
SliderTickRate: 8

[Events]
0,0,"ljh.jpg"
2,90913,99101
2,179977,188473
3,0,163,162,255

[TimingPoints]
1652,618.492938872281,4,1,0

[HitObjects]
256,192,1652,1,0,
296,192,1858,1,0,
296,192,1961,2,0,L|296:192|384:192,3,70
240,88,4022,5,0,
240,88,4125,1,0,
240,128,4332,1,0,
240,128,4435,2,0,L|240:128|240:216,3,70
184,192,5672,2,0,L|184:192|152:160|112:160,1,70
104,272,6599,5,0,
144,272,6806,1,0,
144,272,6909,1,0,
200,272,7218,2,0,L|200:272|232:256|184:248,2,70
256,272,8146,6,0,L|256:272|256:224,4,35
296,272,8970,1,0,
296,272,9073,1,0,
352,272,9383,1,0,
408,272,9692,1,0,
464,272,10001,1,0,
464,216,10310,1,0,
464,104,10929,5,0,
408,104,11238,2,0,L|408:104|392:64|352:64,3,70
248,160,13403,5,0,
272,160,13557,1,0,
272,184,13712,1,0,
248,184,13867,1,0,
216,184,14021,2,0,L|216:184|216:112,4,70
48,192,16186,6,0,L|48:192|80:152|112:160,2,70
104,192,17114,1,0,
160,192,17423,1,0,
216,192,17732,1,0,
216,272,18196,5,0,
216,296,18351,1,0,
240,296,18505,1,0,
264,296,18660,1,0,
288,296,18815,1,0,
312,296,18969,1,0,
368,296,19279,5,0,
392,296,19433,1,0,
392,240,19742,5,0,
392,208,19897,1,0,
392,176,20052,1,0,
392,144,20206,1,0,
352,144,20438,1,0,
312,144,20669,1,0,
224,144,21134,6,0,L|224:144|208:168|200:160|176:176|168:160,2,70
112,144,22371,1,0,
112,200,22680,1,0,
104,312,23299,5,0,
104,312,23453,1,0,
104,312,23608,1,0,
104,312,23763,1,0,
104,312,23917,2,0,L|104:312|104:240,4,70
272,280,26082,6,0,L|272:280|336:240|320:224,5,70
256,192,28092,5,0,
256,192,28247,1,0,
256,192,28401,1,0,
256,192,28556,1,0,
256,192,28711,1,0,
256,192,28865,1,0,
200,192,29174,5,0,
200,192,29329,1,0,
144,192,29638,5,0,
144,192,29793,1,0,
144,192,29948,1,0,
144,192,30102,1,0,
88,192,30411,1,0,
88,192,30566,1,0,
88,272,31030,5,0,
144,272,31339,2,0,L|144:272|240:296|384:280|456:192,1,350
448,144,33195,2,0,L|448:144|432:160|376:120,2,70
280,144,34741,5,0,
168,152,35359,1,0,
168,208,35669,1,0,
168,264,35978,1,0,
224,264,36287,2,0,L|224:264|320:240|160:24,1,350
112,40,38143,5,0,
112,96,38452,1,0,
112,96,38606,2,0,L|112:96|72:96|72:24,1,105
256,192,39998,12,0,41235
336,192,42163,2,0,L|336:192|280:136,5,70
248,144,44328,5,0,
248,200,44637,1,0,
192,200,44946,1,0,
192,144,45255,1,0,
136,144,45564,1,0,
136,200,45874,1,0,
136,224,46028,2,0,L|136:224|208:312|312:208,1,245
336,176,47420,1,0,
168,176,48348,5,0,
112,176,48657,2,0,L|112:176|104:88,8,70
168,176,51440,6,0,L|168:176|256:176,3,70
408,168,53296,2,0,L|408:168|320:200|320:256,1,140
264,248,54223,1,0,
208,248,54533,1,0,
152,248,54842,1,0,
168,136,55460,5,0,
224,136,55770,2,0,L|224:136|272:104|184:48,1,140
144,56,56697,1,0,
144,112,57007,1,0,
144,168,57316,1,0,
256,192,58244,12,0,61027
192,144,61336,2,0,L|192:144|248:200|240:200,3,70
392,112,63192,6,0,L|392:112|304:176|264:152,1,140
224,160,64119,1,0,
168,160,64429,1,0,
112,160,64738,2,0,L|112:160|112:240|184:240,1,140
224,240,65666,2,0,L|224:240|304:240|304:160,1,140
256,192,66439,12,0,67830
360,176,68758,2,0,L|360:176|288:216,3,70
240,216,69995,2,0,L|240:216|112:160|184:96,1,210
272,112,71541,6,0,L|272:112|360:112,3,70
336,112,72624,1,0,
336,192,73087,1,0,
336,248,73397,1,0,
224,256,74015,6,0,L|224:256|136:256,3,70
152,256,75098,1,0,
152,168,75561,1,0,
152,112,75871,1,0,
256,192,76489,12,0,77726
376,184,78035,2,0,L|376:184|312:120|232:120,1,140
208,120,78963,2,0,L|208:120|128:120,6,70
320,120,81437,5,0,
376,120,81746,1,0,
432,120,82056,1,0,
488,120,82365,1,0,
488,120,82519,1,0,
488,200,82983,5,0,
488,256,83293,1,0,
376,256,83911,5,0,
376,200,84220,1,0,
376,144,84530,1,0,
376,88,84839,1,0,
376,88,84993,1,0,
288,88,85457,5,0,
288,144,85767,1,0,
288,256,86385,5,0,
256,256,86540,1,0,
224,256,86694,1,0,
224,224,86849,1,0,
224,192,87004,1,0,
224,136,87313,5,0,
224,136,87467,1,0,
224,48,87931,2,0,L|224:48|120:48|120:104,1,140
120,136,88859,5,0,
120,192,89168,1,0,
120,248,89477,2,0,L|120:248|120:296|144:296|144:336|176:336,2,140
256,192,100301,5,0,
256,192,100610,1,0,
360,88,102157,5,0,
304,88,102466,1,0,
304,144,102775,1,0,
248,144,103084,1,0,
248,312,104012,1,0,
360,312,104631,5,0,
360,256,104940,1,0,
360,200,105249,1,0,
360,144,105558,1,0,
80,136,107105,5,0,
80,192,107414,1,0,
80,248,107723,1,0,
80,248,107878,1,0,
160,248,108342,1,0,
328,248,109269,5,0,
296,200,109579,1,0,
328,152,109888,1,0,
296,104,110197,1,0,
328,56,110506,1,0,
216,56,111125,5,0,
176,96,111434,1,0,
136,136,111743,1,0,
120,184,112052,1,0,
152,232,112362,1,0,
184,272,112671,1,0,
224,304,112980,5,0,
224,304,113135,1,0,
224,304,113289,1,0,
280,304,113599,5,0,
312,256,113908,1,0,
336,208,114217,1,0,
360,160,114526,1,0,
392,112,114836,1,0,
416,64,115145,1,0,
384,64,115300,2,0,L|384:64|136:64,1,245
80,64,116691,1,0,
80,232,117619,5,0,
192,240,118237,1,0,
248,240,118547,1,0,
304,240,118856,5,0,
304,240,119011,1,0,
304,240,119165,1,0,
360,240,119474,5,0,
360,240,119629,1,0,
360,240,119784,1,0,
416,240,120093,5,0,
416,240,120248,1,0,
416,240,120402,1,0,
472,240,120711,5,0,
472,240,120866,1,0,
472,240,121021,1,0,
472,184,121330,6,0,L|472:184|472:88,1,70
304,104,122567,2,0,L|304:104|46:103|48:216,1,350
48,304,124732,2,0,L|48:304|264:304,1,210
312,304,125969,2,0,L|312:304|312:216,2,70
256,192,127515,12,0,129989
176,136,130607,2,0,L|176:136|264:136,3,70
416,144,132463,2,0,L|416:144|416:296,1,140
360,288,133390,5,0,
304,288,133700,1,0,
248,288,134009,1,0,
136,288,134627,1,0,
80,288,134937,1,0,
80,176,135555,6,0,L|80:176|80:80,2,70
80,176,136328,1,0,
160,176,136792,2,0,L|160:176|160:96,1,70
264,184,138029,2,0,L|264:184|264:112,2,70
264,184,138802,1,0,
256,192,139266,12,0,140194
160,136,140812,1,0,
160,192,141122,1,0,
160,248,141431,1,0,
160,304,141740,1,0,
160,304,141895,1,0,
240,304,142359,5,0,
240,248,142668,1,0,
336,304,143286,5,0,
336,248,143596,1,0,
336,192,143905,1,0,
336,136,144214,1,0,
336,136,144369,1,0,
248,136,144833,5,0,
248,192,145142,1,0,
256,192,145760,12,0,147307
160,128,147925,1,0,
160,184,148234,1,0,
216,184,148544,1,0,
216,240,148853,1,0,
160,240,149162,1,0,
104,240,149471,1,0,
104,296,149781,1,0,
104,352,150090,1,0,
216,352,150708,6,0,L|216:352|216:272,3,70
216,282,151791,1,0,
296,280,152255,5,0,
296,224,152564,1,0,
296,112,153182,6,0,L|296:112|216:112,3,70
224,112,154265,1,0,
112,112,154729,5,0,
112,168,155038,1,0,
112,280,155656,6,0,L|112:280|112:240,4,35
168,280,156584,2,0,L|168:280|168:248,1,35
240,280,157202,6,0,L|240:280|320:280|320:200,1,140
320,160,158130,2,0,L|320:160|224:160,2,70
208,160,159367,6,0,L|208:160|128:160|128:88,2,140
264,160,160913,1,0,
320,160,161223,1,0,
376,160,161532,1,0,
376,160,161687,1,0,
432,160,161996,1,0,
432,160,162150,1,0,
432,160,162305,1,0,
432,240,162769,6,0,L|432:240|336:240,3,70
304,240,164006,1,0,
248,240,164315,1,0,
192,240,164624,2,0,L|192:240|112:240|112:160,1,140
112,120,165552,6,0,L|112:120|112:40,2,70
112,176,166480,1,0,
112,176,166634,1,0,
112,176,166789,1,0,
112,232,167098,1,0,
112,232,167253,1,0,
112,232,167408,2,0,L|112:232|112:320,4,70
224,232,169263,6,0,L|224:232|312:232,2,70
224,176,170191,1,0,
224,120,170500,1,0,
280,120,170809,1,0,
336,120,171119,1,0,
336,120,171273,2,0,L|336:120|336:80,3,35
392,88,172046,6,0,L|392:88|392:136,12,35
480,120,174366,6,0,L|480:120|480:80,5,35
424,80,175448,5,0,
368,80,175757,1,0,
312,80,176067,6,0,L|312:80|312:16,2,35
280,80,176530,6,0,L|280:80|280:24,2,35
248,80,176994,6,0,L|248:80|248:16,2,35
216,80,177458,6,0,L|216:80|216:40,15,35
256,192,189673,5,0,
368,192,190292,2,0,L|368:192|368:96,3,70
368,122,191374,1,0,
280,120,191838,5,0,
224,120,192147,1,0,
112,120,192766,5,0,
112,176,193075,1,0,
112,232,193384,1,0,
112,288,193694,1,0,
112,288,193848,1,0,
192,288,194312,6,0,L|192:288|272:288,1,70
376,288,195240,2,0,L|376:288|376:224,4,35
320,288,196168,1,0,
320,288,196322,1,0,
232,288,196786,6,0,L|232:288|216:288|216:256|176:256|168:288|144:296,4,140
288,288,199569,5,0,
344,288,199878,1,0,
384,216,201425,2,0,L|384:216|384:168,4,35
328,216,202352,1,0,
328,216,202507,1,0,
272,216,202816,1,0,
272,216,202971,1,0,
216,216,203280,1,0,
104,88,204208,5,0,
144,128,204517,1,0,
184,168,204826,1,0,
432,168,206218,6,0,L|432:168|432:136,5,35
376,136,207300,1,0,
376,136,207455,1,0,
320,136,207764,1,0,
320,136,207919,1,0,
320,136,208074,1,0,
320,136,208228,1,0,
264,136,208537,1,0,
264,136,208692,1,0,
176,136,209156,6,0,L|176:136|176:216,2,70
432,200,211321,2,0,L|432:200|480:200,4,35
376,200,212248,2,0,L|376:200|336:200,1,35
280,200,212712,2,0,L|280:200|248:200,1,35
184,200,213176,1,0,
256,200,214104,5,0,
256,200,214413,1,0,
256,200,214722,1,0,
96,200,216114,5,0,
96,200,216269,1,0,
152,200,216578,1,0,
152,144,216887,1,0,
208,144,217196,1,0,
208,200,217506,1,0,
264,200,217815,1,0,
264,144,218124,2,4,L|264:144|336:144|336:64,2,140
